<?xml version="1.0" standalone="no"?>
<!DOCTYPE svg PUBLIC "-//W3C//DTD SVG 1.1//EN" "http://www.w3.org/Graphics/SVG/1.1/DTD/svg11.dtd" >
<svg>
<metadata>
Created by FontForge 20090914 at Sun Jun 23 18:17:48 2013
 By www-data
</metadata>
<defs>
<font id="MetaPro-Light-Regular" horiz-adv-x="0" >
  <font-face 
    font-family="MetaPro-Light"
    font-weight="400"
    font-stretch="normal"
    units-per-em="1024"
    panose-1="2 11 6 0 5 3 2 2 2 4"
    ascent="819"
    descent="-205"
    x-height="510"
    cap-height="702"
    bbox="-154 -264.002 1155 1093"
    underline-thickness="0"
    underline-position="-355"
    unicode-range="U+0020-U+2183"
  />
<missing-glyph horiz-adv-x="512" 
 />
    <glyph glyph-name=".notdef" horiz-adv-x="512" 
 />
    <glyph glyph-name="space" unicode=" " horiz-adv-x="233" 
d="M0 1v-1v1z" />
    <glyph glyph-name="exclam" unicode="!" horiz-adv-x="252" 
d="M104 178l-12 524l68 10l-13 -533h-44zM127 -7l0.000976562 -1v0v0c-12.667 0 -23.334 4.33301 -32.001 13s-13 19.667 -13 33c0 12.667 4 23 12 31c8 8.66699 18.667 13 32 13c12 0 22.333 -4.33301 31 -13c8.66699 -8 13 -18.333 13 -31
c0 -13.333 -4.33301 -24.333 -13 -33s-19 -13 -31 -13z" />
    <glyph glyph-name="quotedbl" unicode="&#x22;" horiz-adv-x="367" 
d="M90 718h51v-232h-51v232zM226 487v-1v0v232h51v-232h-51v1z" />
    <glyph glyph-name="numbersign" unicode="#" horiz-adv-x="549" 
d="M101 0l32 228h-102v47h110l22 178h-102v47h110l32 226h48l-32 -226h150l32 226h48l-32 -226h101v-47h-108l-24 -178h102v-47h-110l-32 -228h-48l32 228h-150l-32 -228h-48h1zM188 275v-1v0h150l24 178h-150l-24 -178v1z" />
    <glyph glyph-name="dollar" unicode="$" horiz-adv-x="531" 
d="M249 -101l0.000976562 94.0029c-38.667 0 -74.667 4.66699 -108 14s-65.333 23.333 -96 42l26 46c26.667 -18 54.667 -31.667 84 -41s60.666 -14 93.999 -14v298l-28 10c-26.667 7.33301 -49.334 15.666 -68.001 24.999c-19.333 9.33301 -35.333 20.666 -48 33.999
c-14.667 15.333 -25.334 32.333 -32.001 51c-7.33301 19.333 -11 40 -11 62c0 34.667 8 65.334 24 92.001s38 48 66 64s60.333 25.667 97 29v84h43v-83c33.333 -2 64.666 -8.33301 93.999 -19c28.667 -10 56 -24 82 -42l-26 -42c-25.333 17.333 -50 30.333 -74 39
s-49.333 13.667 -76 15v-272l32 -10c25.333 -7.33301 47.333 -16.333 66 -27c18.667 -10 35.334 -22.667 50.001 -38c14 -16 25.333 -34 34 -54c8 -20.667 12 -42.667 12 -66c0 -34.667 -8.66699 -66 -26 -94c-17.333 -28.667 -40.666 -52.334 -69.999 -71.001
s-62.666 -30.334 -99.999 -35.001v-96h-43zM291.001 39.0029c38.667 5.33301 69.999 20.667 93.999 46c24 26 36.333 58 37 96c0 32 -10.667 59.333 -32 82c-21.333 23.333 -54.666 42.333 -99.999 57v-282zM247 399.004l0.000976562 -0.999023v0v258
c-37.333 -4.66699 -67.333 -18.334 -90 -41.001c-22.667 -22 -34.334 -51 -35.001 -87c0 -18.667 3.33301 -36 10 -52s19 -30.667 37 -44c18.667 -13.333 44.667 -25.333 78 -36v3z" />
    <glyph glyph-name="percent" unicode="%" horiz-adv-x="817" 
d="M192 368c-33.333 0 -61.333 7.33496 -84 22.002c-23.333 14.667 -41 34.667 -53 60s-18 54.666 -18 87.999c0 32 6 60.667 18 86s29.333 45.333 52 60s51.334 22 86.001 22c36 0 65.667 -7.66699 89 -23c23.333 -14.667 40.666 -35 51.999 -61s17 -55.333 17 -88
c0 -50 -13.333 -90.333 -40 -121s-65 -46.334 -115 -47.001zM557 698.002h48l-341 -698h-48zM618 -7.99805c-33.333 0 -61.334 7.33301 -84.001 22c-23.333 14.667 -41 34.667 -53 60s-18 55 -18 89c0 32 6 60.667 18 86s29.667 45.333 53 60
c22.667 14.667 51.334 22 86.001 22c36 0 65.667 -7.66699 89 -23c23.333 -14.667 40.666 -35 51.999 -61s17 -55.667 17 -89c0 -32.667 -6 -61.667 -18 -87s-29.667 -45.333 -53 -60c-23.333 -14 -51.666 -21 -84.999 -21zM199.999 406.002
c34.667 0.666992 61 12.332 79 34.999c18 22 27 51.667 27 89c0 22.667 -3.33301 44.334 -10 65.001c-6 20 -17 36.667 -33 50s-38.667 20 -68 20c-38 -0.666992 -65.667 -12.667 -83 -36c-17.333 -22.667 -26 -52 -26 -88c0 -42 8.66699 -75 26 -99s46 -36 86 -36h2z
M623.999 29v-1.00195v0v0c35.333 0.666992 62.333 12.334 81 35.001c18 22.667 27 52.667 27 90c0 22.667 -3.33301 44.334 -10 65.001c-6 20.667 -17 37.667 -33 51s-38.667 20 -68 20c-37.333 -0.666992 -64.333 -12.667 -81 -36c-17.333 -22.667 -26 -52 -26 -88
c0 -41.333 8.66699 -74 26 -98s45.333 -36.333 84 -37v-1z" />
    <glyph glyph-name="ampersand" unicode="&#x26;" horiz-adv-x="644" 
d="M278 -15c-41.333 0 -78.667 6.66797 -112 20.001s-60 33.666 -80 60.999c-20 26.667 -30 60.667 -30 102c0.666992 42.667 13.667 78 39 106c25.333 28.667 60.666 53.667 105.999 75c-33.333 29.333 -58.666 57.333 -75.999 84s-26 53.334 -26 80.001
c0 30.667 8 57.667 24 81s37.333 41.666 64 54.999s56 20 88 20c33.333 0 63.333 -6 90 -18c26.667 -11.333 47.667 -28.333 63 -51c16 -22.667 24 -50 24 -82c0 -28 -6.66699 -52.333 -20 -73c-13.333 -20 -32 -38.333 -56 -55c-24 -16 -52 -32 -84 -48l189 -184
c10.667 20 18 44.667 22 74s5.66699 62 5 98v8h50v-6c0 -38.667 -2 -70.667 -6 -96c-3.33301 -25.333 -8.33301 -46.666 -15 -63.999c-6 -18 -13.333 -34.333 -22 -49l126 -123h-75l-82 80c-20 -25.333 -48 -47 -84 -65c-36 -18.667 -76.667 -28.334 -122 -29.001v-1z
M256.999 376.001c44 20 77.3359 42.001 100.003 66.001s34 51.333 34 82c-0.666992 33.333 -11.334 59.666 -32.001 78.999c-20.667 18.667 -48.334 28 -83.001 28c-20.667 0 -39.667 -4 -57 -12s-31.333 -20 -42 -36s-16 -36 -16 -60
c-0.666992 -20 5.66602 -41.333 18.999 -64c14 -22.667 39.667 -50.667 77 -84v1zM279.002 29.002l-0.000976562 -1v0v0c26.667 0 51.334 4 74.001 12s42.334 18 59.001 30c17.333 12.667 30.666 26 39.999 40l-215 209c-38 -18 -67 -39.667 -87 -65
c-20 -26 -30 -56 -30 -90c0 -42.667 14 -76 42 -100s67.333 -36 118 -36z" />
    <glyph glyph-name="quotesingle" unicode="'" horiz-adv-x="231" 
d="M90 487v-1v0v232h51v-232h-51v1z" />
    <glyph glyph-name="parenleft" unicode="(" horiz-adv-x="310" 
d="M327 -156l-0.00195312 -1.00391v0v0c-36 14.667 -69.333 37.334 -100 68.001s-56 66.667 -76 108c-18.667 38.667 -32.667 84 -42 136s-14 108.667 -14 170s4 114 12 158c7.33301 44 18 82 32 114c13.333 32 29.333 60 48 84c19.333 24 41 45.333 65 64
s48 33.334 72 44.001l14 -28c-29.333 -16.667 -56.666 -37.667 -81.999 -63s-45.666 -56.666 -60.999 -93.999c-14 -34.667 -25 -74.667 -33 -120s-12 -98.666 -12 -159.999c0 -74.667 5.33301 -140.667 16 -198s28 -105.333 52 -144c15.333 -24 33 -45.333 53 -64
s42.333 -34.667 67 -48l-16 -30z" />
    <glyph glyph-name="parenright" unicode=")" horiz-adv-x="310" 
d="M-15 -160l-0.00195312 -1v0l-14 28c30 16 57.333 36.667 82 62s45 57.333 61 96c10.667 26.667 19.334 53.667 26.001 81s11.667 57 15 89c2.66699 32 4 68.333 4 109c0 74.667 -5.33301 140.667 -16 198c-11.333 57.333 -28.666 105.333 -51.999 144
c-15.333 24.667 -33 46.334 -53 65.001s-42.667 34.667 -68 48l16 28c36 -14.667 69.333 -37.334 100 -68.001s56 -66.667 76 -108c18 -38.667 31.667 -84 41 -136c10 -52 15 -108.667 15 -170s-4 -114 -12 -158s-19 -82 -33 -114s-30.333 -60 -49 -84s-40 -45.333 -64 -64
s-48 -33 -72 -43z" />
    <glyph glyph-name="asterisk" unicode="*" horiz-adv-x="451" 
d="M133 381v-1v0l-36 28l91 126l-146 47l13 41l148 -46v152h43v-152l148 46l13 -41l-146 -47l93 -126l-36 -28l-93 129l-91 -129z" />
    <glyph glyph-name="plus" unicode="+" horiz-adv-x="518" 
d="M234 45v-1v0v186h-186v51h186v186h51v-186h186v-51h-186v-186h-51v1z" />
    <glyph glyph-name="comma" unicode="," horiz-adv-x="229" 
d="M71 -123v-0.999023v0l-20 32c17.333 10 31.333 22.333 42 37c10 14.667 15.667 31.334 17 50.001h-6h-4c-10.667 0 -20 4.33301 -28 13s-12 19.667 -12 33c0 14.667 4.66699 26.667 14 36c9.33301 10 21.333 15 36 15c17.333 0 31.333 -6.66699 42 -20s16 -31 16 -53
c0 -14.667 -2.66699 -29.334 -8 -44.001s-12.333 -28.334 -21 -41.001c-8.66699 -11.333 -19 -22.333 -31 -33s-24.667 -20 -38 -28z" />
    <glyph glyph-name="hyphen" unicode="-" horiz-adv-x="302" 
d="M53 252v-1v0v54h196v-54h-196v1z" />
    <glyph glyph-name="period" unicode="." horiz-adv-x="225" 
d="M114 -11v-1v0v0c-14.667 0 -26.667 4.66699 -36 14s-14 21.333 -14 36c0 14 4.66699 25.667 14 35s20.666 14 33.999 14c14.667 0 26.667 -4.66699 36 -14s14 -21 14 -35c0 -14.667 -4.66699 -26.667 -14 -36s-20.666 -14 -33.999 -14v1z" />
    <glyph glyph-name="slash" unicode="/" horiz-adv-x="416" 
d="M51 -151v-1v0l266 926h47l-265 -926h-48v1z" />
    <glyph glyph-name="zero" unicode="0" horiz-adv-x="477" 
d="M440 250c0 -75.333 -14.666 -135.668 -43.999 -181.001c-34.667 -55.333 -87.334 -83 -158.001 -83s-123.334 28.333 -158.001 85c-28.667 46 -43 106.667 -43 182v222c0 72.667 15 133 45 181c35.333 58 87.333 87 156 87c70.667 0 123.334 -27.667 158.001 -83
c29.333 -45.333 44 -105.666 44 -180.999v-229zM384.001 235.998l0.000976562 257c0 53.333 -10.667 98 -32 134c-26 43.333 -64 65 -114 65c-42 0 -77 -16.833 -105 -50.5s-42 -84.5 -42 -152.5v-251c0 -67.333 14.167 -117.833 42.5 -151.5s63.166 -50.5 104.499 -50.5
c50 0 88 21.667 114 65c21.333 36 32 81 32 135z" />
    <glyph glyph-name="one" unicode="1" horiz-adv-x="475" 
d="M391 0h-297v49h123v630h-96v49h154v-679h116v-49z" />
    <glyph glyph-name="two" unicode="2" horiz-adv-x="478" 
d="M430 0l-377 -0.000976562v55l215 253c35.333 41.333 59.333 73.333 72 96c21.333 37.333 32 75.333 32 114c0 48.667 -9.66699 88.667 -29 120c-22.667 38 -56.334 57 -101.001 57c-45.333 0 -79.333 -23.333 -102 -70c-18 -36.667 -27 -79.667 -27 -129h-60
c0 69.333 15 127 45 173c35.333 54 86 81 152 81c62.667 0 109.334 -24 140.001 -72c26.667 -41.333 40 -94.666 40 -159.999c0 -72 -31.333 -144.333 -94 -217l-216 -249h310v-52z" />
    <glyph glyph-name="three" unicode="3" horiz-adv-x="477" 
d="M432 220c0 -62 -16.667 -115.667 -50 -161c-36.667 -48.667 -85 -73 -145 -73c-64.667 0 -113.334 21.333 -146.001 64c-30 38.667 -45 91 -45 157h57c0 -114.667 43.333 -172 130 -172c43.333 0 78.333 19.333 105 58c24 34 36 73.667 36 119
c0 144 -49.667 216 -149 216c-13.333 0 -31.666 -4 -54.999 -12l-18 33l185 237h-256v51h316v-54l-168 -209c135.333 0 203 -84.667 203 -254z" />
    <glyph glyph-name="four" unicode="4" horiz-adv-x="476" 
d="M456 144h-72v-144h-57v144h-280v52l270 532h67v-535h72v-49zM327 193v442h-3l-225 -442h228z" />
    <glyph glyph-name="five" unicode="5" horiz-adv-x="477" 
d="M442 247c0 -73.333 -15.333 -132.999 -46 -178.999c-36 -54.667 -88.667 -82 -158 -82c-58.667 0 -107.667 22.667 -147 68c-36 44 -54 96 -54 156h55c0 -43.333 13.333 -82.333 40 -117c28.667 -36.667 64.334 -55 107.001 -55c48.667 0 86.667 24 114 72
c22.667 39.333 34 85.666 34 138.999c0 129.333 -48.333 194 -145 194c-56.667 0 -100.334 -27 -131.001 -81l-46 21l51 354h287v-51h-234l-35 -221l5 -3c33.333 24.667 68.333 37 105 37c132 0 198 -84 198 -252z" />
    <glyph glyph-name="six" unicode="6" horiz-adv-x="477" 
d="M441 230c0 -70 -15.999 -127 -47.999 -171c-35.333 -48.667 -87 -73 -155 -73c-68.667 0 -120.334 23 -155.001 69c-31.333 41.333 -47 97 -47 167c0 40 8.66699 83 26 129c10.667 26 30 66 58 120l133 257h70l-147 -277c27.333 14 53.333 21 78 21
c60.667 0 108 -26.333 142 -79c30 -44.667 45 -99 45 -163zM383.001 228c0 48 -11.3311 90.333 -33.998 127c-26.667 44 -62.334 66 -107.001 66c-45.333 0 -82.333 -21.667 -111 -65c-24.667 -36.667 -37 -79 -37 -127c0 -51.333 11.333 -95 34 -131
c26.667 -41.333 64.667 -62 114 -62c47.333 0 83.666 21 108.999 63c21.333 36 32 79 32 129z" />
    <glyph glyph-name="seven" unicode="7" horiz-adv-x="477" 
d="M416 681l-239 -681h-59l241 681h-297v56h354v-56z" />
    <glyph glyph-name="eight" unicode="8" horiz-adv-x="477" 
d="M429 205c0 -66.667 -15.334 -119.334 -46.001 -158.001c-34 -41.333 -83.667 -62 -149 -62c-61.333 0 -108.666 21.667 -141.999 65c-30 40 -45 91.667 -45 155c0 94.667 34.333 163 103 205c-25.333 10.667 -45 30.334 -59 59.001c-12 26 -18 54 -18 84
c0 53.333 13.667 97.666 41 132.999c30.667 38 72 57 124 57s93 -18 123 -54c28 -34 42 -77.667 42 -131c0 -78 -25.667 -127.333 -77 -148c68.667 -41.333 103 -109.666 103 -204.999zM347.999 562c0 36 -8.66699 65.999 -26 89.999c-20 26.667 -47.333 40 -82 40
c-35.333 0 -63 -13.333 -83 -40c-18.667 -24 -28 -53.667 -28 -89c0 -34 8.33301 -63.333 25 -88c18.667 -28 44 -42 76 -42h12c33.333 0 60 13.333 80 40c17.333 24.667 26 54.334 26 89.001zM370.999 204.999c0 45.333 -9.66602 84.666 -28.999 117.999
c-22.667 39.333 -55.334 59 -98.001 59h-15c-40.667 0 -72.667 -20 -96 -60c-18.667 -34 -28 -73 -28 -117c0 -45.333 10 -83.333 30 -114c23.333 -36 56.333 -54 99 -54c45.333 0 80.333 17.333 105 52c21.333 30.667 32 69.334 32 116.001z" />
    <glyph glyph-name="nine" unicode="9" horiz-adv-x="477" 
d="M441 492c0 -40 -8.66699 -83.333 -26 -130c-10.667 -25.333 -30 -65 -58 -119l-133 -257h-69l146 277c-27.333 -14 -53.333 -21 -78 -21c-60.667 0 -108 26.333 -142 79c-30 44.667 -45 98.667 -45 162c0 70.667 16 127.667 48 171c35.333 49.333 87.333 74 156 74
c68 0 119.333 -23.333 154 -70c31.333 -40.667 47 -96 47 -166zM383 484c0 52 -11.333 95.667 -34 131c-26.667 42 -64.334 63 -113.001 63c-48 0 -84.667 -21.333 -110 -64c-21.333 -35.333 -32 -78.333 -32 -129c0 -47.333 11.333 -89.666 34 -126.999
c26.667 -43.333 62.667 -65 108 -65c44.667 0 81.334 21.333 110.001 64c24.667 37.333 37 79.666 37 126.999z" />
    <glyph glyph-name="colon" unicode=":" horiz-adv-x="239" 
d="M120 308c-14.667 0 -26.667 4.66699 -36 14s-14 20.666 -14 33.999c0 14.667 4.66699 26.667 14 36s21.333 14 36 14c13.333 0 24.666 -4.66699 33.999 -14s14 -20.666 14 -33.999c0 -14.667 -4.66699 -26.667 -14 -36s-20.666 -14 -33.999 -14zM118 -9v-1v0v0
c-13.333 0 -24.666 4.66699 -33.999 14s-14 21.333 -14 36c0 14 4.66699 25.667 14 35s21.333 14 36 14c13.333 0 24.666 -4.66699 33.999 -14s14 -21 14 -35c0 -14.667 -4.66699 -26.667 -14 -36s-21.333 -14 -36 -14v1z" />
    <glyph glyph-name="semicolon" unicode=";" horiz-adv-x="249" 
d="M82 -125l-20 32.001c17.333 10 31.333 22.333 42 37c10 14.667 15.667 31.334 17 50.001h-6h-2c-10.667 0 -20 4.33301 -28 13s-12 19.667 -12 33c0 14.667 4.66699 27 14 37s21.333 15 36 15c17.333 0 31.333 -6.66699 42 -20s16 -31 16 -53
c0 -14.667 -2.66699 -29.334 -8 -44.001s-12.333 -28.334 -21 -41.001c-8.66699 -11.333 -19 -22.333 -31 -33s-24.667 -20 -38 -28zM119 309.001l-0.000976562 -1v0v0c-13.333 0 -24.666 4.66699 -33.999 14s-14 21.333 -14 36c0 13.333 4.66699 24.666 14 33.999
s21 14 35 14c13.333 0 24.666 -4.66699 33.999 -14s14 -20.666 14 -33.999c0 -14.667 -4.66699 -26.667 -14 -36s-20.666 -14 -33.999 -14z" />
    <glyph glyph-name="less" unicode="&#x3c;" horiz-adv-x="326" 
d="M222 52v-1v0l-194 249l194 250l48 -31l-172 -219l172 -218l-48 -31v1z" />
    <glyph glyph-name="equal" unicode="=" horiz-adv-x="583" 
d="M46 394h490v-47h-490v47zM46 193v-1v0v47h490v-47h-490v1z" />
    <glyph glyph-name="greater" unicode="&#x3e;" horiz-adv-x="326" 
d="M102 52v-1v0l-47 31l172 218l-172 219l47 31l194 -250l-194 -249v1z" />
    <glyph glyph-name="question" unicode="?" horiz-adv-x="420" 
d="M155 197c-2.66699 13.333 -5 26.3311 -7 38.998c-1.33301 12 -2 24 -2 36c0 26 4.66699 50.333 14 73s24 43.334 44 62.001l46 36c16 12 30 26.667 42 44s18 40 18 68c-0.666992 32 -11 57.667 -31 77s-46.667 29.333 -80 30c-25.333 0 -49.333 -4.33301 -72 -13
c-22.667 -8 -45.667 -19.333 -69 -34l-24 39c23.333 17.333 50 31.333 80 42c30 10 61.667 15 95 15c48 -0.666992 86 -14.667 114 -42s42.333 -64.333 43 -111c0 -26.667 -4.66699 -50 -14 -70s-20.666 -37 -33.999 -51c-13.333 -14.667 -26.333 -26.667 -39 -36
s-22.334 -16.666 -29.001 -21.999c-17.333 -14.667 -30 -32 -38 -52s-12 -42.667 -12 -68c0 -9.33301 0.666992 -19.333 2 -30s3.33301 -21.667 6 -33h-48zM191 -11.002l-0.000976562 -1v0v0c-14 0 -25.667 4.66699 -35 14s-14 21.333 -14 36
c0 13.333 4.66699 24.666 14 33.999s21 14 35 14s25.667 -4.66699 35 -14s14 -20.666 14 -33.999c0 -14.667 -4.66699 -26.667 -14 -36s-20.666 -14 -33.999 -14z" />
    <glyph glyph-name="at" unicode="@" horiz-adv-x="893" 
d="M449 -163c-50.667 0 -98.6641 7.33398 -143.997 22.001s-85.666 37.334 -120.999 68.001s-63 68.667 -83 114c-20.667 45.333 -31 98.666 -31 159.999c0 57.333 9.66699 110.666 29 159.999c19.333 50 46.333 93.667 81 131s76 66.666 124 87.999s100 32 156 32
c69.333 0 131.666 -14 186.999 -42c55.333 -27.333 99.333 -66.333 132 -117c33.333 -50.667 50.333 -111 51 -181c-0.666992 -60 -10.667 -110.667 -30 -152s-44.333 -72.666 -75 -93.999s-63.667 -32 -99 -32c-38.667 0.666992 -65.334 12.334 -80.001 35.001
c-14.667 22 -19 49.667 -13 83c-10.667 -18.667 -24 -36 -40 -52s-34 -29 -54 -39s-41.333 -15 -64 -15c-20 0 -38.667 5.33301 -56 16c-16.667 10.667 -30.334 26.334 -41.001 47.001c-10 20.667 -15 46.667 -15 78c0 37.333 5.33301 73.333 16 108s26.667 66 48 94
s47.333 50.667 78 68c30.667 16.667 66 25 106 25c24 0 46 -3.33301 66 -10c20 -6 38.667 -14.333 56 -25c-2.66699 -7.33301 -6 -18.333 -10 -33s-7.66699 -29.334 -11 -44.001l-39 -182c-9.33301 -42 -9.33301 -71.667 0 -89s27.333 -25.666 54 -24.999
c26.667 0 51.334 10 74.001 30s41 48 55 84s21 78.667 21 128c-0.666992 60 -14.667 112.667 -42 158s-65 80.666 -113 105.999s-102.667 38 -164 38c-50.667 0 -96.667 -10 -138 -30s-77 -47.333 -107 -82s-53 -74.334 -69 -119.001s-24 -91.667 -24 -141
c0.666992 -69.333 16 -128.333 46 -177c30 -48 69.667 -84.667 119 -110s103.666 -38 162.999 -38c26 0 51.333 2 76 6s46.334 9.33301 65.001 16l10 -39c-20.667 -7.33301 -44.334 -13 -71.001 -17s-53.334 -6 -80.001 -6zM386.003 54.001l0.000976562 -1v0v0
c19.333 0 38.666 5.66699 57.999 17c18.667 11.333 36 27.333 52 48c15.333 20.667 27 45 35 73l43 196c-9.33301 6.66699 -20 12 -32 16s-25.333 6 -40 6c-33.333 0 -62 -8 -86 -24s-44 -37 -60 -63s-27.667 -54.333 -35 -85c-8 -30.667 -12 -60.334 -12 -89.001
c0 -33.333 6.66699 -57.666 20 -72.999c12.667 -15.333 31 -23 55 -23z" />
    <glyph glyph-name="A" unicode="A" horiz-adv-x="561" 
d="M244 702h76l232 -702h-66l-73 228h-272l-73 -228h-58zM158 277v-1v0h242l-120 374l-122 -374v1z" />
    <glyph glyph-name="B" unicode="B" horiz-adv-x="584" 
d="M92 3l-0.00195312 701.999h120c38 0 68.667 -0.666992 92 -2c24 -2 43.333 -5 58 -9c14 -4 26.333 -8.66699 37 -14c30 -14 53.667 -34 71 -60s26 -55.667 26 -89c0 -37.333 -11.333 -69.666 -34 -96.999c-23.333 -27.333 -57.666 -47 -102.999 -59
c23.333 -4 43 -9.33301 59 -16c16.667 -6.66699 31 -14.667 43 -24c22.667 -17.333 39.334 -38.666 50.001 -63.999s16 -52 16 -80c0 -38.667 -9.66699 -73.334 -29 -104.001s-46.333 -53 -81 -67c-12 -4.66699 -24.333 -8.66699 -37 -12
c-12.667 -2.66699 -29 -4.66699 -49 -6s-47 -2 -81 -2h-157zM150.998 392.999l129 -0.00292969c24 0 45.333 2.66699 64 8c18.667 4.66699 33.667 11.334 45 20.001s21.333 21.667 30 39c9.33301 17.333 14 38 14 62c0 27.333 -6 50.333 -18 69s-29.333 33.334 -52 44.001
c-12 6.66699 -26 11.334 -42 14.001s-35 4 -57 4h-114v-260h1zM149.998 45.9961l-0.000976562 -0.998047v0h137c26.667 0 48.667 2 66 6c17.333 3.33301 34 9.66602 50 18.999c22.667 13.333 39 30.666 49 51.999c10.667 21.333 16 45.666 16 72.999
c0 29.333 -6.66699 55.333 -20 78s-31.333 39.334 -54 50.001c-18.667 8 -36.667 13.667 -54 17c-17.333 2.66699 -37.666 4 -60.999 4h-129v-296v-2z" />
    <glyph glyph-name="C" unicode="C" horiz-adv-x="545" 
d="M518 50v-1.00195v0v0c-26.667 -18.667 -55.334 -32.667 -86.001 -42c-30.667 -10 -62.334 -15 -95.001 -15c-38.667 0 -74.667 7.66699 -108 23c-33.333 14.667 -64 39 -92 73c-26.667 32 -46 70.667 -58 116c-12.667 45.333 -19 94.333 -19 147
c0 48 5.33301 92.667 16 134s26 77.333 46 108c24.667 38.667 55.667 68.667 93 90c36.667 21.333 77.667 32 123 32c32.667 0 63 -4.66699 91 -14s54 -23.333 78 -42l-31 -38c-21.333 16 -43 27.667 -65 35c-22.667 6.66699 -47.334 10 -74.001 10
c-40 0 -74.667 -10 -104 -30c-30 -19.333 -54 -47.666 -72 -84.999c-12 -25.333 -21.333 -55.333 -28 -90s-10 -74 -10 -118c0 -40 3.33301 -75.333 10 -106c6.66699 -30 15.667 -56.333 27 -79c20.667 -41.333 47.334 -71.666 80.001 -90.999c32 -19.333 68 -29 108 -29
c26.667 0 51.334 4 74.001 12s45.334 20 68.001 36l32 -40z" />
    <glyph glyph-name="D" unicode="D" horiz-adv-x="615" 
d="M87 0l-0.00195312 702h119c35.333 0 66 -1.33301 92 -4s49.667 -8 71 -16s42.666 -19.667 63.999 -35c40 -29.333 69.667 -69 89 -119c20 -50 30 -109 30 -177c0 -64 -8 -119 -24 -165c-16 -46.667 -38.333 -83.667 -67 -111c-21.333 -20 -42.666 -35.667 -63.999 -47
c-21.333 -10.667 -44.666 -18 -69.999 -22s-54.666 -6 -87.999 -6h-146h-6zM149.998 47l82.999 0.00195312c40 -0.666992 76 3.33301 108 12c32 9.33301 59.333 27.666 82 54.999c22 28 39 60.667 51 98s18 81.666 18 132.999c0 62 -6.66699 112.667 -20 152
s-32.666 72 -57.999 98c-22.667 24 -48.667 40 -78 48s-64 11.667 -104 11h-82v-606v-1z" />
    <glyph glyph-name="E" unicode="E" horiz-adv-x="503" 
d="M93 2v-1v0v702h366l-8 -48h-299v-264h244v-50h-244v-291h318v-50h-377v2z" />
    <glyph glyph-name="F" unicode="F" horiz-adv-x="442" 
d="M93 2v-1v0v702h358l-10 -48h-290v-264h238v-48h-238v-343h-58v2z" />
    <glyph glyph-name="G" unicode="G" horiz-adv-x="620" 
d="M351 -3l-0.000976562 -1.00098v0v0c-44 0 -84 7.66699 -120 23s-67.333 39 -94 71c-25.333 30.667 -44.666 68 -57.999 112s-20 94.667 -20 152c0 60.667 7.33301 113.667 22 159c14.667 46 37.334 85.667 68.001 119c24 26.667 51.333 47 82 61s65.334 21 104.001 21
c36 0 69.333 -5.33301 100 -16s58.667 -26.667 84 -48l-26 -37c-26.667 18.667 -52.334 32 -77.001 40s-51 12 -79 12c-40 0 -75.333 -10 -106 -30s-54 -48.667 -70 -86c-12 -29.333 -21.333 -60.666 -28 -93.999s-10 -69 -10 -107c0 -48 4.66699 -91.333 14 -130
s22 -70 38 -94c20 -28 46 -49 78 -63c32 -14.667 66 -22 102 -22c24 0 46.667 2.66699 68 8c22 5.33301 41.667 13.333 59 24v240h-160l-12 48h228v-319c-25.333 -16 -54 -28.333 -86 -37c-32.667 -8.66699 -66.334 -13 -101.001 -13v7z" />
    <glyph glyph-name="H" unicode="H" horiz-adv-x="623" 
d="M93 1v-1v0v702h56v-304h322v304h58v-702h-58v350h-322v-350h-56v1z" />
    <glyph glyph-name="I" unicode="I" horiz-adv-x="243" 
d="M93 1v-1v0v702h56v-702h-56v1z" />
    <glyph glyph-name="J" unicode="J" horiz-adv-x="249" 
d="M19 -125l-0.00195312 -0.999023v0l-28 37c20 8 38 18 54 30s28 25.333 36 40c6.66699 12 11.334 28.667 14.001 50s4 51 4 89v584h58v-584c0 -29.333 -0.666992 -54 -2 -74s-3.66602 -36.667 -6.99902 -50c-4 -14 -9.33301 -27 -16 -39c-12 -19.333 -28 -36.333 -48 -51
s-42.667 -26.334 -68 -35.001z" />
    <glyph glyph-name="K" unicode="K" horiz-adv-x="528" 
d="M159 372l284 331h74l-292 -331l293 -372h-74zM93 1v-1v0v702h58v-702h-58v1z" />
    <glyph glyph-name="L" unicode="L" horiz-adv-x="453" 
d="M92 2v-1v0v702h58v-654h288l-8 -49h-337z" />
    <glyph glyph-name="M" unicode="M" horiz-adv-x="775" 
d="M60 2l-0.00195312 -1v0l62 702h85l152 -524c6.66699 -24.667 12 -45.667 16 -63s6.33301 -27.333 7 -30c0 2.66699 2 12.667 6 30c4 16.667 9.33301 35.667 16 57l156 530h85l62 -702h-58l-48 558c0 2.66699 -0.333008 8.66699 -1 18
c0 9.33301 -0.333008 19.666 -1 30.999v29v14c-0.666992 -2 -2.33398 -7.66699 -5.00098 -17s-5.66699 -20.666 -9 -33.999s-6.66602 -26 -9.99902 -38l-166 -563h-50l-160 547c-6.66699 22.667 -11.667 40.667 -15 54s-5.66602 23.333 -6.99902 30
s-2.66602 12.667 -3.99902 18l-6 -100l-45 -548h-56z" />
    <glyph glyph-name="N" unicode="N" horiz-adv-x="631" 
d="M93 3l0.000976562 -1.00195v0v702h68l268 -503l27 -56l22 -48c5.33301 -13.333 8.66602 -20.666 9.99902 -21.999v20c-0.666992 13.333 -1.66699 29.333 -3 48l-2 56c-0.666992 18.667 -1 34.667 -1 48l-2 454h58v-702h-62l-266 498l-47 90
c-10.667 22.667 -16.667 36.334 -18 41.001v-18c0.666992 -10.667 1.66699 -24 3 -40l2 -48c0.666992 -16 1 -30 1 -42l2 -480h-60v3z" />
    <glyph glyph-name="O" unicode="O" horiz-adv-x="665" 
d="M331 -14c-48 1.33301 -88.333 11.667 -121 31s-59 43 -79 71c-22.667 30.667 -40.334 68 -53.001 112c-12 44 -18 94 -18 150c0 53.333 5.66699 101.333 17 144s27 79 47 109c20 31.333 47 57 81 77c33.333 20 74.666 30.333 123.999 31c40 -0.666992 74 -7 102 -19
s51 -27 69 -45c18.667 -18 33.334 -35.667 44.001 -53c20 -30.667 35 -66.667 45 -108s15 -89.333 15 -144c0 -60.667 -7.33301 -112.667 -22 -156c-14 -43.333 -35 -80.333 -63 -111c-21.333 -25.333 -46.666 -46 -75.999 -62c-30 -16 -66.667 -24.333 -110 -25z
M342 32.001l0.00292969 -1v0v0c38 0.666992 69.333 9 94 25c24 15.333 43.333 34.333 58 57c16 24 28 53.333 36 88c8.66699 34.667 13 79.334 13 134.001c0 50.667 -3.33301 94.667 -10 132s-16.667 69 -30 95c-8 17.333 -19.333 34 -34 50s-33.334 29.333 -56.001 40
c-22.667 10 -49.334 15 -80.001 15c-41.333 -0.666992 -76 -10.334 -104 -29.001s-48.667 -41 -62 -67c-13.333 -24.667 -23.333 -54 -30 -88s-10 -73.667 -10 -119c0 -52 4 -98.333 12 -139c8 -41.333 19 -75 33 -101c9.33301 -16 22 -31 38 -45
c16 -13.333 34.667 -24.333 56 -33c21.333 -8 44.666 -12 69.999 -12z" />
    <glyph glyph-name="P" unicode="P" horiz-adv-x="530" 
d="M93 2l-0.000976562 702.001h169c37.333 0 68 -2.66699 92 -8s45.333 -14 64 -26c29.333 -19.333 51.333 -43 66 -71s22 -59.667 22 -95c0 -36 -5.66699 -67.333 -17 -94s-27.666 -49.334 -48.999 -68.001s-46 -32 -74 -40c-27.333 -8 -59 -12 -95 -12h-122v-290h-56v2z
M152.999 341.001l0.000976562 -0.999023v0h119c30.667 0 56 3.33301 76 10s36.667 16.667 50 30s24.333 29.333 33 48s13 40 13 64c0 28.667 -4.66699 53.667 -14 75s-23.333 38.666 -42 51.999c-14.667 12 -33.334 20.667 -56.001 26s-50.667 8 -84 8h-98v-316z" />
    <glyph glyph-name="Q" unicode="Q" horiz-adv-x="665" 
d="M604 -124c-14.667 0 -29.999 2.66504 -45.999 7.99805c-16 6 -31.667 13 -47 21s-28.666 15.333 -39.999 22c-16 10.667 -30.667 19.334 -44 26.001c-13.333 7.33301 -27.666 13.666 -42.999 18.999s-34 10 -56 14c-32 0 -60.333 5 -85 15c-25.333 10 -47 22.667 -65 38
c-18 16 -33 32.667 -45 50c-22.667 30.667 -40.334 68.334 -53.001 113.001c-12 44 -18 94 -18 150c0 52.667 5.33301 100.334 16 143.001s26 79 46 109c20 32 47 58.333 81 79c33.333 21.333 74.666 32.333 123.999 33c37.333 0 70 -6 98 -18s51.333 -27 70 -45
c19.333 -18 34.666 -36.667 45.999 -56c20 -32 35.333 -68.667 46 -110s16 -89.333 16 -144c0 -60.667 -7.33301 -112.667 -22 -156c-14 -44 -35 -81.667 -63 -113c-9.33301 -13.333 -21 -26 -35 -38s-32.333 -21 -55 -27c19.333 -5.33301 38.333 -13.333 57 -24l50 -28
c10 -6.66699 24 -14 42 -22c18 -7.33301 37.667 -11.333 59 -12c10 0 19.667 0.666992 29 2s16 3 20 5l-20 -47c-6 -2.66699 -13.667 -4.66699 -23 -6c-10 -1.33301 -22.333 -2 -37 -2zM336.001 33.998l-0.000976562 -0.998047v0v0c38 0.666992 69 9 93 25
c24.667 16 44.334 35.333 59.001 58c16 24 28.333 53.333 37 88c9.33301 34.667 14 78.667 14 132c0 50.667 -3.33301 94.667 -10 132s-16.667 69 -30 95c-8 16 -19 32 -33 48s-32.333 29.333 -55 40s-50.334 16 -83.001 16c-26.667 0 -50.667 -4.66699 -72 -14
s-39.666 -21.333 -54.999 -36c-14.667 -14.667 -26.667 -30.334 -36 -47.001c-13.333 -22.667 -23.333 -51.334 -30 -86.001c-7.33301 -34.667 -11 -74.667 -11 -120c0 -52 4.33301 -98.667 13 -140c8 -41.333 19.333 -75 34 -101c8.66699 -16 21 -30.667 37 -44
c16 -14 34.667 -25.333 56 -34s45.333 -13 72 -13v2z" />
    <glyph glyph-name="R" unicode="R" horiz-adv-x="543" 
d="M92 4l-0.000976562 701.999h146c46 0 82.333 -4 109 -12s48 -19 64 -33c10.667 -8 21.334 -18.667 32.001 -32s19.334 -29.666 26.001 -48.999c6.66699 -18.667 10 -40.667 10 -66c-0.666992 -59.333 -18.334 -105.333 -53.001 -138s-81 -49 -139 -49h-8
c16 -9.33301 30.667 -21 44 -35c13.333 -14.667 29 -35.667 47 -63l40 -62l44 -68l38 -60c10.667 -17.333 18.667 -30 24 -38h-73c-3.33301 8 -10.666 22 -21.999 42c-10.667 19.333 -24 42 -40 68l-51 79c-17.333 26.667 -34.666 51 -51.999 73
c-12.667 18 -26.334 32.333 -41.001 43s-33.334 16 -56.001 16h-32v-322h-56zM149.999 356.999l88.001 0.00195312c33.333 0 60.666 3 81.999 9s39 14.667 53 26c13.333 10.667 24.333 25.667 33 45s13 43.666 13 72.999c0 28 -6.33301 52.667 -19 74
c-12 21.333 -27.333 36.666 -46 45.999c-12 7.33301 -27.333 13 -46 17c-18 4 -40.333 6 -67 6h-91v-295v-1z" />
    <glyph glyph-name="S" unicode="S" horiz-adv-x="530" 
d="M35 51l0.000976562 -0.99707v0l26 46c28 -20 57 -34.667 87 -44s62.667 -14 98 -14c26.667 0 49.334 2.66699 68.001 8s36 14 52 26c17.333 13.333 30.666 29.333 39.999 48c8.66699 19.333 13 41 13 65c0 20 -3 38 -9 54s-15 29.667 -27 41c-12 12 -26 22 -42 30
c-16 8.66699 -33.333 15.667 -52 21l-71 22c-27.333 8.66699 -50.333 17.667 -69 27s-34.334 20.666 -47.001 33.999c-14.667 16 -25.334 34 -32.001 54c-6.66699 19.333 -10 40.333 -10 63c0 38.667 9.33301 72 28 100s44 49.667 76 65s68.667 23 110 23
c36.667 0 71 -5.33301 103 -16s62 -26 90 -46l-26 -42c-28.667 18.667 -55.667 32.334 -81 41.001s-53.333 13 -84 13c-45.333 0 -82 -11 -110 -33c-28 -22.667 -42.333 -54.334 -43 -95.001c0 -16.667 2.33301 -32.334 7 -47.001c4 -14.667 11.333 -27.334 22 -38.001
c10 -9.33301 23 -18 39 -26s34.667 -15.333 56 -22l76 -24c26 -8 48.667 -17.333 68 -28c18.667 -10.667 35.334 -24 50.001 -40c14 -16 25 -34.667 33 -56s12 -44 12 -68c0 -33.333 -7.33301 -64 -22 -92s-35.667 -51.333 -63 -70c-20 -14 -42.667 -24.333 -68 -31
s-53.333 -10 -84 -10c-40 0 -77.333 5 -112 15c-34.667 9.33301 -68 24.333 -100 45z" />
    <glyph glyph-name="T" unicode="T" horiz-adv-x="458" 
d="M209 1v-1v0v654h-194v49h452l-4 -49h-196v-654h-56z" />
    <glyph glyph-name="U" unicode="U" horiz-adv-x="616" 
d="M305 -6l0.000976562 -0.999023v0v0c-49.333 0 -88.666 7.33301 -117.999 22c-30 14.667 -53.667 36.334 -71 65.001c-10.667 18.667 -18 39 -22 61s-6 42.667 -6 62v502h58v-482c0 -20.667 1.33301 -41.667 4 -63s8 -39 16 -53
c5.33301 -10.667 13.666 -21.334 24.999 -32.001c11.333 -10 26.333 -18.333 45 -25s42 -10 70 -10c33.333 0 61.333 4.66699 84 14c22 9.33301 38.667 21.666 50 36.999c12 16.667 20 35 24 55s6 42 6 66v492h58v-499c0 -36 -3.33301 -66.667 -10 -92
c-6.66699 -24.667 -19.334 -46 -38.001 -64c-18.667 -18.667 -42 -33 -70 -43c-28 -10.667 -63.333 -16 -106 -16z" />
    <glyph glyph-name="V" unicode="V" horiz-adv-x="555" 
d="M245 1v-1v0l-236 702h64l167 -507l16 -50l14 -47c4 -14 6.66699 -24.333 8 -31c1.33301 7.33301 5.33301 22 12 44s15 47.667 25 77l170 514h59l-240 -702h-58z" />
    <glyph glyph-name="W" unicode="W" horiz-adv-x="801" 
d="M190 -3l0.00292969 -0.999023v0l-169 702h62l110 -477c5.33301 -24 10.333 -48 15 -72l12 -63c2.66699 -18 4.66699 -29 6 -33c0 3.33301 1.66699 13.666 5 30.999l14 62c5.33301 24 10.666 46.667 15.999 68l112 484h66l110 -490l15 -74l10 -56
c2.66699 -14.667 4 -22.667 4 -24c0 1.33301 1.33301 8 4 20l10 46c3.33301 18.667 7 37.667 11 57l11 53l104 471h58l-162 -702h-76l-106 464c-2.66699 12 -5.66699 26.333 -9 43c-3.33301 17.333 -6.33301 34.333 -9 51s-5.33398 31 -8.00098 43c-2 12 -3 19.333 -3 22
c-0.666992 -2.66699 -2.33398 -11.667 -5.00098 -27l-10 -56c-4 -22.667 -8.66699 -46 -14 -70l-108 -469h-74z" />
    <glyph glyph-name="X" unicode="X" horiz-adv-x="520" 
d="M6 1v-1v0l210 379l-188 324h69l156 -278l150 278h68l-179 -320l224 -383h-70l-192 341l-180 -341h-68v1z" />
    <glyph glyph-name="Y" unicode="Y" horiz-adv-x="500" 
d="M217 1v-1.00098v0v278l-226 424h72l156 -304c2.66699 -5.33301 7 -14.666 13 -27.999l17 -37l32 66l159 304h66l-228 -427v-276h-60z" />
    <glyph glyph-name="Z" unicode="Z" horiz-adv-x="500" 
d="M37 -1v44.999l328 558c8 14.667 15.333 26.667 22 36c6 9.33301 10 15 12 17h-20h-37h-288l16 49h390v-50l-322 -552c-8 -13.333 -15.333 -24.666 -22 -33.999c-6 -9.33301 -9.66699 -15.333 -11 -18h18h29h306l-15 -50h-406v-1z" />
    <glyph glyph-name="bracketleft" unicode="[" horiz-adv-x="263" 
d="M92 -159v-1v0v909h146v-43h-95v-823h95v-43h-146v1z" />
    <glyph glyph-name="backslash" unicode="\" horiz-adv-x="393" 
d="M329 -45v-1v0l-308 788l45 18l308 -786l-46 -18z" />
    <glyph glyph-name="bracketright" unicode="]" horiz-adv-x="263" 
d="M25 -159v-1v0v43h95v823h-95v43h146v-909h-146v1z" />
    <glyph glyph-name="asciicircum" unicode="^" horiz-adv-x="601" 
d="M66 308v-1v0l213 418h44l213 -418h-52l-184 358l-182 -358h-52v1z" />
    <glyph glyph-name="underscore" unicode="_" horiz-adv-x="512" 
d="M0 -115v-1v0v42h512v-42h-512v1z" />
    <glyph glyph-name="grave" unicode="`" horiz-adv-x="358" 
d="M269 582v-1v0l-202 102l31 54l190 -123l-18 -34z" />
    <glyph glyph-name="a" unicode="a" horiz-adv-x="505" 
d="M425 -11c-16.667 5.33301 -30.3359 14.334 -41.0029 27.001c-10.667 12 -18 27.333 -22 46c-21.333 -24 -44 -41.333 -68 -52c-24 -11.333 -50.667 -17 -80 -17c-41.333 0.666992 -74 7.66699 -98 21c-24 14 -40.667 31.667 -50 53s-14 43.666 -14 66.999
c0.666992 58 24 101.667 70 131s109.667 44 191 44h28c8.66699 -0.666992 14.334 -1 17.001 -1v47c0 24 -1.33301 43.333 -4 58s-8 26.334 -16 35.001c-8.66699 9.33301 -19 16.666 -31 21.999s-26.667 8 -44 8c-30.667 -0.666992 -60.667 -7 -90 -19s-54 -26.667 -74 -44
l-28 40c30.667 21.333 62.667 38 96 50s68 18 104 18c30.667 0 56.334 -5.33301 77.001 -16c21.333 -10.667 37 -26.334 47 -47.001c9.33301 -18.667 15 -38 17 -58c2.66699 -19.333 3.33398 -40 2.00098 -62l-4 -184c-1.33301 -40 0.666992 -69.667 6 -89
c6 -19.333 18.667 -33.666 38 -42.999l-28 -40zM223.998 32.001v-1v0v0c28 0 53.333 6.66699 76 20s41.334 32 56.001 56v14v20v14v33v44v32c-6.66699 0.666992 -14 1 -22 1h-24c-66.667 0 -116 -10.667 -148 -32s-48 -54 -48 -98c0 -31.333 8.66699 -56.666 26 -75.999
c17.333 -18.667 45.666 -28.334 84.999 -29.001z" />
    <glyph glyph-name="b" unicode="b" horiz-adv-x="546" 
d="M287 -10c-27.333 0 -53.999 5.99902 -79.999 17.999c-25.333 12.667 -46 29.667 -62 51c-1.33301 -12 -3 -22.667 -5 -32s-5.33301 -18.666 -10 -27.999h-56c5.33301 12 9.33301 28 12 48s4 46.667 4 80v506c0 32 -2 56.667 -6 74
c-3.33301 17.333 -5.66602 27.333 -6.99902 30l55 12c1.33301 -2.66699 3.66602 -13.667 6.99902 -33c4 -18.667 6 -47 6 -85v-132v-31v-20c22.667 24 46 42 70 54s50.333 18 79 18c29.333 0 56 -5.66699 80 -17c24 -12 44.667 -29 62 -51c17.333 -22.667 30 -50 38 -82
s12 -68.667 12 -110c0 -37.333 -3.66699 -71 -11 -101s-17 -55.667 -29 -77c-18 -29.333 -40.333 -52 -67 -68s-57.334 -24 -92.001 -24zM277.001 36.999l-0.000976562 -0.999023v0v0c22.667 0 43.667 5 63 15c19.333 10.667 35 25.334 47 44.001c10 14.667 18.667 36 26 64
c6.66699 28 10 63.333 10 106c0 36 -2.66699 66.667 -8 92s-14.666 46.666 -27.999 63.999c-12 16 -27.333 28 -46 36s-38.667 12 -60 12c-26.667 0 -52 -6.33301 -76 -19s-44 -30.334 -60 -53.001v-292c15.333 -20.667 35 -37 59 -49s48.667 -18 74 -18z" />
    <glyph glyph-name="c" unicode="c" horiz-adv-x="447" 
d="M265 -4l0.000976562 -0.996094v0v0c-35.333 0 -66.333 6.66699 -93 20s-48.667 32.666 -66 57.999c-15.333 22.667 -27 48.667 -35 78s-12 63.333 -12 102c0 54.667 6.66699 98.667 20 132s30.666 60.666 51.999 81.999c20 19.333 41 33.666 63 42.999s46 14 72 14
c30.667 0 56.667 -5 78 -15s40 -23 56 -39l-30 -39c-17.333 15.333 -34 26.333 -50 33s-34.667 10 -56 10s-41.333 -4.66699 -60 -14s-34 -23 -46 -41c-13.333 -18.667 -23.333 -42.667 -30 -72c-7.33301 -29.333 -11 -65 -11 -107c0 -40 5.33301 -75.333 16 -106
s26.667 -54.667 48 -72c22 -17.333 49.667 -26 83 -26c22 0 43 4.66699 63 14s38 23.333 54 42l31 -36c-21.333 -22.667 -44 -39.334 -68 -50.001s-50.667 -16 -80 -16z" />
    <glyph glyph-name="d" unicode="d" horiz-adv-x="546" 
d="M261 -10c-34.667 0 -65.002 6.66602 -91.002 19.999c-26 12.667 -47.667 31 -65 55c-15.333 22 -27 48.667 -35 80c-8 32 -12 67 -12 105c0 50.667 7.33301 94.667 22 132s36.667 68 66 92c17.333 14.667 35.333 25.334 54 32.001s38.334 10 59.001 10
c30.667 0 58 -5.66699 82 -17s43.667 -27.333 59 -48v26v42v228l56 -10v-584c0 -40.667 1.33301 -73 4 -97s6.66699 -43.333 12 -58h-56c-2 4 -4.33301 12 -7 24s-4.66699 24.333 -6 37c-17.333 -23.333 -37.666 -40.333 -60.999 -51c-24 -10.667 -50.667 -16 -80 -16z
M263.998 40.999l-0.000976562 -1.00195v0v0c34.667 0.666992 63.334 8.33398 86.001 23.001s39.334 32.667 50.001 54v296c-12 17.333 -28.667 31.333 -50 42s-48.333 16 -81 16c-21.333 0 -41.333 -4.66699 -60 -14s-34.334 -23.333 -47.001 -42
c-14 -19.333 -24.333 -41.666 -31 -66.999s-10 -57.333 -10 -96c0 -30.667 2 -58.667 6 -84c4 -26 10.667 -47 20 -63c12.667 -22 28.667 -38.333 48 -49s42.333 -16 69 -16v1z" />
    <glyph glyph-name="e" unicode="e" horiz-adv-x="498" 
d="M277 -11c-46.667 0 -85.9971 11.3291 -117.997 33.9961s-56.333 54 -73 94s-25 87 -25 141c0 43.333 5 80.333 15 111c10 31.333 25 59 45 83c17.333 20.667 38 37 62 49s51.333 18 82 18c27.333 0 51.666 -4.66699 72.999 -14s39.666 -21.666 54.999 -36.999
c13.333 -13.333 24.333 -28.666 33 -45.999s15 -38.666 19 -63.999s6 -56.666 6 -93.999v-12h-328v-26c0.666992 -27.333 4 -51.666 10 -72.999s13.667 -39.333 23 -54c14 -20.667 32.333 -36.334 55 -47.001s48.334 -16 77.001 -16c25.333 0 48.666 3.66699 69.999 11
c21.333 8 40.666 20 57.999 36l22 -36c-21.333 -18.667 -45.666 -32.667 -72.999 -42c-26.667 -10 -56.334 -15 -89.001 -15zM121.003 298.996v-1v0h268c0 30.667 -2.33301 56 -7 76c-4.66699 20.667 -11 37.667 -19 51c-10 16 -23.667 29 -41 39
c-17.333 9.33301 -38 14 -62 14c-38.667 0 -70.667 -15.333 -96 -46c-24.667 -30 -38.667 -75.333 -42 -136z" />
    <glyph glyph-name="f" unicode="f" horiz-adv-x="273" 
d="M93 -2v-1v0v468h-49v42h49v96c0.666992 31.333 5.66699 55.333 15 72c9.33301 17.333 19 29.666 29 36.999c10.667 8.66699 22.667 15.334 36 20.001c13.333 5.33301 28.666 8 45.999 8c18.667 0 36.334 -2.33301 53.001 -7c16.667 -4 31.667 -10.333 45 -19l-22 -40
c-10 6.66699 -21 12 -33 16c-12.667 4 -25.667 6 -39 6c-24 0 -42.333 -8 -55 -24s-19 -38.667 -19 -68v-94h135l-16 -42h-118v-468h-58z" />
    <glyph glyph-name="g" unicode="g" horiz-adv-x="508" 
d="M271 -196c-51.333 0 -93.0039 5.99512 -125.004 17.9951c-32 11.333 -55.333 27 -70 47s-22 42.333 -22 67c0 10 0.666992 19.667 2 29c2 8.66699 5 17.667 9 27l58 5c-4 -6.66699 -7.33301 -14.334 -10 -23.001c-2.66699 -9.33301 -4 -18.666 -4 -27.999
c0 -14.667 3 -28 9 -40s14.667 -22 26 -30c13.333 -8.66699 30 -15.334 50 -20.001c20 -5.33301 42.667 -8 68 -8c44 0 78.667 8.33301 104 25s38.333 44.334 39 83.001c0 14.667 -2.33301 28 -7 40c-5.33301 12 -13 22 -23 30c-9.33301 7.33301 -22.666 13 -39.999 17
s-39.333 6 -66 6h-34h-34h-24c-30.667 0 -53.334 6 -68.001 18c-14.667 11.333 -22 27 -22 47c0 19.333 8 36.333 24 51c16.667 14 41.667 25.667 75 35c-37.333 10.667 -66.666 29.334 -87.999 56.001s-32 57.334 -32 92.001c0.666992 51.333 17.667 92.333 51 123
c32.667 30.667 76.667 46.334 132 47.001c24 0 43.333 -2.33301 58 -7l42 -13c13.333 -4.66699 30 -7 50 -7c13.333 0 25.333 2 36 6s22 10 34 18l34 -35c-13.333 -10 -26.666 -17.333 -39.999 -22c-12.667 -4 -26.334 -6 -41.001 -6c-8 0 -15.333 0.666992 -22 2
s-12.667 3 -18 5c14.667 -13.333 25.667 -28.666 33 -45.999c8 -17.333 12 -36.333 12 -57c0 -32 -6.66699 -60 -20 -84s-32 -42.667 -56 -56c-14.667 -8 -30.667 -13.667 -48 -17c-17.333 -2.66699 -34.333 -3.66699 -51 -3c-33.333 -11.333 -58.666 -22.333 -75.999 -33
c-17.333 -11.333 -26 -23 -26 -35c0 -8.66699 4 -15.667 12 -21s20.667 -8 38 -8h22h40h31c29.333 0 53.333 -2.33301 72 -7s34.334 -11.667 47.001 -21c18.667 -13.333 32 -28.666 40 -45.999c8 -18 12 -37.667 12 -59c-1.33301 -54.667 -19.666 -94.667 -54.999 -120
s-83 -38 -143 -38zM244.996 237.995v-0.999023v0v0c37.333 0 66 10 86 30s30 49.333 30 88c0 37.333 -9.66699 66.666 -29 87.999s-48.333 32 -87 32s-68 -10.667 -88 -32s-30 -52 -30 -92c0 -34.667 10 -62.667 30 -84s49.333 -32.333 88 -33v4z" />
    <glyph glyph-name="h" unicode="h" horiz-adv-x="536" 
d="M90 -1l0.000976562 633.001c0 32 -2 56.667 -6 74c-3.33301 17.333 -5.66602 27.333 -6.99902 30l55 12c1.33301 -2.66699 3.66602 -13.667 6.99902 -33c4 -18.667 6 -47 6 -85v-135c0 -13.333 -0.333008 -26 -1 -38c-0.666992 -11.333 -1 -19 -1 -23
c22.667 24 48.334 44 77.001 60c29.333 16 60.666 24.333 93.999 25c41.333 0 74 -12.333 98 -37c24 -25.333 36.333 -61.333 37 -108v-374h-56v365c0 37.333 -8 64 -24 80c-6.66699 7.33301 -15.667 13 -27 17c-12 4.66699 -25.667 7 -41 7
c-26.667 0 -53.334 -7.33301 -80.001 -22s-51.667 -36.334 -75 -65.001v-382h-56v-1z" />
    <glyph glyph-name="i" unicode="i" horiz-adv-x="238" 
d="M120 626c-12.667 0 -23.334 4.33301 -32.001 13c-8.66699 8 -13 18.333 -13 31s4.33301 23 13 31c8.66699 8.66699 19.334 13 32.001 13c12 0 22.333 -4 31 -12s13 -18.667 13 -32c0 -12.667 -4.33301 -23 -13 -31c-8.66699 -8.66699 -19 -13 -31 -13zM90 2v-1v0v510
l58 9v-520h-58v2z" />
    <glyph glyph-name="j" unicode="j" horiz-adv-x="237" 
d="M42 -202l-26.001 38.001c22.667 9.33301 39.334 21.333 50.001 36s17.667 32.667 21 54c2.66699 21.333 4 46.666 4 75.999v508l56 11v-524c0 -22.667 -1 -44 -3 -64s-5.66699 -36.667 -11 -50c-9.33301 -20.667 -22 -37.667 -38 -51s-34 -24.333 -54 -33z
M118.999 627.001v-1v0v0c-13.333 0 -24 4.33301 -32 13c-8 8 -12 18.333 -12 31c0 13.333 4 24 12 32s18.667 12 32 12c12 0 22 -4 30 -12s12 -18.667 12 -32c0 -12.667 -4 -23 -12 -31c-8 -8.66699 -18 -13 -30 -13v1z" />
    <glyph glyph-name="k" unicode="k" horiz-adv-x="474" 
d="M91 0v632.999c0 32 -2 56.667 -6 74c-3.33301 17.333 -5.66602 27.333 -6.99902 30l55 12c1.33301 -2.66699 3.66602 -13.667 6.99902 -33c4 -19.333 6 -47.666 6 -84.999v-631h-56h1zM400 0.999023v-1v0l-247 286l210 224h70l-214 -224l255 -286h-74v1z" />
    <glyph glyph-name="l" unicode="l" horiz-adv-x="239" 
d="M163 -6v-1v0v0c-24.667 0 -43 7 -55 21c-12 13.333 -18 35 -18 65v554c0 32 -1.66699 56.667 -5 74c-2.66699 17.333 -4.66699 27.333 -6 30l55 10c1.33301 -2.66699 3.66602 -13.667 6.99902 -33c4 -18.667 6 -46.667 6 -84v-539c0 -21.333 2.66699 -36 8 -44
c4.66699 -8 13 -12 25 -12c2.66699 0 5.33398 0.333008 8.00098 1c2.66699 1.33301 4.66699 2 6 2l12 -36c-8 -4 -15 -6.66699 -21 -8c-6.66699 -1.33301 -14 -2 -22 -2v2z" />
    <glyph glyph-name="m" unicode="m" horiz-adv-x="788" 
d="M91 1v-0.998047v0v404c-0.666992 33.333 -3 58 -7 74s-6.66699 25.333 -8 28l54 12c1.33301 -2.66699 4 -11 8 -25c4 -14.667 6.33301 -32.334 7 -53.001c17.333 21.333 39.666 40 66.999 56c26.667 16 54.334 24.333 83.001 25c30.667 0 56.334 -8 77.001 -24
c21.333 -16 36 -37.333 44 -64c22 26.667 47 48 75 64s56 24 84 24c39.333 -0.666992 70 -13.334 92 -38.001c22.667 -24 34 -56.667 34 -98v-384h-58v380c0 28 -6.66699 50 -20 66s-34.333 24 -63 24c-24 0 -47.667 -7.33301 -71 -22c-22.667 -15.333 -46 -37 -70 -65v-384
h-56v373c0 16 -1.33301 30 -4 42c-3.33301 12 -8.33301 22 -15 30s-15.334 14 -26.001 18s-23.667 6 -39 6c-21.333 0 -43.333 -6.33301 -66 -19c-22.667 -12 -46 -31.333 -70 -58v-392h-53z" />
    <glyph glyph-name="n" unicode="n" horiz-adv-x="528" 
d="M92 0l0.000976562 -0.99707v0v403c0 28 -2 50 -6 66s-8 28 -12 36l54 14c1.33301 -2.66699 4 -11.334 8 -26.001s6.33301 -33.334 7 -56.001c25.333 26.667 52 47 80 61c27.333 14 55.666 21 84.999 21c26.667 0 50 -5.33301 70 -16s35 -25.334 45 -44.001
c6 -9.33301 11 -20 15 -32c3.33301 -12 5 -24.667 5 -38v-388h-56v360c0 23.333 -2 41.333 -6 54s-10 23.667 -18 33c-6.66699 7.33301 -16 13 -28 17c-12 4.66699 -25.333 7 -40 7c-24 0 -49.667 -7 -77 -21c-28 -14.667 -52.667 -34 -74 -58v-392h-54h2z" />
    <glyph glyph-name="o" unicode="o" horiz-adv-x="534" 
d="M264 -11c-39.333 0.666992 -72.666 8.99805 -99.999 24.998s-49 36.333 -65 61c-15.333 22.667 -27 49.334 -35 80.001s-12 65.334 -12 104.001c0 40 4.66699 76 14 108s22.666 59.333 39.999 82c16 21.333 37.333 39 64 53c26.667 13.333 58 20.333 94 21
c42 -0.666992 76.667 -9.66699 104 -27s48.333 -37.666 63 -60.999c14.667 -22.667 26 -49.334 34 -80.001s12 -66 12 -106c0 -34.667 -3.33301 -65.667 -10 -93c-6.66699 -28 -16 -52.667 -28 -74c-16 -28 -38.667 -50.667 -68 -68c-28.667 -17.333 -63 -26 -103 -26z
M268 32.998l-0.00195312 -1.00391v0v0c30.667 0 56 7.33301 76 22s34.667 33.334 44 56.001c9.33301 20 16 40 20 60s6 44.667 6 74c0 36 -2.66699 67.333 -8 94s-12.666 49.334 -21.999 68.001c-10.667 20.667 -26.667 37.334 -48 50.001s-46 19 -74 19
c-28 -0.666992 -52 -7 -72 -19s-34.667 -26.667 -44 -44s-16.666 -38.333 -21.999 -63s-8 -53 -8 -85c0 -36.667 3.33301 -69.667 10 -99c6 -29.333 14.333 -52.666 25 -69.999c10 -16 25 -30 45 -42s44 -18.333 72 -19v-1z" />
    <glyph glyph-name="p" unicode="p" horiz-adv-x="544" 
d="M92 -212l0.000976562 618.002c0 34.667 -1.33301 60 -4 76s-4.66699 25.333 -6 28l57 10c1.33301 -2 2.66602 -9 3.99902 -21s2 -30.333 2 -55c20 24.667 42.667 43.667 68 57c26 13.333 53.667 20 83 20c26 0 50.667 -5.33301 74 -16s43.333 -26.334 60 -47.001
c18.667 -22.667 32.667 -50.334 42 -83.001c9.33301 -32 14 -70.667 14 -116c0 -40.667 -3.33301 -75 -10 -103s-16.667 -52.333 -30 -73c-18.667 -29.333 -41.334 -52 -68.001 -68s-56.667 -24 -90 -24c-26.667 0 -52.667 5.33301 -78 16s-46.666 26 -63.999 46v-252
l-56 -12zM275.001 38.002v-1v0v0c26.667 0 50.667 6 72 18c21.333 12.667 38 30 50 52c8 16 14.667 36 20 60s8 52 8 84c0 34.667 -2.66699 66 -8 94s-13.333 50.667 -24 68c-11.333 18 -26.333 32 -45 42c-18.667 9.33301 -38.667 14 -60 14
c-26.667 0 -52 -6.33301 -76 -19s-46 -31.667 -66 -57v-288c18.667 -23.333 39.334 -41 62.001 -53c23.333 -12 46.666 -18 69.999 -18z" />
    <glyph glyph-name="q" unicode="q" horiz-adv-x="542" 
d="M403 -207v269.999c-18 -24 -39.333 -42 -64 -54c-25.333 -12 -52.666 -18 -81.999 -18c-26.667 0 -50.667 4.66699 -72 14s-40 22 -56 38c-22.667 24 -39.667 53.333 -51 88s-17 72.667 -17 114c0 47.333 4 87.333 12 120c8.66699 32 22 59.333 40 82
c18.667 24.667 40.667 43.334 66 56.001c25.333 13.333 52 20 80 20c29.333 0 56 -6 80 -18c23.333 -12 45 -29.333 65 -52c0.666992 10.667 2 22 4 34c1.33301 12 2.66602 20 3.99902 24h56c-2 -4 -4.66699 -15.667 -8 -35s-5 -46.333 -5 -81v-590l-53 -12h1zM267 40.999
v-1.00098v0v0c29.333 0 55.333 7.33301 78 22s41 35.334 55 62.001v279c-13.333 20.667 -32 37.667 -56 51s-50.667 20 -80 20c-22.667 0 -44 -5.33301 -64 -16s-36 -26 -48 -46c-12 -18 -20.667 -39 -26 -63s-8 -54.667 -8 -92c0 -33.333 3.33301 -65.333 10 -96
s18.334 -56.667 35.001 -78c11.333 -14 25.666 -25 42.999 -33s38 -12 62 -12z" />
    <glyph glyph-name="r" unicode="r" horiz-adv-x="308" 
d="M89 2l-0.000976562 -0.99707v0v402c0 33.333 -2 58 -6 74s-7 25.333 -9 28l56 14c2 -2.66699 5 -11.334 9 -26.001s6 -35 6 -61c6.66699 10.667 14.667 21 24 31c9.33301 9.33301 19.333 18 30 26c14.667 11.333 29.334 19.666 44.001 24.999s29 8 43 8
c6.66699 0 12.667 -0.666992 18 -2s8.66602 -2.33301 9.99902 -3l-22 -60c-2.66699 1.33301 -6 2.66602 -10 3.99902c-4 0.666992 -8 1 -12 1c-16 0 -31.333 -3.33301 -46 -10s-28.667 -16.667 -42 -30c-13.333 -12.667 -22.666 -25 -27.999 -37s-8 -28 -8 -48v-337h-56z
" />
    <glyph glyph-name="s" unicode="s" horiz-adv-x="442" 
d="M213 -10l0.00488281 -1.00195v0v0c-32.667 0 -64.334 4.33301 -95.001 13s-58 20.667 -82 36l22 41c23.333 -14.667 48.333 -26 75 -34s54.667 -12 84 -12c37.333 0 66.666 9.33301 87.999 28c20.667 18.667 31 43.667 31 75c0 24 -7.33301 44 -22 60
s-38.667 27.667 -72 35l-64 12c-40 8 -70.667 23.333 -92 46s-32 52 -32 88c0.666992 43.333 16 78.333 46 105s71.333 40.334 124 41.001c27.333 0 53.666 -3.66699 78.999 -11c25.333 -6.66699 48 -16 68 -28l-22 -41c-18.667 10.667 -38.334 19.334 -59.001 26.001
s-42.334 10 -65.001 10c-36 -0.666992 -63.333 -9.66699 -82 -27s-28 -40 -28 -68c0 -24 7 -43.333 21 -58c14 -14 35.333 -24 64 -30l66 -14c46 -9.33301 79.667 -25.666 101 -48.999c20.667 -23.333 31 -52.333 31 -87c-0.666992 -48 -17 -86 -49 -114
c-32 -28.667 -75.667 -43.334 -131 -44.001z" />
    <glyph glyph-name="t" unicode="t" horiz-adv-x="298" 
d="M195 -18l-0.000976562 -1v0v0c-14 0 -26.333 2 -37 6c-10.667 3.33301 -20 7.66602 -28 12.999c-13.333 8 -23.333 20 -30 36s-10 35.667 -10 59v369h-66v42h66c0 18 0.666992 36.333 2 55s2.66602 35.334 3.99902 50.001c1.33301 14 2.66602 23 3.99902 27l59 12
c-1.33301 -4 -2.66602 -13.333 -3.99902 -28c-1.33301 -14 -2.66602 -31 -3.99902 -51s-2 -41.333 -2 -64h126l-18 -42h-110v-354c0 -28 5.33301 -49 16 -63s28.667 -21 54 -21c12 0 22 1 30 3c8.66699 2 16.334 4.66699 23.001 8l8 -36
c-10.667 -5.33301 -22.667 -9.33301 -36 -12s-28 -4 -44 -4z" />
    <glyph glyph-name="u" unicode="u" horiz-adv-x="529" 
d="M434 -15l0.00195312 -1.00195v0v0c-12 10.667 -21.333 22.334 -28 35.001s-11.334 29 -14.001 49c-20 -26.667 -44 -46.667 -72 -60c-28 -14 -58.667 -21 -92 -21c-29.333 0 -54 5.33301 -74 16s-35 25.334 -45 44.001c-6.66699 9.33301 -11.667 21 -15 35
c-4 13.333 -6 28.333 -6 45v380l54 12v-376c0 -21.333 2.66699 -39 8 -53c5.33301 -13.333 13.333 -24.333 24 -33c8 -6.66699 18 -12 30 -16s25 -6 39 -6c26.667 0 52.667 8 78 24s46.666 38.667 63.999 68v381l56 10v-390c0 -30 2 -53 6 -69c4 -15.333 10.667 -28 20 -38
l-37 -37z" />
    <glyph glyph-name="v" unicode="v" horiz-adv-x="452" 
d="M193 -5l0.000976562 -1v0l-182 512l57 12l136 -396c4.66699 -14 8.33398 -27 11.001 -39c3.33301 -12 5.66602 -20 6.99902 -24h2c0 4 1.66699 12 5 24s7.66602 25.333 12.999 40l136 387h60l-188 -515h-56h-1z" />
    <glyph glyph-name="w" unicode="w" horiz-adv-x="672" 
d="M161 -3v-0.998047v0l-142 512l55 12l98 -380c4 -16 7.33301 -30.333 10 -43l5 -24h3c0.666992 3.33301 2.33398 10.666 5.00098 21.999s6 23.666 10 36.999l102 379h60l102 -380l16 -62h2l6 29l8 28l98 383h58l-144 -514h-56l-110 395
c-2.66699 11.333 -5.33398 21.666 -8.00098 30.999c-2.66699 8.66699 -4 14.334 -4 17.001h-2c-0.666992 -4 -2 -10.667 -4 -20s-4.33301 -17.333 -7 -24l-110 -398h-52z" />
    <glyph glyph-name="x" unicode="x" horiz-adv-x="449" 
d="M6 1v-1v0l188 282l-156 228h68l116 -188l114 188h64l-150 -228l194 -282h-68l-155 236l-152 -236h-66z" />
    <glyph glyph-name="y" unicode="y" horiz-adv-x="439" 
d="M97 -203l-0.00195312 -1.00098v0l-16 38c20 6 37 15 51 27c13.333 12 25.333 28.667 36 50s21.334 49.333 32.001 84l4 10l-25 -4c-1.33301 8 -4.66602 21.333 -9.99902 40l-17 58c-6 20.667 -11.333 37.667 -16 51l-124 356l55 18l121 -364
c5.33301 -16 10 -32.333 14 -49l10 -43c2.66699 -12 4 -18.667 4 -20h2c1.33301 4 3.33301 11 6 21s6 21 10 33s8 23.333 12 34l118 374h62l-175 -528c-10.667 -34 -22.667 -63.667 -36 -89c-13.333 -26 -29.333 -47.667 -48 -65s-41.667 -29.666 -69 -36.999z" />
    <glyph glyph-name="z" unicode="z" horiz-adv-x="432" 
d="M33 1v-1v0v43l290 423h-268v44h326v-46l-280 -421h286l-26 -43h-326z" />
    <glyph glyph-name="braceleft" unicode="{" horiz-adv-x="306" 
d="M230 -154l-0.000976562 -0.99707v0v0c-17.333 0 -33.333 4.66699 -48 14c-15.333 9.33301 -27.666 23.333 -36.999 42s-14 42 -14 70v184c0 25.333 -4.33301 46.666 -13 63.999s-19.667 30.666 -33 39.999s-27.333 14 -42 14v45c14.667 0 28.667 5 42 15
c13.333 9.33301 24.333 22.666 33 39.999s13 38 13 62v185c0 28 4.66699 51.333 14 70s21.666 32.667 36.999 42c14.667 10 30.334 15 47.001 15h56v-43h-46c-21.333 -0.666992 -36.666 -9.66699 -45.999 -27s-14 -39.333 -14 -66v-186
c-0.666992 -30.667 -6.33398 -55.334 -17.001 -74.001s-22.667 -32.667 -36 -42s-24.333 -14.666 -33 -15.999v-2c8.66699 0 19.667 -4 33 -12s25.333 -21.667 36 -41c10.667 -18.667 16.334 -44.667 17.001 -78v-184c0 -26.667 4.66699 -48.667 14 -66
s24.666 -26.333 45.999 -27h46v-43h-56z" />
    <glyph glyph-name="bar" unicode="|" horiz-adv-x="231" 
d="M92 -212v-1v0v987h47v-987h-47v1z" />
    <glyph glyph-name="braceright" unicode="}" horiz-adv-x="306" 
d="M21 -164l0.000976562 -1.00293v0v43h47c21.333 0.666992 36.666 9.66699 45.999 27c8.66699 17.333 13 39.333 13 66v184c0.666992 33.333 6.33398 59.333 17.001 78c10.667 19.333 22.667 33 36 41s24.333 12 33 12v2c-8.66699 1.33301 -19.667 6.66602 -33 15.999
s-25.333 23.333 -36 42s-16.334 43.334 -17.001 74.001v186c0 26.667 -4.66699 48.667 -14 66c-8.66699 17.333 -24.334 26.333 -47.001 27h-46v43h58c16.667 0 32.334 -5 47.001 -15c15.333 -9.33301 27.666 -23.333 36.999 -42s14 -42 14 -70v-185
c0 -24 4.33301 -44.667 13 -62s19.667 -30.666 33 -39.999c13.333 -10 27.333 -15 42 -15v-45c-14.667 0 -28.667 -4.66699 -42 -14s-24.333 -22.666 -33 -39.999c-8 -17.333 -12 -38.666 -12 -63.999v-184c0 -28 -4.66699 -51.333 -14 -70s-21.666 -32.667 -36.999 -42
c-14.667 -9.33301 -30.667 -14 -48 -14h-58z" />
    <glyph glyph-name="asciitilde" unicode="~" horiz-adv-x="594" 
d="M90 253l0.00195312 -1v0l-24 34c9.33301 14 19.666 27.667 30.999 41s24.666 24.333 39.999 33c14.667 8 32.667 12 54 12c20 0 39.333 -3.33301 58 -10s37 -14.667 55 -24s36 -17.333 54 -24c17.333 -6.66699 35.333 -10 54 -10
c22.667 0.666992 41.334 8.33398 56.001 23.001c14.667 14 26.334 30.333 35.001 49l24 -34c-9.33301 -14.667 -19.333 -28.667 -30 -42c-10.667 -12.667 -23.334 -23 -38.001 -31s-32 -12 -52 -12s-39.333 3.33301 -58 10s-36.667 14.667 -54 24
c-18 9.33301 -36 17.333 -54 24c-17.333 6.66699 -35.333 10 -54 10c-24.667 -0.666992 -44.334 -8.33398 -59.001 -23.001s-27 -32 -37 -52z" />
    <glyph glyph-name="exclamdown" unicode="&#xa1;" horiz-adv-x="252" 
d="M126 441c-13.333 0 -24 4 -32 12s-12 18.333 -12 31c0 13.333 4.33301 24 13 32s19 12 31 12c12.667 0 23.334 -4 32.001 -12s13 -18.667 13 -32s-4.33301 -24 -13 -32s-19.334 -12 -32.001 -12v1zM92 -186v-1v0l12 533h44l12 -524l-68 -10v2z" />
    <glyph glyph-name="cent" unicode="&#xa2;" horiz-adv-x="444" 
d="M239 -82l-0.000976562 77.001c-30.667 2 -57.667 9.66699 -81 23s-43 31.333 -59 54c-15.333 22.667 -27 48.667 -35 78s-12 62.666 -12 99.999c0 54.667 6.66699 99 20 133c13.333 34.667 31 62.667 53 84c16 16.667 33.333 29.667 52 39s39 15 61 17v80h40v-80
c25.333 -2.66699 47.333 -8.66699 66 -18s35.667 -20.666 51 -33.999l-30 -38c-14.667 12 -28.667 21.333 -42 28c-14 6.66699 -28.333 10.667 -43 12v-436c18.667 2 36.334 7.66699 53.001 17c16 9.33301 30.667 21.666 44 36.999l30 -36
c-19.333 -20 -39.333 -35.333 -60 -46s-43.667 -16.667 -69 -18v-78h-40zM235.999 38.001l0.00195312 -0.99707v0v437c-16.667 -2.66699 -32.334 -8.66699 -47.001 -18s-27 -21.333 -37 -36c-13.333 -18.667 -23.333 -43 -30 -73c-7.33301 -30.667 -11 -67.334 -11 -110.001
c0 -27.333 2.66699 -53 8 -77s13.333 -45.333 24 -64c10.667 -16.667 24 -30.334 40 -41.001c15.333 -10.667 33.666 -17.334 54.999 -20.001z" />
    <glyph glyph-name="sterling" unicode="&#xa3;" horiz-adv-x="521" 
d="M42 4v-1v0v56h110v282h-98v47h98v104c0.666992 76 18 132.667 52 170c34 38 81.667 57 143 57c28 0 54.333 -4.66699 79 -14c25.333 -9.33301 48 -23.666 68 -42.999l-39 -42c-16 15.333 -32.667 27 -50 35s-37 12 -59 12c-34 0 -60.667 -7.33301 -80 -22
s-33 -35.334 -41 -62.001s-12 -58 -12 -94v-104h166v-47h-166v-282h252v-56h-422z" />
    <glyph glyph-name="currency" unicode="&#xa4;" horiz-adv-x="449" 
d="M107 57l-43.999 27.998l50 74c-13.333 14.667 -23.333 32 -30 52s-10 42.333 -10 67c0 24 3.33301 46.333 10 67s17 38.334 31 53.001l-50 74l47 28l47 -72c9.33301 4 19.666 7.33301 30.999 10c10.667 2.66699 22.667 4 36 4s25.333 -1.33301 36 -4
c11.333 -2.66699 21.333 -6.66699 30 -12l47 74l45 -28l-49 -74c12.667 -10 23 -25.667 31 -47s12 -47.333 12 -78c0 -24.667 -3.33301 -46.667 -10 -66s-17 -36 -31 -50l52 -74l-46 -28l-48 72c-9.33301 -5.33301 -20 -9.33301 -32 -12s-25.333 -4 -40 -4
c-13.333 0 -26 1.33301 -38 4s-22.667 6.33398 -32 11.001l-50 -72zM221.001 152.998v-0.998047v0v0c34.667 0 60.667 10.667 78 32s26 50.666 26 87.999c0.666992 38.667 -7 70 -23 94s-43.333 36.333 -82 37c-36.667 -0.666992 -63 -12 -79 -34
c-16 -22.667 -24 -51.334 -24 -86.001c0 -42 8.66699 -74.333 26 -97s44 -34 80 -34z" />
    <glyph glyph-name="yen" unicode="&#xa5;" horiz-adv-x="513" 
d="M224 0l0.000976562 -0.999023v0v182h-202v42h202v54l-26 49h-176v43h154l-171 320h72l140 -274c5.33301 -10 10.666 -21 15.999 -33l15 -31c4 -9.33301 7 -16 9 -20c1.33301 3.33301 4.33301 9.66602 9 18.999c4 9.33301 9 20 15 32s12 23.333 18 34l141 274h66
l-171 -320h162v-43h-184l-28 -52v-51h212v-42h-212v-182h-60h-1z" />
    <glyph glyph-name="brokenbar" unicode="&#xa6;" horiz-adv-x="231" 
d="M92 774h47v-431h-47v431zM92 -212v-1v0v428h47v-428h-47v1z" />
    <glyph glyph-name="section" unicode="&#xa7;" horiz-adv-x="508" 
d="M250 -142c-44 0 -83.667 9.33398 -119 28.001c-34.667 18.667 -60.667 47 -78 85l54 26c11.333 -30 30 -52.333 56 -67c25.333 -14.667 55 -22 89 -22c22.667 0 43.667 4 63 12c18.667 8 34 20 46 36s18 36.333 18 61s-8 44.667 -24 60s-36.333 29 -61 41l-150 78
c-22.667 12 -41.334 28.333 -56.001 49s-22 45.334 -22 74.001c0.666992 34 11 61.667 31 83s45.667 38 77 50c-25.333 14.667 -45.333 32 -60 52s-22 44 -22 72c0.666992 34 9.66699 62.333 27 85s40 39.667 68 51c28 12 57.667 18 89 18
c22.667 0 45.334 -3.33301 68.001 -10s43.334 -16.667 62.001 -30c18.667 -14 33.334 -31.667 44.001 -53l-53 -28c-10.667 24 -27.334 42 -50.001 54c-22 11.333 -45.667 17 -71 17c-20.667 0 -40 -3.33301 -58 -10c-18.667 -7.33301 -34 -18.333 -46 -33
s-18 -33.334 -18 -56.001c0 -20.667 5.33301 -38.667 16 -54c10.667 -14.667 26 -27.334 46 -38.001l108 -54c21.333 -10.667 42 -22.667 62 -36c20.667 -13.333 37.667 -29.333 51 -48c13.333 -19.333 20.333 -43 21 -71c-0.666992 -30 -9.66699 -56 -27 -78
s-40 -39.667 -68 -53c25.333 -14.667 44.666 -32.667 57.999 -54c14 -20.667 21 -45 21 -73c-0.666992 -36 -10.334 -66 -29.001 -90s-42.667 -42 -72 -54s-60.666 -18 -93.999 -18zM318 174.001l0.000976562 -0.998047v0v0c21.333 8.66699 40 21.667 56 39
s24.333 37.333 25 60c0 20 -4.66699 36.667 -14 50c-10 14 -22.333 26 -37 36c-14.667 9.33301 -30 18 -46 26l-80 41c-16.667 -5.33301 -32.334 -12 -47.001 -20s-26.667 -18 -36 -30s-14 -27 -14 -45s4 -33.333 12 -46s18 -23.334 30 -32.001
c12.667 -8.66699 25.667 -16.334 39 -23.001l112 -56v1z" />
    <glyph glyph-name="dieresis" unicode="&#xa8;" horiz-adv-x="398" 
d="M110 593c-10.667 0 -19.666 3.66699 -26.999 11s-11 16.333 -11 27s3.66699 19.667 11 27s16.333 11 27 11s19.667 -3.66699 27 -11s11 -16.333 11 -27s-3.33301 -19.667 -10 -27s-15.334 -11 -26.001 -11h-2zM288.001 594v-1v0v0c-10.667 0 -20 3.66699 -28 11
c-7.33301 7.33301 -11 16.333 -11 27s3.66699 19.667 11 27s16.333 11 27 11c11.333 0 20.333 -3.66699 27 -11c7.33301 -7.33301 11 -16.333 11 -27s-3.33301 -19.667 -10 -27c-7.33301 -7.33301 -16.333 -11 -27 -11v1z" />
    <glyph glyph-name="copyright" unicode="&#xa9;" horiz-adv-x="868" 
d="M453 135c-26.667 0 -50.666 5.33496 -71.999 16.002c-21.333 11.333 -40 27.666 -56 48.999c-14 18.667 -25 40.667 -33 66c-8 26 -12 54.333 -12 85c0 26.667 2.66699 51.334 8 74.001s12.666 43 21.999 61c14.667 27.333 34 49 58 65s51.333 24 82 24
c20.667 0 39.667 -2.66699 57 -8s33 -13.666 47 -24.999l-22 -28c-12 9.33301 -24.667 16 -38 20s-28 6 -44 6c-22.667 0 -42.667 -5.66699 -60 -17s-31 -27 -41 -47c-8 -14.667 -14.333 -32.334 -19 -53.001s-7 -44.334 -7 -71.001c0 -26 2 -48.333 6 -67
s9.66699 -34.667 17 -48c12 -22.667 27.333 -39.334 46 -50.001s39.334 -16 62.001 -16c16 0 30.667 2.66699 44 8c14 4.66699 27 11.667 39 21l20 -28c-16 -11.333 -33.333 -20 -52 -26s-38.334 -9 -59.001 -9zM434.001 24.002c60 0.666992 114.333 15.667 163 45
s87.334 69 116.001 119c29.333 50 44.333 107 45 171c-0.666992 63.333 -15.667 120 -45 170c-28.667 50 -67.334 89.667 -116.001 119s-103 44.333 -163 45c-60.667 -0.666992 -115.334 -15.667 -164.001 -45s-87.667 -69 -117 -119
c-28.667 -50 -43.334 -106.667 -44.001 -170c0.666992 -64 15.334 -121 44.001 -171c29.333 -50 68.333 -89.667 117 -119s103.334 -44.333 164.001 -45zM434.001 -12.998v-1.00391v0v0c-68.667 0.666992 -131 17 -187 49s-100.667 76 -134 132s-50.666 119.667 -51.999 191
c1.33301 71.333 18.666 135 51.999 191s78 100 134 132s118.333 48.333 187 49c50.667 0 98.334 -9.33301 143.001 -28s84.334 -44.667 119.001 -78c34 -33.333 61 -72.666 81 -117.999c19.333 -45.333 29 -94.666 29 -147.999s-9.66699 -102.666 -29 -147.999
c-20 -45.333 -47 -84.666 -81 -117.999c-34.667 -33.333 -74.334 -59.333 -119.001 -78s-92.334 -28 -143.001 -28v1z" />
    <glyph glyph-name="ordfeminine" unicode="&#xaa;" horiz-adv-x="429" 
d="M348 366c-13.333 4 -23.999 10.9971 -31.999 20.9971c-8 9.33301 -13.333 20.666 -16 33.999c-16 -19.333 -33 -33 -51 -41c-18.667 -8 -38 -12 -58 -12c-32 0 -57 5.33301 -75 16s-30.667 24.334 -38 41.001c-7.33301 16 -11 32.667 -11 50
c0.666992 44 18.334 77.333 53.001 100s82 34 142 34h19c6 -0.666992 11 -1 15 -1v42c0 14.667 -1.33301 27.334 -4 38.001s-7.33398 19.334 -14.001 26.001c-4 5.33301 -10.667 10 -20 14s-21.333 6 -36 6c-22.667 0 -44.667 -4.66699 -66 -14
c-20.667 -9.33301 -39 -20.666 -55 -33.999l-22 32c21.333 16 44.666 29 69.999 39c24.667 9.33301 51 14 79 14c25.333 0 46 -4 62 -12s27.333 -18 34 -30c8.66699 -12.667 14 -27 16 -43c2.66699 -16.667 3.66699 -34.334 3 -53.001l-4 -150
c-1.33301 -25.333 0 -44.666 4 -57.999c4 -14 13 -24.333 27 -31l-24 -30zM60.001 289.997h306v-39h-306v39zM196.001 404.997l0.00195312 -1.00098v0v0c20 0 39 5.33301 57 16c17.333 10.667 30.666 25.334 39.999 44.001l2 116c-4.66699 0.666992 -10 1 -16 1h-20
c-48 0 -84.667 -8 -110 -24s-38 -41.333 -38 -76c0 -23.333 6.33301 -42.333 19 -57c13.333 -14.667 34.666 -22 63.999 -22z" />
    <glyph glyph-name="guillemotleft" unicode="&#xab;" horiz-adv-x="463" 
d="M231 246l139 208l39 -26l-120 -182l120 -182l-39 -26zM198 39v-1v0l-139 208l139 208l39 -26l-120 -182l121 -182l-40 -26v1z" />
    <glyph glyph-name="logicalnot" unicode="&#xac;" horiz-adv-x="494" 
d="M392 80v-1v0v166h-340v50h391v-216h-51v1z" />
    <glyph glyph-name="uni00AD" unicode="&#xad;" horiz-adv-x="302" 
d="M53 252v-1v0v54h196v-54h-196v1z" />
    <glyph glyph-name="registered" unicode="&#xae;" horiz-adv-x="868" 
d="M323 150v427h98c26.667 0 48 -2.66699 64 -8s29.333 -12.666 40 -21.999c10.667 -8 20 -19.333 28 -34c8 -14 12 -32 12 -54c0 -34 -10.333 -61.333 -31 -82c-20.667 -21.333 -49 -32.333 -85 -33c10 -6.66699 18.333 -13.334 25 -20.001
c7.33301 -7.33301 13.666 -15 18.999 -23l18 -29l21 -34l53 -89h-51l-14 25l-20 36c-13.333 24 -25.666 44.667 -36.999 62c-10.667 17.333 -22.667 33.333 -36 48c-6.66699 6.66699 -13.334 12 -20.001 16c-7.33301 4 -15.666 6 -24.999 6h-16v-194h-42zM367 368
l51 -0.000976562c18.667 0 34.667 2 48 6s24 9.33301 32 16c8 7.33301 14 16.333 18 27s6 23 6 37c0 18 -3.66699 33 -11 45c-8 12 -17.333 20.667 -28 26c-7.33301 4.66699 -17 8.33398 -29 11.001c-11.333 2.66699 -25.333 4 -42 4h-46v-170zM434 23.999
c60 0.666992 114.333 15.667 163 45c49.333 29.333 88.333 69 117 119c29.333 50 44.333 107 45 171c-0.666992 63.333 -15.667 120 -45 170c-28.667 50 -67.667 89.667 -117 119c-48.667 29.333 -103 44.333 -163 45c-60.667 -0.666992 -115.334 -15.667 -164.001 -45
c-49.333 -29.333 -88.333 -69 -117 -119s-43.334 -106.667 -44.001 -170c0.666992 -64 15.334 -121 44.001 -171s67.667 -89.667 117 -119c48.667 -29.333 103.334 -44.333 164.001 -45zM434 -13.001v-1.00391v0v0c-68.667 0.666992 -131 17 -187 49s-100.667 76 -134 132
s-50.666 119.667 -51.999 191c1.33301 71.333 18.666 135 51.999 191s78 100 134 132s118.333 48.333 187 49c50.667 0 98.334 -9.33301 143.001 -28s84 -44.667 118 -78c34.667 -33.333 61.667 -72.666 81 -117.999c20 -45.333 30 -94.666 30 -147.999
s-10 -102.666 -30 -147.999c-19.333 -45.333 -46.333 -84.666 -81 -117.999c-34 -33.333 -73.333 -59.333 -118 -78s-92.334 -28 -143.001 -28v1z" />
    <glyph glyph-name="macron" unicode="&#xaf;" horiz-adv-x="335" 
d="M30 611v-1v0v39h274v-39h-274v1z" />
    <glyph glyph-name="degree" unicode="&#xb0;" horiz-adv-x="384" 
d="M189 368c-48.667 1.33301 -86.3311 16.999 -112.998 46.999c-26.667 30.667 -40 70.667 -40 120c0 32 6 60.333 18 85s29.333 44.334 52 59.001c22.667 14 50.667 21 84 21c49.333 -0.666992 87.333 -16 114 -46s40 -70.667 40 -122c0 -30 -5.33301 -57.333 -16 -82
c-10.667 -24 -27.334 -43.333 -50.001 -58s-51.334 -22 -86.001 -22zM195.003 411.999l0.000976562 -1v0v0c33.333 0 59 10 77 30c17.333 20.667 26 50.334 26 89.001s-8 70 -24 94c-16.667 24 -44.334 36.333 -83.001 37c-36 -0.666992 -62 -11.667 -78 -33
c-16.667 -21.333 -25 -50 -25 -86c0 -42.667 8.66699 -75.334 26 -98.001s44 -34 80 -34z" />
    <glyph glyph-name="plusminus" unicode="&#xb1;" horiz-adv-x="478" 
d="M214 313h-164v50h164v146h50v-146h165v-50h-165v-151h-50v151zM51 48v-1v0v50h376v-50h-376v1z" />
    <glyph glyph-name="twosuperior" unicode="&#xb2;" horiz-adv-x="342" 
d="M50 278l0.00195312 -0.99707v0v28c13.333 10.667 28.666 23.667 45.999 39s36.333 34 57 56c30 31.333 52 59.666 66 84.999c14.667 24.667 22 48 22 70s-6.66699 40 -20 54c-13.333 13.333 -30 20 -50 20c-20 -0.666992 -38.667 -5 -56 -13
c-17.333 -8.66699 -32.666 -18.334 -45.999 -29.001l-20 28c21.333 18.667 42.666 32.667 63.999 42s43.666 14 66.999 14c33.333 -0.666992 60.666 -11.334 81.999 -32.001s32.333 -47 33 -79c-0.666992 -32 -9.66699 -61.333 -27 -88
c-17.333 -27.333 -38.666 -53.333 -63.999 -78l-46 -44l-36 -32h174l-10 -40h-238h2z" />
    <glyph glyph-name="threesuperior" unicode="&#xb3;" horiz-adv-x="350" 
d="M103 254v-1.00098v0v0c-6 0 -11.333 0.333008 -16 1c-5.33301 0 -11.333 0.666992 -18 2l-12 37c9.33301 -1.33301 16.666 -2 21.999 -2h17c26.667 0 50 2.66699 70 8s39 15.333 57 30c11.333 8.66699 20 19 26 31c5.33301 12 8 25 8 39c0 16 -4.66699 29.667 -14 41
s-22.666 19 -39.999 23c-6.66699 2 -14 3.33301 -22 4s-21.333 1 -40 1h-22v37h22c16.667 0 30 0.333008 40 1c9.33301 1.33301 17 3.33301 23 6c12 4 22 11 30 21s12 21.667 12 35c0 18.667 -6.66699 34 -20 46s-31.333 18 -54 18c-18.667 0 -36.334 -3.33301 -53.001 -10
c-16.667 -7.33301 -31.667 -16 -45 -26l-24 27c16 14 35.333 25.667 58 35c22.667 10 46 15 70 15c34.667 0 62.667 -9.33301 84 -28c21.333 -18 32 -42.333 32 -73c0 -20 -5.66699 -37.333 -17 -52c-10.667 -14.667 -25.334 -26 -44.001 -34
c22.667 -7.33301 40.334 -18.666 53.001 -33.999c12.667 -16 19 -34.667 19 -56c-0.666992 -28 -9.66699 -52 -27 -72s-38.666 -35.667 -63.999 -47c-15.333 -6.66699 -33.333 -12 -54 -16c-20 -4 -41.333 -6 -64 -6z" />
    <glyph glyph-name="acute" unicode="&#xb4;" horiz-adv-x="358" 
d="M106 579l-18 34l190 123l30 -54l-202 -102v-1z" />
    <glyph glyph-name="mu" unicode="&#xb5;" horiz-adv-x="534" 
d="M87 -213l-0.00195312 -0.999023v0v718l56 12v-376c0 -22 2.66699 -39.667 8 -53c4.66699 -13.333 12.334 -24.666 23.001 -33.999c8 -6.66699 18 -12 30 -16c12 -4.66699 25.333 -7 40 -7c26.667 0 52.667 8 78 24s47 38.667 65 68v382l56 10v-384
c0 -30.667 2 -54.334 6 -71.001s11.667 -30.334 23 -41.001l-37 -36c-12 10.667 -21.333 22.667 -28 36c-6.66699 12.667 -11 29 -13 49c-20 -26.667 -44 -46.667 -72 -60c-27.333 -14 -58.333 -21 -93 -21c-9.33301 0 -17.666 0.666992 -24.999 2
c-8 1.33301 -15.333 3.33301 -22 6c-8.66699 4 -15.667 8.33301 -21 13c-5.33301 5.33301 -11 12 -17 20v-226l-56 -12z" />
    <glyph glyph-name="paragraph" unicode="&#xb6;" horiz-adv-x="543" 
d="M223 -108l-0.000976562 -1v0v474c-37.333 0 -70.333 7.33301 -99 22s-51 35 -67 61s-24 56 -24 90c0.666992 61.333 19.334 108 56.001 140c37.333 32 88 48 152 48h200v-836h-51v788h-114v-788h-52z" />
    <glyph glyph-name="periodcentered" unicode="&#xb7;" horiz-adv-x="236" 
d="M120 239v-1v0v0c-13.333 0 -24.666 4.66699 -33.999 14s-14 20.666 -14 33.999s4.33301 24.666 13 33.999c9.33301 9.33301 20.666 14 33.999 14s24.666 -4.66699 33.999 -14s14 -20.666 14 -33.999s-4.66699 -24.666 -14 -33.999s-20.666 -14 -33.999 -14z" />
    <glyph glyph-name="cedilla" unicode="&#xb8;" horiz-adv-x="312" 
d="M147 -201l-0.00195312 -1v0v0c-16 0 -31 2.66699 -45 8s-25.667 11 -35 17l16 34c10.667 -6.66699 21.334 -11.334 32.001 -14.001s21.334 -4 32.001 -4c16 0 28.667 4 38 12s14 18.333 14 31c0 12 -4.66699 21.667 -14 29c-9.33301 6.66699 -20.666 10 -33.999 10h-17
c-5.33301 -0.666992 -9.33301 -1.66699 -12 -3l-6 7l22 75h44l-14 -50c28 -1.33301 48 -8.66602 60 -21.999s18 -30 18 -50c0 -13.333 -3.33301 -26 -10 -38s-17.334 -22 -32.001 -30s-32.667 -12 -54 -12z" />
    <glyph glyph-name="onesuperior" unicode="&#xb9;" horiz-adv-x="314" 
d="M83 278l0.000976562 -0.999023v0v40h70v292l-28 -16l-37 -20c-12.667 -6.66699 -22.334 -11.334 -29.001 -14.001l-14 28l120 80h36v-349h68v-40h-185h-1z" />
    <glyph glyph-name="ordmasculine" unicode="&#xba;" horiz-adv-x="432" 
d="M64 290h306v-39h-306v39zM215 407c37.333 0 64.667 13.332 82 39.999s26 64.667 26 114c0 58.667 -9.33301 101.334 -28 128.001s-46 40 -82 40c-38 -0.666992 -65.667 -15 -83 -43s-26 -65.333 -26 -112c0 -54 9.33301 -95.667 28 -125c18 -28.667 46.333 -43 85 -43z
M214.001 363.999v-0.999023v0v0c-34.667 0 -64 8.66699 -88 26s-42 41.333 -54 72s-18 66 -18 106c0 38.667 6 73 18 103s30 53.667 54 71c23.333 17.333 52.333 26 87 26c36.667 0 67 -8.66699 91 -26s41.667 -41.333 53 -72s17 -66.334 17 -107.001
c0 -60 -13.333 -107.333 -40 -142c-26.667 -35.333 -66 -53.333 -118 -54z" />
    <glyph glyph-name="guillemotright" unicode="&#xbb;" horiz-adv-x="463" 
d="M53 64l120 182l-120 182l39 26l140 -208l-140 -208zM263 39v-1v0l-38 26l120 182l-120 182l40 26l140 -208l-140 -208z" />
    <glyph glyph-name="onequarter" unicode="&#xbc;" horiz-adv-x="896" 
d="M750 67v4.00098c0 2 0.333008 4 1 6h-186v34l146 278h53l-25 -49l-41 -80l-43 -84c-14 -26.667 -25.333 -47.334 -34 -62.001l6 1h125l-1 5c-0.666992 3.33301 -1 8.33301 -1 15s0.333008 13.667 1 21l6 108l41 12v-160h50v-39h-50v-84l-48 -13v87zM83 277.001
l0.000976562 40.001h70v292l-28 -16l-37 -20c-12.667 -6.66699 -22.334 -11.334 -29.001 -14.001l-14 28l120 80h36v-349h68v-40h-185zM179.001 -156.998v-1v0l540 939h48l-540 -939h-47z" />
    <glyph glyph-name="onehalf" unicode="&#xbd;" horiz-adv-x="881" 
d="M83 277l0.000976562 40.001h70v292l-28 -16l-37 -20c-12.667 -6.66699 -22.334 -11.334 -29.001 -14.001l-14 28l120 80h36v-349h68v-40h-185zM688.001 781.001h47l-540 -939h-47zM589.001 0.000976562l0.00195312 -1.00098v0v28c13.333 10.667 28.666 23.667 45.999 39
s36.333 34 57 56c30 31.333 52 59.333 66 84c14.667 24.667 22 48.334 22 71.001c0 22 -6.66699 39.667 -20 53s-30 20 -50 20s-38.667 -4 -56 -12s-32.666 -17.333 -45.999 -28l-20 28c21.333 18.667 42.666 32.667 63.999 42s43.666 14 66.999 14
c33.333 -0.666992 60.666 -11.334 81.999 -32.001s32.333 -47 33 -79c-0.666992 -30.667 -9.66699 -59.667 -27 -87s-38.666 -53.666 -63.999 -78.999l-46 -44l-36 -32h8h8h158l-10 -41h-238h2z" />
    <glyph glyph-name="threequarters" unicode="&#xbe;" horiz-adv-x="916" 
d="M103 253c-6 0 -11.333 0.332031 -16 0.999023c-5.33301 0 -11.333 0.666992 -18 2l-12 37c9.33301 -1.33301 16.666 -2 21.999 -2h17c26.667 0 50 2.66699 70 8s39 15.333 57 30c11.333 8.66699 20 19 26 31c5.33301 12 8 25 8 39c0 16 -4.66699 29.667 -14 41
s-22.666 19 -39.999 23c-6.66699 2 -14 3.33301 -22 4s-21.333 1 -40 1h-22v37h22c16.667 0 30 0.333008 40 1c9.33301 1.33301 17 3.33301 23 6c12 4 22 11 30 21s12 21.667 12 35c0 18.667 -6.66699 34 -20 46s-31.333 18 -54 18c-18.667 0 -36.334 -3.33301 -53.001 -10
c-16.667 -7.33301 -31.667 -16 -45 -26l-24 27c16 14 35.333 25.667 58 35c22.667 10 46 15 70 15c34.667 0 62.667 -9.33301 84 -28c21.333 -18 32 -42.333 32 -73c0 -20 -5.66699 -37.333 -17 -52c-10.667 -14.667 -25.334 -26 -44.001 -34
c22.667 -7.33301 40.334 -18.666 53.001 -33.999c12.667 -16 19 -34.667 19 -56c-0.666992 -28 -9.66699 -52 -27 -72s-38.666 -35.667 -63.999 -47c-15.333 -6.66699 -33.333 -12 -54 -16c-20 -4 -41.333 -6 -64 -6zM776 -19.001v87.001v4c0 2 0.333008 4 1 6h-186v34
l146 278h53c-4.66699 -8.66699 -13 -25 -25 -49l-41 -80l-43 -84c-14 -26.667 -25.333 -47.334 -34 -62.001l6 1h125l-1 5c-0.666992 3.33301 -1 8.33301 -1 15s0.333008 13.667 1 21l6 108l41 11v-160h50v-39h-50v-84l-48 -13v1zM185 -157v-1v0l540 939h48l-540 -939h-48v1
z" />
    <glyph glyph-name="questiondown" unicode="&#xbf;" horiz-adv-x="420" 
d="M264 321c2.66699 -13.333 5 -25.998 7 -37.998c1.33301 -12.667 2 -25 2 -37c0 -26 -4.66699 -50.333 -14 -73s-24 -43.334 -44 -62.001l-46 -36c-16 -12 -30 -26.667 -42 -44s-18 -40 -18 -68c0.666992 -32 11 -57.667 31 -77s46.667 -29.333 80 -30
c25.333 0 49.333 4.33301 72 13c22.667 8 45.667 19.333 69 34l24 -39c-23.333 -17.333 -50 -31.333 -80 -42c-30 -10 -61.667 -15 -95 -15c-48 0.666992 -86 14.667 -114 42s-42.333 64.333 -43 111c0 26.667 4.66699 50 14 70s20.666 37.333 33.999 52
c13.333 14 26.333 25.667 39 35s22.334 16.666 29.001 21.999c17.333 14.667 30 32 38 52s12 42.667 12 68c0 9.33301 -0.666992 19.333 -2 30s-3.33301 21.667 -6 33h48zM227 531.002l0.000976562 -1v0v0c14 0 25.667 -4.66699 35 -14s14 -21.333 14 -36
c0 -13.333 -4.66699 -24.666 -14 -33.999s-21 -14 -35 -14s-25.667 4.66699 -35 14s-14 20.666 -14 33.999c0 14.667 4.66699 26.667 14 36s20.666 14 33.999 14z" />
    <glyph glyph-name="Agrave" unicode="&#xc0;" horiz-adv-x="561" 
d="M244 702h76l232 -702h-66l-73 228h-272l-73 -228h-58zM400 276l-120 374l-122 -374h242zM347 752v-1v0l-202 102l30 54l190 -123l-18 -34v2z" />
    <glyph glyph-name="Aacute" unicode="&#xc1;" horiz-adv-x="561" 
d="M244 702h76l232 -702h-66l-73 228h-272l-73 -228h-58zM400 276l-120 374l-122 -374h242zM223 749l-19 34l190 123l31 -54l-202 -102v-1z" />
    <glyph glyph-name="Acircumflex" unicode="&#xc2;" horiz-adv-x="561" 
d="M244 702h76l232 -702h-66l-73 228h-272l-73 -228h-58zM400 276l-120 374l-122 -374h242zM143 749v-1v0l-22 32l160 126l162 -126l-27 -32l-137 90l-135 -90z" />
    <glyph glyph-name="Atilde" unicode="&#xc3;" horiz-adv-x="561" 
d="M244 702h76l232 -702h-66l-73 228h-272l-73 -228h-58zM400 276l-120 374l-122 -374h242zM140 774l-0.000976562 -0.999023v0l-20 33c12 16 26 28.667 42 38s36 14 60 14c18.667 0 34 -3 46 -9s24 -11.667 36 -17c12 -6 26.667 -9 44 -9
c14.667 0 27.334 3.33301 38.001 10c10 6.66699 19.667 15 29 25l20 -32c-12 -16 -26 -28.667 -42 -38s-36.333 -14 -61 -14c-18.667 0.666992 -34 4 -46 10l-36 18c-12 6.66699 -26.667 10 -44 10c-14.667 0 -27 -3.33301 -37 -10s-19.667 -15.334 -29 -26.001v-2z" />
    <glyph glyph-name="Adieresis" unicode="&#xc4;" horiz-adv-x="561" 
d="M244 702h76l232 -702h-66l-73 228h-272l-73 -228h-58zM400 276l-120 374l-122 -374h242zM193 763c-10.667 0 -19.667 3.66699 -27 11s-11 16.333 -11 27s3.66699 19.667 11 27c6.66699 7.33301 15.334 11 26.001 11s19.667 -3.66699 27 -11s11 -16.333 11 -27
s-3.33301 -19.667 -10 -27s-15.334 -11 -26.001 -11h-1zM371 764v-1v0v0c-10.667 0 -20 3.66699 -28 11s-12 16.333 -12 27s3.66699 19.667 11 27s16.333 11 27 11s19.667 -3.66699 27 -11s11 -16.333 11 -27s-3.33301 -19.667 -10 -27
c-7.33301 -7.33301 -16.333 -11 -27 -11z" />
    <glyph glyph-name="Aring" unicode="&#xc5;" horiz-adv-x="561" 
d="M244 702h76l232 -702h-66l-73 228h-272l-73 -228h-58zM400 276l-120 374l-122 -374h242zM282 744c-28 0.666992 -50.666 10.334 -67.999 29.001s-26 41.334 -26 68.001s8.66699 49.334 26 68.001s39.333 28.334 66 29.001
c27.333 -0.666992 49.666 -10.334 66.999 -29.001c18 -18.667 27.333 -41.334 28 -68.001c-0.666992 -26.667 -9.66699 -49.334 -27 -68.001s-39.333 -28.334 -66 -29.001zM281.001 779l0.00195312 -1v0v0c17.333 0 31.666 6 42.999 18c12 12 18 26.667 18 44s-6 32 -18 44
s-27 18 -45 18c-17.333 0 -31.333 -6 -42 -18s-16 -26.667 -16 -44s6 -32 18 -44c11.333 -12 25.666 -18 42.999 -18z" />
    <glyph glyph-name="AE" unicode="&#xc6;" horiz-adv-x="859" 
d="M1 0l425 702h389l-8 -49h-298v-262h244v-50h-244v-291h318v-50h-378v230h-248l-137 -230h-63zM230 279v-1v0h218v370l-218 -370v1z" />
    <glyph glyph-name="Ccedilla" unicode="&#xc7;" horiz-adv-x="545" 
d="M307 -199l0.000976562 -1.00195v0v0c-16 0 -31 2.66699 -45 8c-14.667 5.33301 -26.667 11 -36 17l16 34c10.667 -6.66699 21.334 -11.334 32.001 -14.001s21.667 -4 33 -4c16 0 28.667 4 38 12s14 18.333 14 31c0 12 -4.66699 21.333 -14 28s-20.666 10 -33.999 10
c-7.33301 0 -13.333 -0.333008 -18 -1c-4.66699 0 -8.33398 -0.666992 -11.001 -2l-6 8l20 68c-30.667 3.33301 -59.334 12.666 -86.001 27.999c-26.667 14.667 -51.334 36 -74.001 64c-26.667 32 -46 70.667 -58 116c-12.667 45.333 -19 94.333 -19 147
c0 48 5.33301 92.667 16 134s26 77.333 46 108c24.667 38.667 55.667 68.667 93 90c36.667 21.333 77.667 32 123 32c32.667 0 63 -4.66699 91 -14s54 -23.333 78 -42l-31 -38c-21.333 16 -43 27.667 -65 35c-22.667 6.66699 -47.334 10 -74.001 10
c-40 0 -74.667 -10 -104 -30c-30 -19.333 -54 -47.666 -72 -84.999c-12 -25.333 -21.333 -55.333 -28 -90s-10 -74 -10 -118c0 -40 3.33301 -75.333 10 -106c6.66699 -30 15.667 -56.333 27 -79c20.667 -41.333 47.334 -71.666 80.001 -90.999c32 -19.333 68 -29 108 -29
c26.667 0 51.334 4 74.001 12s45.334 20 68.001 36l32 -40c-26.667 -18.667 -55.334 -32.667 -86.001 -42s-62 -14.333 -94 -15l-11 -39c28 -1.33301 48 -8.66602 60 -21.999s18 -29.666 18 -48.999c0 -13.333 -3.33301 -26 -10 -38s-17.334 -22 -32.001 -30
s-32.667 -12 -54 -12z" />
    <glyph glyph-name="Egrave" unicode="&#xc8;" horiz-adv-x="503" 
d="M93 1v702h366l-8 -48h-299v-264h244v-50h-244v-291h318v-50h-377v1zM350 752v-1v0l-202 102l30 54l190 -123l-18 -34v2z" />
    <glyph glyph-name="Eacute" unicode="&#xc9;" horiz-adv-x="503" 
d="M93 1v702h366l-8 -48h-299v-264h244v-50h-244v-291h318v-50h-377v1zM208 750v-1v0l-20 34l190 123l30 -54l-202 -102h2z" />
    <glyph glyph-name="Ecircumflex" unicode="&#xca;" horiz-adv-x="503" 
d="M93 1v702h366l-8 -48h-299v-264h244v-50h-244v-291h318v-50h-377v1zM140 749v-1v0l-23 32l160 126l162 -126l-27 -32l-137 90l-135 -90v1z" />
    <glyph glyph-name="Edieresis" unicode="&#xcb;" horiz-adv-x="503" 
d="M93 1v702h366l-8 -48h-299v-264h244v-50h-244v-291h318v-50h-377v1zM191 763c-10.667 0 -19.667 3.66699 -27 11s-11 16.333 -11 27s3.66699 19.667 11 27c6.66699 7.33301 15.334 11 26.001 11s19.667 -3.66699 27 -11s11 -16.333 11 -27s-3.33301 -19.667 -10 -27
s-15.334 -11 -26.001 -11h-1zM369 764l0.000976562 -1v0v0c-10.667 0 -20 3.66699 -28 11s-12 16.333 -12 27s3.66699 19.667 11 27s16.333 11 27 11s19.667 -3.66699 27 -11s11 -16.333 11 -27s-3.66699 -19.667 -11 -27c-6.66699 -7.33301 -15.334 -11 -26.001 -11z" />
    <glyph glyph-name="Igrave" unicode="&#xcc;" horiz-adv-x="243" 
d="M93 702h56v-702h-56v702zM167 752v-1v0l-202 102l31 54l190 -123l-18 -34z" />
    <glyph glyph-name="Iacute" unicode="&#xcd;" horiz-adv-x="243" 
d="M93 702h56v-702h-56v702zM93 750v-1v0l-20 34l190 123l31 -54l-202 -102h1z" />
    <glyph glyph-name="Icircumflex" unicode="&#xce;" horiz-adv-x="243" 
d="M93 702h56v-702h-56v702zM-17 749v-1v0l-22 32l160 126l162 -126l-26 -32l-137 90l-136 -90z" />
    <glyph glyph-name="Idieresis" unicode="&#xcf;" horiz-adv-x="243" 
d="M93 702h56v-702h-56v702zM33 763c-11.333 0 -20.332 3.66699 -26.999 11c-7.33301 7.33301 -11 16.333 -11 27s3.33301 19.667 10 27c7.33301 7.33301 16.333 11 27 11s19.667 -3.66699 27 -11s11 -16.333 11 -27s-3.33301 -19.667 -10 -27s-15.334 -11 -26.001 -11h-1z
M212.001 764v-1v0v0c-10.667 0 -20 3.66699 -28 11s-12 16.333 -12 27s3.66699 19.667 11 27s16.333 11 27 11s19.667 -3.66699 27 -11s11 -16.333 11 -27s-3.66699 -19.667 -11 -27s-16.333 -11 -27 -11z" />
    <glyph glyph-name="Eth" unicode="&#xd0;" horiz-adv-x="615" 
d="M150 47h82.998c40 -0.666992 76 3.33301 108 12s59.333 27 82 55c20.667 25.333 37.334 57.333 50.001 96c12.667 38 19 83 19 135c0 62 -6.66699 112.667 -20 152s-32.666 72 -57.999 98c-22.667 24 -48.667 40 -78 48s-64 11.667 -104 11h-82v-274h182l-17 -43h-165
v-289v-1zM86.998 0l-0.00195312 -1v0v337h-85v43h85v322h119c35.333 0 66 -1.33301 92 -4s49.667 -8 71 -16s42.666 -19.667 63.999 -35c40 -29.333 69.667 -69 89 -119c20 -49.333 30 -108 30 -176c0 -64 -8 -119 -24 -165c-16 -46.667 -38.333 -83.667 -67 -111
c-21.333 -20 -42.666 -35.667 -63.999 -47c-21.333 -10.667 -44.666 -18 -69.999 -22s-54.666 -6 -87.999 -6h-146h-6z" />
    <glyph glyph-name="Ntilde" unicode="&#xd1;" horiz-adv-x="631" 
d="M93 2l0.000976562 701.998h68l268 -503l27 -56l22 -48c5.33301 -13.333 8.66602 -20.666 9.99902 -21.999v20c-0.666992 13.333 -1.66699 29.333 -3 48l-2 56c-0.666992 18.667 -1 34.667 -1 48l-2 454h58v-702h-62l-266 498l-47 90
c-10.667 22.667 -16.667 36.334 -18 41.001v-18c0.666992 -10.667 1.66699 -24 3 -40l2 -48c0.666992 -16 1 -30 1 -42l2 -480h-60v2zM174.001 773.998v-0.999023v0l-20 33c12 16 26 28.667 42 38s36.333 14 61 14c18.667 0 34 -3 46 -9s24 -11.667 36 -17
c12 -6 27 -9 45 -9c14.667 0 27 3.33301 37 10c10.667 6.66699 20.667 15 30 25l20 -32c-12 -16 -26 -28.667 -42 -38s-36.333 -14 -61 -14c-18.667 0.666992 -34 4 -46 10l-36 18c-12 6.66699 -27 10 -45 10c-14.667 0 -27 -3.33301 -37 -10s-19.667 -15.334 -29 -26.001z
" />
    <glyph glyph-name="Ograve" unicode="&#xd2;" horiz-adv-x="665" 
d="M331 -14c-48 1.33301 -88.333 11.667 -121 31s-59 43 -79 71c-22.667 30.667 -40.334 68 -53.001 112c-12 44 -18 94 -18 150c0 53.333 5.66699 101.333 17 144s27 79 47 109c20 31.333 47 57 81 77c33.333 20 74.666 30.333 123.999 31c40 -0.666992 74 -7 102 -19
s51 -27 69 -45c18.667 -18 33.334 -35.667 44.001 -53c20 -30.667 35 -66.667 45 -108s15 -89.333 15 -144c0 -60.667 -7.33301 -112.667 -22 -156c-14 -43.333 -35 -80.333 -63 -111c-21.333 -25.333 -46.666 -46 -75.999 -62c-30 -16 -66.667 -24.333 -110 -25z
M342 31.001c38 0.666992 69.3359 9 94.0029 25c24 15.333 43.333 34.333 58 57c16 24 28 53.333 36 88c8.66699 34.667 13 79.334 13 134.001c0 50.667 -3.33301 94.667 -10 132s-16.667 69 -30 95c-8 17.333 -19.333 34 -34 50s-33.334 29.333 -56.001 40
c-22.667 10 -49.334 15 -80.001 15c-41.333 -0.666992 -76 -10.334 -104 -29.001s-48.667 -41 -62 -67c-13.333 -24.667 -23.333 -54 -30 -88s-10 -73.667 -10 -119c0 -52 4 -98.333 12 -139c8 -41.333 19 -75 33 -101c9.33301 -16 22 -31 38 -45
c16 -13.333 34.667 -24.333 56 -33c21.333 -8 44.666 -12 69.999 -12zM406.003 752.001v-1v0l-202 102l30 54l190 -123l-18 -34v2z" />
    <glyph glyph-name="Oacute" unicode="&#xd3;" horiz-adv-x="665" 
d="M331 -14c-48 1.33301 -88.333 11.667 -121 31s-59 43 -79 71c-22.667 30.667 -40.334 68 -53.001 112c-12 44 -18 94 -18 150c0 53.333 5.66699 101.333 17 144s27 79 47 109c20 31.333 47 57 81 77c33.333 20 74.666 30.333 123.999 31c40 -0.666992 74 -7 102 -19
s51 -27 69 -45c18.667 -18 33.334 -35.667 44.001 -53c20 -30.667 35 -66.667 45 -108s15 -89.333 15 -144c0 -60.667 -7.33301 -112.667 -22 -156c-14 -43.333 -35 -80.333 -63 -111c-21.333 -25.333 -46.666 -46 -75.999 -62c-30 -16 -66.667 -24.333 -110 -25z
M342 31.001c38 0.666992 69.3359 9 94.0029 25c24 15.333 43.333 34.333 58 57c16 24 28 53.333 36 88c8.66699 34.667 13 79.334 13 134.001c0 50.667 -3.33301 94.667 -10 132s-16.667 69 -30 95c-8 17.333 -19.333 34 -34 50s-33.334 29.333 -56.001 40
c-22.667 10 -49.334 15 -80.001 15c-41.333 -0.666992 -76 -10.334 -104 -29.001s-48.667 -41 -62 -67c-13.333 -24.667 -23.333 -54 -30 -88s-10 -73.667 -10 -119c0 -52 4 -98.333 12 -139c8 -41.333 19 -75 33 -101c9.33301 -16 22 -31 38 -45
c16 -13.333 34.667 -24.333 56 -33c21.333 -8 44.666 -12 69.999 -12zM281.003 750.001v-1v0l-20 34l190 123l31 -54l-202 -102h1z" />
    <glyph glyph-name="Ocircumflex" unicode="&#xd4;" horiz-adv-x="665" 
d="M331 -14c-48 1.33301 -88.333 11.667 -121 31s-59 43 -79 71c-22.667 30.667 -40.334 68 -53.001 112c-12 44 -18 94 -18 150c0 53.333 5.66699 101.333 17 144s27 79 47 109c20 31.333 47 57 81 77c33.333 20 74.666 30.333 123.999 31c40 -0.666992 74 -7 102 -19
s51 -27 69 -45c18.667 -18 33.334 -35.667 44.001 -53c20 -30.667 35 -66.667 45 -108s15 -89.333 15 -144c0 -60.667 -7.33301 -112.667 -22 -156c-14 -43.333 -35 -80.333 -63 -111c-21.333 -25.333 -46.666 -46 -75.999 -62c-30 -16 -66.667 -24.333 -110 -25z
M342 31.001c38 0.666992 69.3359 9 94.0029 25c24 15.333 43.333 34.333 58 57c16 24 28 53.333 36 88c8.66699 34.667 13 79.334 13 134.001c0 50.667 -3.33301 94.667 -10 132s-16.667 69 -30 95c-8 17.333 -19.333 34 -34 50s-33.334 29.333 -56.001 40
c-22.667 10 -49.334 15 -80.001 15c-41.333 -0.666992 -76 -10.334 -104 -29.001s-48.667 -41 -62 -67c-13.333 -24.667 -23.333 -54 -30 -88s-10 -73.667 -10 -119c0 -52 4 -98.333 12 -139c8 -41.333 19 -75 33 -101c9.33301 -16 22 -31 38 -45
c16 -13.333 34.667 -24.333 56 -33c21.333 -8 44.666 -12 69.999 -12zM195.003 749.001v-1v0l-22 32l160 126l162 -126l-26 -32l-137 90l-136 -90z" />
    <glyph glyph-name="Otilde" unicode="&#xd5;" horiz-adv-x="665" 
d="M331 -14c-48 1.33301 -88.333 11.667 -121 31s-59 43 -79 71c-22.667 30.667 -40.334 68 -53.001 112c-12 44 -18 94 -18 150c0 53.333 5.66699 101.333 17 144s27 79 47 109c20 31.333 47 57 81 77c33.333 20 74.666 30.333 123.999 31c40 -0.666992 74 -7 102 -19
s51 -27 69 -45c18.667 -18 33.334 -35.667 44.001 -53c20 -30.667 35 -66.667 45 -108s15 -89.333 15 -144c0 -60.667 -7.33301 -112.667 -22 -156c-14 -43.333 -35 -80.333 -63 -111c-21.333 -25.333 -46.666 -46 -75.999 -62c-30 -16 -66.667 -24.333 -110 -25z
M342 31.001c38 0.666992 69.3359 9 94.0029 25c24 15.333 43.333 34.333 58 57c16 24 28 53.333 36 88c8.66699 34.667 13 79.334 13 134.001c0 50.667 -3.33301 94.667 -10 132s-16.667 69 -30 95c-8 17.333 -19.333 34 -34 50s-33.334 29.333 -56.001 40
c-22.667 10 -49.334 15 -80.001 15c-41.333 -0.666992 -76 -10.334 -104 -29.001s-48.667 -41 -62 -67c-13.333 -24.667 -23.333 -54 -30 -88s-10 -73.667 -10 -119c0 -52 4 -98.333 12 -139c8 -41.333 19 -75 33 -101c9.33301 -16 22 -31 38 -45
c16 -13.333 34.667 -24.333 56 -33c21.333 -8 44.666 -12 69.999 -12zM193.003 774.001v-0.999023v0l-20 33c12 16 26 28.667 42 38s36.333 14 61 14c18.667 0 34 -3 46 -9s24 -11.667 36 -17c12 -6 27 -9 45 -9c14.667 0 27 3.33301 37 10c10.667 6.66699 20.667 15 30 25
l20 -32c-12 -16 -26 -28.667 -42 -38s-36.333 -14 -61 -14c-18.667 0.666992 -34 4 -46 10l-36 18c-12 6.66699 -27 10 -45 10c-14.667 0 -27 -3.33301 -37 -10s-19.667 -15.334 -29 -26.001z" />
    <glyph glyph-name="Odieresis" unicode="&#xd6;" horiz-adv-x="665" 
d="M331 -14c-48 1.33301 -88.333 11.667 -121 31s-59 43 -79 71c-22.667 30.667 -40.334 68 -53.001 112c-12 44 -18 94 -18 150c0 53.333 5.66699 101.333 17 144s27 79 47 109c20 31.333 47 57 81 77c33.333 20 74.666 30.333 123.999 31c40 -0.666992 74 -7 102 -19
s51 -27 69 -45c18.667 -18 33.334 -35.667 44.001 -53c20 -30.667 35 -66.667 45 -108s15 -89.333 15 -144c0 -60.667 -7.33301 -112.667 -22 -156c-14 -43.333 -35 -80.333 -63 -111c-21.333 -25.333 -46.666 -46 -75.999 -62c-30 -16 -66.667 -24.333 -110 -25z
M342 31.001c38 0.666992 69.3359 9 94.0029 25c24 15.333 43.333 34.333 58 57c16 24 28 53.333 36 88c8.66699 34.667 13 79.334 13 134.001c0 50.667 -3.33301 94.667 -10 132s-16.667 69 -30 95c-8 17.333 -19.333 34 -34 50s-33.334 29.333 -56.001 40
c-22.667 10 -49.334 15 -80.001 15c-41.333 -0.666992 -76 -10.334 -104 -29.001s-48.667 -41 -62 -67c-13.333 -24.667 -23.333 -54 -30 -88s-10 -73.667 -10 -119c0 -52 4 -98.333 12 -139c8 -41.333 19 -75 33 -101c9.33301 -16 22 -31 38 -45
c16 -13.333 34.667 -24.333 56 -33c21.333 -8 44.666 -12 69.999 -12zM240.003 763.001c-10.667 0 -19.666 3.66699 -26.999 11s-11 16.333 -11 27s3.66699 19.667 11 27s16.333 11 27 11s19.667 -3.66699 27 -11s11 -16.333 11 -27s-3.33301 -19.667 -10 -27
s-15.334 -11 -26.001 -11h-2zM421.004 764.001l-0.000976562 -1v0v0c-11.333 0 -20.666 3.66699 -27.999 11c-8 7.33301 -12 16.333 -12 27s3.66699 19.667 11 27c6.66699 7.33301 15.667 11 27 11c10.667 0 19.667 -3.66699 27 -11s11 -16.333 11 -27
s-3.66699 -19.667 -11 -27s-16.333 -11 -27 -11z" />
    <glyph glyph-name="multiply" unicode="&#xd7;" horiz-adv-x="528" 
d="M129 85v-1v0l-36 36l136 136l-136 135l36 36l135 -135l136 136l36 -37l-136 -135l136 -136l-36 -36l-136 135l-135 -135v1z" />
    <glyph glyph-name="Oslash" unicode="&#xd8;" horiz-adv-x="665" 
d="M110 -83l-36.001 22l74 129c-16 18.667 -30 40.334 -42 65.001c-14.667 28.667 -25.667 61.667 -33 99c-8 36.667 -12 76.667 -12 120c0 54.667 6 103.667 18 147s28.667 79.666 50 108.999c20 30 46.667 54.667 80 74c33.333 20 73.666 30.333 120.999 31
c36 0 67 -5.33301 93 -16c26 -10 48 -22.333 66 -37l68 115l38 -24l-73 -124c12 -14.667 22.667 -31 32 -49s17.333 -37.667 24 -59c8 -24.667 14 -51.667 18 -81s6 -61.333 6 -96c0 -60.667 -7 -112.667 -21 -156c-13.333 -43.333 -34 -80.333 -62 -111
c-21.333 -25.333 -46.666 -46 -75.999 -62s-65.666 -24.333 -108.999 -25c-32 0 -60.667 4.66699 -86 14s-48 21.333 -68 36l-70 -120v-1zM175.999 121l286.001 496.002c-14.667 14.667 -32.667 26.667 -54 36s-47.333 14 -78 14
c-41.333 -0.666992 -76 -10.334 -104 -29.001s-48.667 -41 -62 -67c-13.333 -24.667 -23.333 -54 -30 -88s-10 -73.667 -10 -119c0 -32 2 -62.333 6 -91s9.33301 -55 16 -79c4 -14.667 8.66699 -28.334 14 -41.001c5.33301 -12 10.666 -23 15.999 -33v1zM336 32.002
l-0.000976562 -1.00098v0v0c38 0.666992 69.333 9 94 25c24 15.333 43.333 34.333 58 57c16 24 28 53.333 36 88c8.66699 34.667 13 79.334 13 134.001c0 33.333 -1.66699 64 -5 92c-4 28 -9.33301 53.333 -16 76c-4 13.333 -8 26 -12 38c-4.66699 12 -9.66699 23 -15 33
l-284 -494c16 -14 35 -25.333 57 -34c22.667 -8 47.334 -12 74.001 -12v-2z" />
    <glyph glyph-name="Ugrave" unicode="&#xd9;" horiz-adv-x="616" 
d="M305 -7c-49.333 0 -88.665 7.33398 -117.998 22.001c-30 14.667 -53.667 36.334 -71 65.001c-10.667 18.667 -18 39 -22 61s-6 42.667 -6 62v502h58v-482c0 -20.667 1.33301 -41.667 4 -63s8 -39 16 -53c5.33301 -10.667 13.666 -21.334 24.999 -32.001
c11.333 -10 26.333 -18.333 45 -25s42 -10 70 -10c33.333 0 61.333 4.66699 84 14c22 9.33301 38.667 21.666 50 36.999c12 16.667 20 35 24 55s6 42 6 66v492h58v-499c0 -36 -3.33301 -66.667 -10 -92c-6.66699 -24.667 -19.334 -46 -38.001 -64
c-18.667 -18.667 -42 -33 -70 -43c-28 -10.667 -63.333 -16 -106 -16zM366.001 752.001v-1v0l-202 102l30 54l190 -123l-18 -34v2z" />
    <glyph glyph-name="Uacute" unicode="&#xda;" horiz-adv-x="616" 
d="M305 -7c-49.333 0 -88.665 7.33398 -117.998 22.001c-30 14.667 -53.667 36.334 -71 65.001c-10.667 18.667 -18 39 -22 61s-6 42.667 -6 62v502h58v-482c0 -20.667 1.33301 -41.667 4 -63s8 -39 16 -53c5.33301 -10.667 13.666 -21.334 24.999 -32.001
c11.333 -10 26.333 -18.333 45 -25s42 -10 70 -10c33.333 0 61.333 4.66699 84 14c22 9.33301 38.667 21.666 50 36.999c12 16.667 20 35 24 55s6 42 6 66v492h58v-499c0 -36 -3.33301 -66.667 -10 -92c-6.66699 -24.667 -19.334 -46 -38.001 -64
c-18.667 -18.667 -42 -33 -70 -43c-28 -10.667 -63.333 -16 -106 -16zM234.001 750.001v-1v0l-20 34l190 123l30 -54l-202 -102h2z" />
    <glyph glyph-name="Ucircumflex" unicode="&#xdb;" horiz-adv-x="616" 
d="M305 -7c-49.333 0 -88.665 7.33398 -117.998 22.001c-30 14.667 -53.667 36.334 -71 65.001c-10.667 18.667 -18 39 -22 61s-6 42.667 -6 62v502h58v-482c0 -20.667 1.33301 -41.667 4 -63s8 -39 16 -53c5.33301 -10.667 13.666 -21.334 24.999 -32.001
c11.333 -10 26.333 -18.333 45 -25s42 -10 70 -10c33.333 0 61.333 4.66699 84 14c22 9.33301 38.667 21.666 50 36.999c12 16.667 20 35 24 55s6 42 6 66v492h58v-499c0 -36 -3.33301 -66.667 -10 -92c-6.66699 -24.667 -19.334 -46 -38.001 -64
c-18.667 -18.667 -42 -33 -70 -43c-28 -10.667 -63.333 -16 -106 -16zM169.001 749.001v-1v0l-22 32l160 126l162 -126l-26 -32l-138 90l-135 -90z" />
    <glyph glyph-name="Udieresis" unicode="&#xdc;" horiz-adv-x="616" 
d="M305 -7c-49.333 0 -88.665 7.33398 -117.998 22.001c-30 14.667 -53.667 36.334 -71 65.001c-10.667 18.667 -18 39 -22 61s-6 42.667 -6 62v502h58v-482c0 -20.667 1.33301 -41.667 4 -63s8 -39 16 -53c5.33301 -10.667 13.666 -21.334 24.999 -32.001
c11.333 -10 26.333 -18.333 45 -25s42 -10 70 -10c33.333 0 61.333 4.66699 84 14c22 9.33301 38.667 21.666 50 36.999c12 16.667 20 35 24 55s6 42 6 66v492h58v-499c0 -36 -3.33301 -66.667 -10 -92c-6.66699 -24.667 -19.334 -46 -38.001 -64
c-18.667 -18.667 -42 -33 -70 -43c-28 -10.667 -63.333 -16 -106 -16zM218.001 763.001c-10.667 0 -19.666 3.66699 -26.999 11s-11 16.333 -11 27s3.66699 19.667 11 27s16.333 11 27 11s19.667 -3.66699 27 -11s11 -16.333 11 -27s-3.33301 -19.667 -10 -27
s-15.334 -11 -26.001 -11h-2zM397.002 764.001v-1v0v0c-11.333 0 -20.666 3.66699 -27.999 11c-8 7.33301 -12 16.333 -12 27s3.33301 19.667 10 27c7.33301 7.33301 16.666 11 27.999 11c10.667 0 19.667 -3.66699 27 -11s11 -16.333 11 -27s-3.33301 -19.667 -10 -27
c-7.33301 -7.33301 -16.333 -11 -27 -11z" />
    <glyph glyph-name="Yacute" unicode="&#xdd;" horiz-adv-x="500" 
d="M217 0v277.999l-226 424h72l156 -304c2.66699 -5.33301 7 -14.666 13 -27.999l17 -37l32 66l159 304h66l-228 -427v-276h-60h-1zM197 749.999v-1v0l-20 34l190 123l31 -54l-202 -102h1z" />
    <glyph glyph-name="Thorn" unicode="&#xde;" horiz-adv-x="530" 
d="M94 0l-0.000976562 702h56v-138h112c37.333 0 68 -2.66699 92 -8s45.333 -14 64 -26c29.333 -19.333 51.333 -43 66 -71s22 -59.667 22 -95c0 -36 -5.66699 -67.333 -17 -94c-11.333 -26 -27.666 -48 -48.999 -66c-21.333 -18.667 -46 -32 -74 -40
c-27.333 -8 -59 -12 -95 -12h-122v-152h-56h1zM152.999 204l0.000976562 -0.999023v0h119c30.667 0 56 3.33301 76 10s36.667 16.667 50 30s24.333 29.333 33 48s13 40 13 64c0 28.667 -4.66699 53.667 -14 75s-23.333 39 -42 53
c-14.667 11.333 -33.334 19.666 -56.001 24.999s-50.667 8 -84 8h-98v-316z" />
    <glyph glyph-name="germandbls" unicode="&#xdf;" horiz-adv-x="544" 
d="M312 -8v-0.999023v0v0c-20 0 -38.667 1.66699 -56 5c-16.667 3.33301 -31 7.66602 -43 12.999l16 38c9.33301 -4.66699 20.333 -8.33398 33 -11.001s26.334 -4 41.001 -4c40.667 0.666992 73 13.667 97 39s36.333 58.666 37 99.999c0 24.667 -4 45.334 -12 62.001
s-20 31 -36 43s-35.667 23.667 -59 35c-34 16 -59.667 30.667 -77 44s-26 29.333 -26 48c0 19.333 7.33301 35 22 47s34 24 58 36c16.667 8 31 19.333 43 34c12.667 14.667 19.334 35.334 20.001 62.001c0 31.333 -10.333 56.333 -31 75c-20 18.667 -46.667 28 -80 28
c-36 0 -64.333 -12.667 -85 -38s-31 -64.666 -31 -117.999v-425c0 -22.667 -1 -42.667 -3 -60s-5 -32.333 -9 -45h-53c3.33301 14 5.66602 30.667 6.99902 50s2 41 2 65v354h-72v42h72v12c0 32 2.66699 59.333 8 82s15.333 43.334 30 62.001c17.333 20 37.666 35 60.999 45
c23.333 9.33301 49 14 77 14c32.667 0 61.667 -6.33301 87 -19s45.333 -30.334 60 -53.001s22 -48.667 22 -78c0 -22 -4 -41 -12 -57s-18.667 -29.333 -32 -40c-12.667 -10.667 -26 -19.334 -40 -26.001c-20.667 -10 -37 -17.667 -49 -23s-18 -13.333 -18 -24
c0 -6.66699 5.66699 -13.334 17 -20.001c10.667 -6.66699 26 -14.667 46 -24s43.333 -22 70 -38c24.667 -14.667 44.667 -34.667 60 -60c15.333 -26 23.333 -56 24 -90c0 -35.333 -7.66699 -66.666 -23 -93.999s-37 -49 -65 -65s-60.667 -24 -98 -24v2z" />
    <glyph glyph-name="agrave" unicode="&#xe0;" horiz-adv-x="505" 
d="M425 -11c-16.667 5.33301 -30.3359 14.334 -41.0029 27.001c-10.667 12 -18 27.333 -22 46c-21.333 -24 -44 -41.333 -68 -52c-24 -11.333 -50.667 -17 -80 -17c-41.333 0.666992 -74 7.66699 -98 21c-24 14 -40.667 31.667 -50 53s-14 43.666 -14 66.999
c0.666992 58 24 101.667 70 131s109.667 44 191 44h28c8.66699 -0.666992 14.334 -1 17.001 -1v47c0 24 -1.33301 43.333 -4 58s-8 26.334 -16 35.001c-8.66699 9.33301 -19 16.666 -31 21.999s-26.667 8 -44 8c-30.667 -0.666992 -60.667 -7 -90 -19s-54 -26.667 -74 -44
l-28 40c30.667 21.333 62.667 38 96 50s68 18 104 18c30.667 0 56.334 -5.33301 77.001 -16c21.333 -10.667 37 -26.334 47 -47.001c9.33301 -18.667 15 -38 17 -58c2.66699 -19.333 3.33398 -40 2.00098 -62l-4 -184c-1.33301 -40 0.666992 -69.667 6 -89
c6 -19.333 18.667 -33.666 38 -42.999l-28 -40zM223.998 31.001c28 0 53.333 6.66699 76 20s41.334 32 56.001 56v14v20v14v33v44v32c-6.66699 0.666992 -14 1 -22 1h-24c-66.667 0 -116 -10.667 -148 -32s-48 -54 -48 -98c0 -31.333 8.66699 -56.666 26 -75.999
c17.333 -18.667 45.666 -28.334 84.999 -29.001zM336.998 582.001v-1v0l-202 102l31 54l190 -123l-20 -34z" />
    <glyph glyph-name="aacute" unicode="&#xe1;" horiz-adv-x="505" 
d="M425 -11c-16.667 5.33301 -30.3359 14.334 -41.0029 27.001c-10.667 12 -18 27.333 -22 46c-21.333 -24 -44 -41.333 -68 -52c-24 -11.333 -50.667 -17 -80 -17c-41.333 0.666992 -74 7.66699 -98 21c-24 14 -40.667 31.667 -50 53s-14 43.666 -14 66.999
c0.666992 58 24 101.667 70 131s109.667 44 191 44h28c8.66699 -0.666992 14.334 -1 17.001 -1v47c0 24 -1.33301 43.333 -4 58s-8 26.334 -16 35.001c-8.66699 9.33301 -19 16.666 -31 21.999s-26.667 8 -44 8c-30.667 -0.666992 -60.667 -7 -90 -19s-54 -26.667 -74 -44
l-28 40c30.667 21.333 62.667 38 96 50s68 18 104 18c30.667 0 56.334 -5.33301 77.001 -16c21.333 -10.667 37 -26.334 47 -47.001c9.33301 -18.667 15 -38 17 -58c2.66699 -19.333 3.33398 -40 2.00098 -62l-4 -184c-1.33301 -40 0.666992 -69.667 6 -89
c6 -19.333 18.667 -33.666 38 -42.999l-28 -40zM223.998 31.001c28 0 53.333 6.66699 76 20s41.334 32 56.001 56v14v20v14v33v44v32c-6.66699 0.666992 -14 1 -22 1h-24c-66.667 0 -116 -10.667 -148 -32s-48 -54 -48 -98c0 -31.333 8.66699 -56.666 26 -75.999
c17.333 -18.667 45.666 -28.334 84.999 -29.001zM181.998 579.001l-18 34l190 123l30 -54l-202 -102v-1z" />
    <glyph glyph-name="acircumflex" unicode="&#xe2;" horiz-adv-x="505" 
d="M425 -11c-16.667 5.33301 -30.3359 14.334 -41.0029 27.001c-10.667 12 -18 27.333 -22 46c-21.333 -24 -44 -41.333 -68 -52c-24 -11.333 -50.667 -17 -80 -17c-41.333 0.666992 -74 7.66699 -98 21c-24 14 -40.667 31.667 -50 53s-14 43.666 -14 66.999
c0.666992 58 24 101.667 70 131s109.667 44 191 44h28c8.66699 -0.666992 14.334 -1 17.001 -1v47c0 24 -1.33301 43.333 -4 58s-8 26.334 -16 35.001c-8.66699 9.33301 -19 16.666 -31 21.999s-26.667 8 -44 8c-30.667 -0.666992 -60.667 -7 -90 -19s-54 -26.667 -74 -44
l-28 40c30.667 21.333 62.667 38 96 50s68 18 104 18c30.667 0 56.334 -5.33301 77.001 -16c21.333 -10.667 37 -26.334 47 -47.001c9.33301 -18.667 15 -38 17 -58c2.66699 -19.333 3.33398 -40 2.00098 -62l-4 -184c-1.33301 -40 0.666992 -69.667 6 -89
c6 -19.333 18.667 -33.666 38 -42.999l-28 -40zM223.998 31.001c28 0 53.333 6.66699 76 20s41.334 32 56.001 56v14v20v14v33v44v32c-6.66699 0.666992 -14 1 -22 1h-24c-66.667 0 -116 -10.667 -148 -32s-48 -54 -48 -98c0 -31.333 8.66699 -56.666 26 -75.999
c17.333 -18.667 45.666 -28.334 84.999 -29.001zM115.998 579.001v-1v0l-22 30l161 126l160 -126l-26 -30l-137 89l-136 -89v1z" />
    <glyph glyph-name="atilde" unicode="&#xe3;" horiz-adv-x="505" 
d="M425 -11c-16.667 5.33301 -30.3359 14.334 -41.0029 27.001c-10.667 12 -18 27.333 -22 46c-21.333 -24 -44 -41.333 -68 -52c-24 -11.333 -50.667 -17 -80 -17c-41.333 0.666992 -74 7.66699 -98 21c-24 14 -40.667 31.667 -50 53s-14 43.666 -14 66.999
c0.666992 58 24 101.667 70 131s109.667 44 191 44h28c8.66699 -0.666992 14.334 -1 17.001 -1v47c0 24 -1.33301 43.333 -4 58s-8 26.334 -16 35.001c-8.66699 9.33301 -19 16.666 -31 21.999s-26.667 8 -44 8c-30.667 -0.666992 -60.667 -7 -90 -19s-54 -26.667 -74 -44
l-28 40c30.667 21.333 62.667 38 96 50s68 18 104 18c30.667 0 56.334 -5.33301 77.001 -16c21.333 -10.667 37 -26.334 47 -47.001c9.33301 -18.667 15 -38 17 -58c2.66699 -19.333 3.33398 -40 2.00098 -62l-4 -184c-1.33301 -40 0.666992 -69.667 6 -89
c6 -19.333 18.667 -33.666 38 -42.999l-28 -40zM223.998 31.001c28 0 53.333 6.66699 76 20s41.334 32 56.001 56v14v20v14v33v44v32c-6.66699 0.666992 -14 1 -22 1h-24c-66.667 0 -116 -10.667 -148 -32s-48 -54 -48 -98c0 -31.333 8.66699 -56.666 26 -75.999
c17.333 -18.667 45.666 -28.334 84.999 -29.001zM115.998 608.001l-0.00292969 -0.999023v0l-20 32c12 16 26 28.667 42 38s36 14 60 14c18.667 -0.666992 34 -4 46 -10l36 -18c12 -6.66699 26.667 -10 44 -10c14.667 0 27.334 3.33301 38.001 10s20.334 15 29.001 25
l20 -32c-12 -16 -26 -28.667 -42 -38s-36 -14 -60 -14c-18.667 0 -34 3.33301 -46 10l-36 18c-12 6 -26.667 9.33301 -44 10c-14.667 0 -27 -3.33301 -37 -10c-9.33301 -6.66699 -18.666 -15.334 -27.999 -26.001z" />
    <glyph glyph-name="adieresis" unicode="&#xe4;" horiz-adv-x="505" 
d="M425 -11c-16.667 5.33301 -30.3359 14.334 -41.0029 27.001c-10.667 12 -18 27.333 -22 46c-21.333 -24 -44 -41.333 -68 -52c-24 -11.333 -50.667 -17 -80 -17c-41.333 0.666992 -74 7.66699 -98 21c-24 14 -40.667 31.667 -50 53s-14 43.666 -14 66.999
c0.666992 58 24 101.667 70 131s109.667 44 191 44h28c8.66699 -0.666992 14.334 -1 17.001 -1v47c0 24 -1.33301 43.333 -4 58s-8 26.334 -16 35.001c-8.66699 9.33301 -19 16.666 -31 21.999s-26.667 8 -44 8c-30.667 -0.666992 -60.667 -7 -90 -19s-54 -26.667 -74 -44
l-28 40c30.667 21.333 62.667 38 96 50s68 18 104 18c30.667 0 56.334 -5.33301 77.001 -16c21.333 -10.667 37 -26.334 47 -47.001c9.33301 -18.667 15 -38 17 -58c2.66699 -19.333 3.33398 -40 2.00098 -62l-4 -184c-1.33301 -40 0.666992 -69.667 6 -89
c6 -19.333 18.667 -33.666 38 -42.999l-28 -40zM223.998 31.001c28 0 53.333 6.66699 76 20s41.334 32 56.001 56v14v20v14v33v44v32c-6.66699 0.666992 -14 1 -22 1h-24c-66.667 0 -116 -10.667 -148 -32s-48 -54 -48 -98c0 -31.333 8.66699 -56.666 26 -75.999
c17.333 -18.667 45.666 -28.334 84.999 -29.001zM172.998 593.001c-10.667 0 -19.666 3.66699 -26.999 11s-11 16.333 -11 27s3.66699 19.667 11 27s16.333 11 27 11s19.667 -3.66699 27 -11s11 -16.333 11 -27s-3.33301 -19.667 -10 -27s-15.334 -11 -26.001 -11h-2z
M350.999 594.001v-1v0v0c-10.667 0 -20 3.66699 -28 11c-7.33301 7.33301 -11 16.333 -11 27s3.66699 19.667 11 27s16.333 11 27 11c11.333 0 20.333 -3.66699 27 -11c7.33301 -7.33301 11 -16.333 11 -27s-3.33301 -19.667 -10 -27c-7.33301 -7.33301 -16.333 -11 -27 -11
v1z" />
    <glyph glyph-name="aring" unicode="&#xe5;" horiz-adv-x="505" 
d="M425 -11c-16.667 5.33301 -30.3359 14.334 -41.0029 27.001c-10.667 12 -18 27.333 -22 46c-21.333 -24 -44 -41.333 -68 -52c-24 -11.333 -50.667 -17 -80 -17c-41.333 0.666992 -74 7.66699 -98 21c-24 14 -40.667 31.667 -50 53s-14 43.666 -14 66.999
c0.666992 58 24 101.667 70 131s109.667 44 191 44h28c8.66699 -0.666992 14.334 -1 17.001 -1v47c0 24 -1.33301 43.333 -4 58s-8 26.334 -16 35.001c-8.66699 9.33301 -19 16.666 -31 21.999s-26.667 8 -44 8c-30.667 -0.666992 -60.667 -7 -90 -19s-54 -26.667 -74 -44
l-28 40c30.667 21.333 62.667 38 96 50s68 18 104 18c30.667 0 56.334 -5.33301 77.001 -16c21.333 -10.667 37 -26.334 47 -47.001c9.33301 -18.667 15 -38 17 -58c2.66699 -19.333 3.33398 -40 2.00098 -62l-4 -184c-1.33301 -40 0.666992 -69.667 6 -89
c6 -19.333 18.667 -33.666 38 -42.999l-28 -40zM223.998 31.001c28 0 53.333 6.66699 76 20s41.334 32 56.001 56v14v20v14v33v44v32c-6.66699 0.666992 -14 1 -22 1h-24c-66.667 0 -116 -10.667 -148 -32s-48 -54 -48 -98c0 -31.333 8.66699 -56.666 26 -75.999
c17.333 -18.667 45.666 -28.334 84.999 -29.001zM264.998 574.001c-28 0.666992 -50.667 10.334 -68 29.001s-26.333 41.334 -27 68.001c0.666992 26.667 9.66699 49.334 27 68.001s39.333 28.334 66 29.001c27.333 -0.666992 50 -10.334 68 -29.001
c17.333 -18.667 26.333 -41.334 27 -68.001c-0.666992 -26.667 -9.66699 -49.334 -27 -68.001s-39.333 -28.334 -66 -29.001zM264.998 609.001l0.00195312 -1v0v0c17.333 0 31.666 6 42.999 18c12 12 18 26.667 18 44s-6 32 -18 44s-27 18 -45 18
c-17.333 0 -31.333 -6 -42 -18s-16 -26.667 -16 -44s5.66699 -32 17 -44s25.666 -18 42.999 -18v1z" />
    <glyph glyph-name="ae" unicode="&#xe6;" horiz-adv-x="793" 
d="M56 130c0.666992 58 24.0039 101.329 70.0039 129.996s110.333 43 193 43h44l1 38c0.666992 28 -0.666016 50 -3.99902 66c-3.33301 16.667 -9 29.334 -17 38.001c-8 9.33301 -18 16.666 -30 21.999s-26.667 8 -44 8c-29.333 0 -58 -5.66699 -86 -17
c-28.667 -11.333 -55 -26.333 -79 -45l-28 40c30.667 21.333 62.667 38 96 50s67.333 18 102 18c22.667 0 42.667 -3.33301 60 -10s31.666 -16 42.999 -28c6.66699 -8 12 -17 16 -27c4.66699 -10.667 8.33398 -22 11.001 -34l1 -5c5.33301 10.667 11.333 20.667 18 30
c6.66699 10 14 19 22 27c14.667 13.333 32 24 52 32s42 12 66 12c27.333 0 51.666 -4.66699 72.999 -14s39.666 -21.666 54.999 -36.999c13.333 -13.333 24.333 -28.666 33 -45.999c8 -17.333 14 -38.666 18 -63.999s6 -56.666 6 -93.999v-12h-326
c-1.33301 -25.333 0 -52 4 -80s13 -52.667 27 -74c14 -20.667 31.333 -36.334 52 -47.001s47.334 -16 80.001 -16c25.333 0 48.666 3.66699 69.999 11c21.333 8 40.666 20 57.999 36l22 -36c-21.333 -18.667 -45.333 -32.667 -72 -42c-27.333 -10 -57.333 -15 -90 -15
c-42.667 0.666992 -78.667 10.334 -108 29.001s-51.333 42 -66 70c-14.667 -22.667 -32.334 -41.334 -53.001 -56.001s-42.334 -25.667 -65.001 -33c-22 -6.66699 -43 -10 -63 -10c-42.667 0.666992 -76 8.33398 -100 23.001s-40.667 32.667 -50 54s-14 43.333 -14 66z
M222.004 30.9961c28 0 56 7.99707 84 23.9971c28 15.333 51.333 39.666 70 72.999c-6 14.667 -10.333 33.334 -13 56.001s-4 46.334 -4 71.001v12h-19h-28c-66.667 0 -116 -10.667 -148 -32c-32.667 -21.333 -49 -54.666 -49 -99.999c0 -31.333 8.66699 -56.666 26 -75.999
s45.333 -29 84 -29zM416.004 298.993v-1v0h268c0 30.667 -2.33301 56 -7 76c-4 20.667 -10 37.667 -18 51c-10 16 -23.667 29 -41 39c-17.333 9.33301 -38 14 -62 14c-38.667 0 -70.667 -15.333 -96 -46c-25.333 -30 -39.333 -75.333 -42 -136z" />
    <glyph glyph-name="ccedilla" unicode="&#xe7;" horiz-adv-x="447" 
d="M239 -199v-0.998047v0v0c-16 0 -31.333 2.66699 -46 8c-14 5.33301 -25.667 11 -35 17l16 34c10.667 -6.66699 21.334 -11.334 32.001 -14.001s21.667 -4 33 -4c16 0 28.667 4 38 12s14 18.333 14 31c0 12 -4.66699 21.333 -14 28c-10 6.66699 -22 10 -36 10
c-6.66699 0 -12 -0.333008 -16 -1c-4.66699 0 -8.33398 -0.666992 -11.001 -2l-6 7l20 68c-26.667 4 -50 12.667 -70 26c-20 12.667 -37 29.667 -51 51c-15.333 22.667 -27 48.667 -35 78s-12 63.333 -12 102c0 54.667 6.66699 98.667 20 132s30.666 60.666 51.999 81.999
c20 19.333 41 33.666 63 42.999s46 14 72 14c30.667 0 56.667 -5 78 -15s40 -23 56 -39l-30 -39c-17.333 15.333 -34 26.333 -50 33s-34.667 10 -56 10s-41.333 -4.66699 -60 -14s-34 -23 -46 -41c-13.333 -18.667 -23.333 -42.667 -30 -72
c-7.33301 -29.333 -11 -65 -11 -107c0 -40 5.33301 -75.333 16 -106s26.667 -54.667 48 -72c22 -17.333 49.667 -26 83 -26c22 0 43 4.66699 63 14s38 23.333 54 42l31 -36c-21.333 -22.667 -43.666 -39.334 -66.999 -50.001s-48.333 -16 -75 -16h-2l-12 -39
c28 -1.33301 48 -8.66602 60 -21.999s18 -29.666 18 -48.999c0 -13.333 -3.33301 -26 -10 -38s-17 -22 -31 -30c-14.667 -8 -32.667 -12 -54 -12z" />
    <glyph glyph-name="egrave" unicode="&#xe8;" horiz-adv-x="498" 
d="M277 -11c-46.667 0 -85.9971 11.3291 -117.997 33.9961s-56.333 54 -73 94s-25 87 -25 141c0 43.333 5 80.333 15 111c10 31.333 25 59 45 83c17.333 20.667 38 37 62 49s51.333 18 82 18c27.333 0 51.666 -4.66699 72.999 -14s39.666 -21.666 54.999 -36.999
c13.333 -13.333 24.333 -28.666 33 -45.999s15 -38.666 19 -63.999s6 -56.666 6 -93.999v-12h-328v-26c0.666992 -27.333 4 -51.666 10 -72.999s13.667 -39.333 23 -54c14 -20.667 32.333 -36.334 55 -47.001s48.334 -16 77.001 -16c25.333 0 48.666 3.66699 69.999 11
c21.333 8 40.666 20 57.999 36l22 -36c-21.333 -18.667 -45.666 -32.667 -72.999 -42c-26.667 -10 -56.334 -15 -89.001 -15zM121.003 297.996h268c0 30.667 -2.33301 56 -7 76c-4.66699 20.667 -11 37.667 -19 51c-10 16 -23.667 29 -41 39c-17.333 9.33301 -38 14 -62 14
c-38.667 0 -70.667 -15.333 -96 -46c-24.667 -30 -38.667 -75.333 -42 -136zM346.003 581.996v-1v0l-202 102l30 54l190 -123l-20 -34z" />
    <glyph glyph-name="eacute" unicode="&#xe9;" horiz-adv-x="498" 
d="M277 -11c-46.667 0 -85.9971 11.3291 -117.997 33.9961s-56.333 54 -73 94s-25 87 -25 141c0 43.333 5 80.333 15 111c10 31.333 25 59 45 83c17.333 20.667 38 37 62 49s51.333 18 82 18c27.333 0 51.666 -4.66699 72.999 -14s39.666 -21.666 54.999 -36.999
c13.333 -13.333 24.333 -28.666 33 -45.999s15 -38.666 19 -63.999s6 -56.666 6 -93.999v-12h-328v-26c0.666992 -27.333 4 -51.666 10 -72.999s13.667 -39.333 23 -54c14 -20.667 32.333 -36.334 55 -47.001s48.334 -16 77.001 -16c25.333 0 48.666 3.66699 69.999 11
c21.333 8 40.666 20 57.999 36l22 -36c-21.333 -18.667 -45.666 -32.667 -72.999 -42c-26.667 -10 -56.334 -15 -89.001 -15zM121.003 297.996h268c0 30.667 -2.33301 56 -7 76c-4.66699 20.667 -11 37.667 -19 51c-10 16 -23.667 29 -41 39c-17.333 9.33301 -38 14 -62 14
c-38.667 0 -70.667 -15.333 -96 -46c-24.667 -30 -38.667 -75.333 -42 -136zM186.003 578.996l-18 34l190 123l30 -54l-202 -102v-1z" />
    <glyph glyph-name="ecircumflex" unicode="&#xea;" horiz-adv-x="498" 
d="M277 -11c-46.667 0 -85.9971 11.3291 -117.997 33.9961s-56.333 54 -73 94s-25 87 -25 141c0 43.333 5 80.333 15 111c10 31.333 25 59 45 83c17.333 20.667 38 37 62 49s51.333 18 82 18c27.333 0 51.666 -4.66699 72.999 -14s39.666 -21.666 54.999 -36.999
c13.333 -13.333 24.333 -28.666 33 -45.999s15 -38.666 19 -63.999s6 -56.666 6 -93.999v-12h-328v-26c0.666992 -27.333 4 -51.666 10 -72.999s13.667 -39.333 23 -54c14 -20.667 32.333 -36.334 55 -47.001s48.334 -16 77.001 -16c25.333 0 48.666 3.66699 69.999 11
c21.333 8 40.666 20 57.999 36l22 -36c-21.333 -18.667 -45.666 -32.667 -72.999 -42c-26.667 -10 -56.334 -15 -89.001 -15zM121.003 297.996h268c0 30.667 -2.33301 56 -7 76c-4.66699 20.667 -11 37.667 -19 51c-10 16 -23.667 29 -41 39c-17.333 9.33301 -38 14 -62 14
c-38.667 0 -70.667 -15.333 -96 -46c-24.667 -30 -38.667 -75.333 -42 -136zM126.003 578.996v-1v0l-22 30l160 126l161 -126l-26 -30l-138 89l-135 -89v1z" />
    <glyph glyph-name="edieresis" unicode="&#xeb;" horiz-adv-x="498" 
d="M277 -11c-46.667 0 -85.9971 11.3291 -117.997 33.9961s-56.333 54 -73 94s-25 87 -25 141c0 43.333 5 80.333 15 111c10 31.333 25 59 45 83c17.333 20.667 38 37 62 49s51.333 18 82 18c27.333 0 51.666 -4.66699 72.999 -14s39.666 -21.666 54.999 -36.999
c13.333 -13.333 24.333 -28.666 33 -45.999s15 -38.666 19 -63.999s6 -56.666 6 -93.999v-12h-328v-26c0.666992 -27.333 4 -51.666 10 -72.999s13.667 -39.333 23 -54c14 -20.667 32.333 -36.334 55 -47.001s48.334 -16 77.001 -16c25.333 0 48.666 3.66699 69.999 11
c21.333 8 40.666 20 57.999 36l22 -36c-21.333 -18.667 -45.666 -32.667 -72.999 -42c-26.667 -10 -56.334 -15 -89.001 -15zM121.003 297.996h268c0 30.667 -2.33301 56 -7 76c-4.66699 20.667 -11 37.667 -19 51c-10 16 -23.667 29 -41 39c-17.333 9.33301 -38 14 -62 14
c-38.667 0 -70.667 -15.333 -96 -46c-24.667 -30 -38.667 -75.333 -42 -136zM172.003 592.996c-10.667 0 -19.667 3.66699 -27 11s-11 16.333 -11 27s3.66699 19.667 11 27c6.66699 7.33301 15.334 11 26.001 11s19.667 -3.66699 27 -11s11 -16.333 11 -27
s-3.33301 -19.667 -10 -27s-15.334 -11 -26.001 -11h-1zM350.003 593.996v-1v0v0c-10.667 0 -20 3.66699 -28 11s-12 16.333 -12 27s3.66699 19.667 11 27s16.333 11 27 11s19.667 -3.66699 27 -11s11 -16.333 11 -27s-3.33301 -19.667 -10 -27
c-7.33301 -7.33301 -16.333 -11 -27 -11z" />
    <glyph glyph-name="igrave" unicode="&#xec;" horiz-adv-x="238" 
d="M90 510l58 10v-520h-58v510zM182 582v-1v0l-202 102l31 54l190 -123l-19 -34v2z" />
    <glyph glyph-name="iacute" unicode="&#xed;" horiz-adv-x="238" 
d="M90 510l58 10v-520h-58v510zM58 579l-18 34l190 123l30 -54l-202 -102v-1z" />
    <glyph glyph-name="icircumflex" unicode="&#xee;" horiz-adv-x="238" 
d="M90 510l58 10v-520h-58v510zM-18 579v-1v0l-22 30l161 126l160 -126l-26 -30l-138 89l-135 -89v1z" />
    <glyph glyph-name="idieresis" unicode="&#xef;" horiz-adv-x="238" 
d="M38 593c-10.667 0 -19.666 3.66699 -26.999 11s-11 16.333 -11 27s3.33301 19.667 10 27c7.33301 7.33301 16.333 11 27 11s19.667 -3.66699 27 -11s11 -16.333 11 -27s-3.33301 -19.667 -10 -27s-15.334 -11 -26.001 -11h-1zM90.001 1v510l58 9v-520h-58v1zM203.001 594
v-1v0v0c-10.667 0 -20 3.66699 -28 11s-12 16.333 -12 27s3.66699 19.667 11 27s16.333 11 27 11s19.667 -3.66699 27 -11s11 -16.333 11 -27s-3.33301 -19.667 -10 -27c-7.33301 -7.33301 -16.333 -11 -27 -11z" />
    <glyph glyph-name="eth" unicode="&#xf0;" horiz-adv-x="543" 
d="M274 34c48 0.666992 84.665 20.332 109.998 58.999s38 93.334 38 164.001c0 12.667 -0.666992 27.667 -2 45s-3 33.333 -5 48s-3.66699 25.334 -5 32.001c-18.667 18.667 -40 33.334 -64 44.001c-24.667 10.667 -51.334 16 -80.001 16c-30 0 -55.667 -9.33301 -77 -28
s-37.666 -43.334 -48.999 -74.001c-12 -30.667 -18 -64.667 -18 -102s6.33301 -71.333 19 -102s30.334 -55.334 53.001 -74.001s49.334 -28 80.001 -28zM377.998 690.998l-0.00195312 -1.00391v0l-48 -50c50.667 -44 89.334 -97 116.001 -159
c26.667 -61.333 40 -134 40 -218c0 -58.667 -9.33301 -108.667 -28 -150s-44 -72.666 -76 -93.999s-68 -32 -108 -32c-40.667 0.666992 -77 12.334 -109 35.001s-57 53.334 -75 92.001c-18.667 38 -28 79.667 -28 125c0 44.667 8.33301 85.667 25 123
c16 36.667 39.333 66.334 70 89.001c30 22 65.667 33.333 107 34c29.333 0 55.333 -4 78 -12s42.667 -19.667 60 -35c-10.667 32 -24.667 61.333 -42 88s-38.666 52 -63.999 76l-60 -64l-36 27l58 60c-20 12 -41 22.667 -63 32c-22.667 9.33301 -46 17 -70 23l28 35
c48 -11.333 93 -29 135 -53l51 54l37 -26z" />
    <glyph glyph-name="ntilde" unicode="&#xf1;" horiz-adv-x="528" 
d="M92 -1l0.000976562 403.003c0 28 -2 50 -6 66s-8 28 -12 36l54 14c1.33301 -2.66699 4 -11.334 8 -26.001s6.33301 -33.334 7 -56.001c25.333 26.667 52 47 80 61c27.333 14 55.666 21 84.999 21c26.667 0 50 -5.33301 70 -16s35 -25.334 45 -44.001
c6 -9.33301 11 -20 15 -32c3.33301 -12 5 -24.667 5 -38v-388h-56v360c0 23.333 -2 41.333 -6 54s-10 23.667 -18 33c-6.66699 7.33301 -16 13 -28 17c-12 4.66699 -25.333 7 -40 7c-24 0 -49.667 -7 -77 -21c-28 -14.667 -52.667 -34 -74 -58v-392h-54zM121.001 608.003
v-0.999023v0l-20 32c12 16 26 28.667 42 38s36.333 14 61 14c18.667 -0.666992 34 -4 46 -10l36 -18c12 -6.66699 27 -10 45 -10c14.667 0 27 3.33301 37 10c10.667 6.66699 20.667 15 30 25l20 -32c-12 -16 -26 -28.667 -42 -38s-36.333 -14 -61 -14
c-18.667 0 -34 3.33301 -46 10l-36 18c-12 6 -27 9.33301 -45 10c-14.667 0 -26.667 -3.33301 -36 -10c-10 -6.66699 -19.667 -15.334 -29 -26.001z" />
    <glyph glyph-name="ograve" unicode="&#xf2;" horiz-adv-x="534" 
d="M264 -11c-39.333 0.666992 -72.666 8.99805 -99.999 24.998s-49 36.333 -65 61c-15.333 22.667 -27 49.334 -35 80.001s-12 65.334 -12 104.001c0 40 4.66699 76 14 108s22.666 59.333 39.999 82c16 21.333 37.333 39 64 53c26.667 13.333 58 20.333 94 21
c42 -0.666992 76.667 -9.66699 104 -27s48.333 -37.666 63 -60.999c14.667 -22.667 26 -49.334 34 -80.001s12 -66 12 -106c0 -34.667 -3.33301 -65.667 -10 -93c-6.66699 -28 -16 -52.667 -28 -74c-16 -28 -38.667 -50.667 -68 -68c-28.667 -17.333 -63 -26 -103 -26z
M268 31.998c30.667 0 55.998 7.3291 75.998 21.9961s34.667 33.334 44 56.001c9.33301 20 16 40 20 60s6 44.667 6 74c0 36 -2.66699 67.333 -8 94s-12.666 49.334 -21.999 68.001c-10.667 20.667 -26.667 37.334 -48 50.001s-46 19 -74 19c-28 -0.666992 -52 -7 -72 -19
s-34.667 -26.667 -44 -44s-16.666 -38.333 -21.999 -63s-8 -53 -8 -85c0 -36.667 3.33301 -69.667 10 -99c6 -29.333 14.333 -52.666 25 -69.999c10 -16 25 -30 45 -42s44 -18.333 72 -19v-2zM346.998 581.994v-1v0l-202 102l30 54l190 -123l-20 -34z" />
    <glyph glyph-name="oacute" unicode="&#xf3;" horiz-adv-x="534" 
d="M264 -11c-39.333 0.666992 -72.666 8.99805 -99.999 24.998s-49 36.333 -65 61c-15.333 22.667 -27 49.334 -35 80.001s-12 65.334 -12 104.001c0 40 4.66699 76 14 108s22.666 59.333 39.999 82c16 21.333 37.333 39 64 53c26.667 13.333 58 20.333 94 21
c42 -0.666992 76.667 -9.66699 104 -27s48.333 -37.666 63 -60.999c14.667 -22.667 26 -49.334 34 -80.001s12 -66 12 -106c0 -34.667 -3.33301 -65.667 -10 -93c-6.66699 -28 -16 -52.667 -28 -74c-16 -28 -38.667 -50.667 -68 -68c-28.667 -17.333 -63 -26 -103 -26z
M268 31.998c30.667 0 55.998 7.3291 75.998 21.9961s34.667 33.334 44 56.001c9.33301 20 16 40 20 60s6 44.667 6 74c0 36 -2.66699 67.333 -8 94s-12.666 49.334 -21.999 68.001c-10.667 20.667 -26.667 37.334 -48 50.001s-46 19 -74 19c-28 -0.666992 -52 -7 -72 -19
s-34.667 -26.667 -44 -44s-16.666 -38.333 -21.999 -63s-8 -53 -8 -85c0 -36.667 3.33301 -69.667 10 -99c6 -29.333 14.333 -52.666 25 -69.999c10 -16 25 -30 45 -42s44 -18.333 72 -19v-2zM196.998 579.994v-1v0l-18 34l190 123l31 -54l-202 -102h-1z" />
    <glyph glyph-name="ocircumflex" unicode="&#xf4;" horiz-adv-x="534" 
d="M264 -11c-39.333 0.666992 -72.666 8.99805 -99.999 24.998s-49 36.333 -65 61c-15.333 22.667 -27 49.334 -35 80.001s-12 65.334 -12 104.001c0 40 4.66699 76 14 108s22.666 59.333 39.999 82c16 21.333 37.333 39 64 53c26.667 13.333 58 20.333 94 21
c42 -0.666992 76.667 -9.66699 104 -27s48.333 -37.666 63 -60.999c14.667 -22.667 26 -49.334 34 -80.001s12 -66 12 -106c0 -34.667 -3.33301 -65.667 -10 -93c-6.66699 -28 -16 -52.667 -28 -74c-16 -28 -38.667 -50.667 -68 -68c-28.667 -17.333 -63 -26 -103 -26z
M268 31.998c30.667 0 55.998 7.3291 75.998 21.9961s34.667 33.334 44 56.001c9.33301 20 16 40 20 60s6 44.667 6 74c0 36 -2.66699 67.333 -8 94s-12.666 49.334 -21.999 68.001c-10.667 20.667 -26.667 37.334 -48 50.001s-46 19 -74 19c-28 -0.666992 -52 -7 -72 -19
s-34.667 -26.667 -44 -44s-16.666 -38.333 -21.999 -63s-8 -53 -8 -85c0 -36.667 3.33301 -69.667 10 -99c6 -29.333 14.333 -52.666 25 -69.999c10 -16 25 -30 45 -42s44 -18.333 72 -19v-2zM128.998 578.994v-1v0l-22 30l161 126l160 -126l-26 -30l-138 89l-135 -89v1z
" />
    <glyph glyph-name="otilde" unicode="&#xf5;" horiz-adv-x="534" 
d="M264 -11c-39.333 0.666992 -72.666 8.99805 -99.999 24.998s-49 36.333 -65 61c-15.333 22.667 -27 49.334 -35 80.001s-12 65.334 -12 104.001c0 40 4.66699 76 14 108s22.666 59.333 39.999 82c16 21.333 37.333 39 64 53c26.667 13.333 58 20.333 94 21
c42 -0.666992 76.667 -9.66699 104 -27s48.333 -37.666 63 -60.999c14.667 -22.667 26 -49.334 34 -80.001s12 -66 12 -106c0 -34.667 -3.33301 -65.667 -10 -93c-6.66699 -28 -16 -52.667 -28 -74c-16 -28 -38.667 -50.667 -68 -68c-28.667 -17.333 -63 -26 -103 -26z
M268 31.998c30.667 0 55.998 7.3291 75.998 21.9961s34.667 33.334 44 56.001c9.33301 20 16 40 20 60s6 44.667 6 74c0 36 -2.66699 67.333 -8 94s-12.666 49.334 -21.999 68.001c-10.667 20.667 -26.667 37.334 -48 50.001s-46 19 -74 19c-28 -0.666992 -52 -7 -72 -19
s-34.667 -26.667 -44 -44s-16.666 -38.333 -21.999 -63s-8 -53 -8 -85c0 -36.667 3.33301 -69.667 10 -99c6 -29.333 14.333 -52.666 25 -69.999c10 -16 25 -30 45 -42s44 -18.333 72 -19v-2zM129.998 607.994l-0.000976562 -0.999023v0l-20 32c12 16 26 28.667 42 38
s36.333 14 61 14c18.667 -0.666992 34 -4 46 -10l36 -18c12 -6.66699 27 -10 45 -10c14.667 0 27.334 3.33301 38.001 10c10 6.66699 19.667 15 29 25l20 -32c-12 -16 -26 -28.667 -42 -38s-36.333 -14 -61 -14c-18.667 0 -34 3.33301 -46 10l-36 18
c-12 6 -27 9.33301 -45 10c-14.667 0 -27 -3.33301 -37 -10s-19.667 -15.334 -29 -26.001z" />
    <glyph glyph-name="odieresis" unicode="&#xf6;" horiz-adv-x="534" 
d="M264 -11c-39.333 0.666992 -72.666 8.99805 -99.999 24.998s-49 36.333 -65 61c-15.333 22.667 -27 49.334 -35 80.001s-12 65.334 -12 104.001c0 40 4.66699 76 14 108s22.666 59.333 39.999 82c16 21.333 37.333 39 64 53c26.667 13.333 58 20.333 94 21
c42 -0.666992 76.667 -9.66699 104 -27s48.333 -37.666 63 -60.999c14.667 -22.667 26 -49.334 34 -80.001s12 -66 12 -106c0 -34.667 -3.33301 -65.667 -10 -93c-6.66699 -28 -16 -52.667 -28 -74c-16 -28 -38.667 -50.667 -68 -68c-28.667 -17.333 -63 -26 -103 -26z
M268 31.998c30.667 0 55.998 7.3291 75.998 21.9961s34.667 33.334 44 56.001c9.33301 20 16 40 20 60s6 44.667 6 74c0 36 -2.66699 67.333 -8 94s-12.666 49.334 -21.999 68.001c-10.667 20.667 -26.667 37.334 -48 50.001s-46 19 -74 19c-28 -0.666992 -52 -7 -72 -19
s-34.667 -26.667 -44 -44s-16.666 -38.333 -21.999 -63s-8 -53 -8 -85c0 -36.667 3.33301 -69.667 10 -99c6 -29.333 14.333 -52.666 25 -69.999c10 -16 25 -30 45 -42s44 -18.333 72 -19v-2zM174.998 592.994c-10.667 0 -19.666 3.66699 -26.999 11s-11 16.333 -11 27
s3.66699 19.667 11 27s16.333 11 27 11s19.667 -3.66699 27 -11s11 -16.333 11 -27s-3.33301 -19.667 -10 -27s-15.334 -11 -26.001 -11h-2zM354.999 593.994l0.000976562 -1v0v0c-11.333 0 -21 3.66699 -29 11c-7.33301 7.33301 -11 16.333 -11 27s3.33301 19.667 10 27
c7.33301 7.33301 16.666 11 27.999 11c10.667 0 19.667 -3.66699 27 -11s11 -16.333 11 -27s-3.33301 -19.667 -10 -27c-7.33301 -7.33301 -16.333 -11 -27 -11z" />
    <glyph glyph-name="divide" unicode="&#xf7;" horiz-adv-x="565" 
d="M284 405c-13.333 0 -24.666 4.66699 -33.999 14c-9.33301 8.66699 -14 20 -14 34c0 14.667 4.66699 26.667 14 36s21.333 14 36 14c13.333 0 24.666 -4.66699 33.999 -14s14 -21 14 -35c0 -14.667 -4.66699 -26.667 -14 -36s-21.333 -14 -36 -14v1zM47 291h472v-46h-472
v46zM284 29v-1v0v0c-13.333 0 -24.666 4.66699 -33.999 14s-14 21.333 -14 36c0 14 4.66699 25.667 14 35s21.333 14 36 14c13.333 0 24.666 -4.66699 33.999 -14s14 -21 14 -35c0 -14.667 -4.66699 -26.667 -14 -36s-21.333 -14 -36 -14v1z" />
    <glyph glyph-name="oslash" unicode="&#xf8;" horiz-adv-x="534" 
d="M96 -61l-35 22.001l54 91c-19.333 21.333 -34.333 49.333 -45 84s-16 74 -16 118c0 38.667 4.66699 74 14 106c8.66699 32 21 59.333 37 82s37.333 41 64 55c26.667 14.667 58.334 22 95.001 22c24 0 45.333 -3 64 -9s35 -14.333 49 -25l54 88l35 -22l-56 -94
c22 -24.667 38.333 -54.334 49 -89.001c10.667 -34 16 -75 16 -123c0 -45.333 -5.33301 -84 -16 -116c-10.667 -32.667 -27.334 -60.334 -50.001 -83.001c-16 -18 -35.667 -32.333 -59 -43s-51 -16 -83 -16c-24 0 -46 3.33301 -66 10s-37.333 15.334 -52 26.001l-51 -85z
M146 102.001l203.999 340c-11.333 10 -24.333 17.667 -39 23s-31 8 -49 8c-28 -0.666992 -52 -7 -72 -19s-34.667 -26.667 -44 -44c-9.33301 -18 -16.666 -39 -21.999 -63s-8 -52 -8 -84c0 -34 3.33301 -65 10 -93s14.667 -50.667 24 -68h-4zM265.999 33.001v-1v0v0
c30.667 0 56 7 76 21c20 14.667 35.333 33.667 46 57c8.66699 18.667 15 38 19 58s6 44.333 6 73c0 37.333 -3.33301 70 -10 98c-6 28 -14.333 50.333 -25 67l-204 -342c10.667 -9.33301 24 -17 40 -23s34 -9 54 -9z" />
    <glyph glyph-name="ugrave" unicode="&#xf9;" horiz-adv-x="529" 
d="M434 -16c-12 10.667 -21.3311 22.332 -27.998 34.999s-11.334 29 -14.001 49c-20 -26.667 -44 -46.667 -72 -60c-28 -14 -58.667 -21 -92 -21c-29.333 0 -54 5.33301 -74 16s-35 25.334 -45 44.001c-6.66699 9.33301 -11.667 21 -15 35c-4 13.333 -6 28.333 -6 45v380
l54 12v-376c0 -21.333 2.66699 -39 8 -53c5.33301 -13.333 13.333 -24.333 24 -33c8 -6.66699 18 -12 30 -16s25 -6 39 -6c26.667 0 52.667 8 78 24s46.666 38.667 63.999 68v381l56 10v-390c0 -30 2 -53 6 -69c4 -15.333 10.667 -28 20 -38l-37 -37h4zM343.002 581.998v-1
v0l-202 102l30 54l190 -123l-20 -34z" />
    <glyph glyph-name="uacute" unicode="&#xfa;" horiz-adv-x="529" 
d="M434 -16c-12 10.667 -21.3311 22.332 -27.998 34.999s-11.334 29 -14.001 49c-20 -26.667 -44 -46.667 -72 -60c-28 -14 -58.667 -21 -92 -21c-29.333 0 -54 5.33301 -74 16s-35 25.334 -45 44.001c-6.66699 9.33301 -11.667 21 -15 35c-4 13.333 -6 28.333 -6 45v380
l54 12v-376c0 -21.333 2.66699 -39 8 -53c5.33301 -13.333 13.333 -24.333 24 -33c8 -6.66699 18 -12 30 -16s25 -6 39 -6c26.667 0 52.667 8 78 24s46.666 38.667 63.999 68v381l56 10v-390c0 -30 2 -53 6 -69c4 -15.333 10.667 -28 20 -38l-37 -37h4zM215.002 579.998v-1
v0l-18 34l190 123l31 -54l-202 -102h-1z" />
    <glyph glyph-name="ucircumflex" unicode="&#xfb;" horiz-adv-x="529" 
d="M434 -16c-12 10.667 -21.3311 22.332 -27.998 34.999s-11.334 29 -14.001 49c-20 -26.667 -44 -46.667 -72 -60c-28 -14 -58.667 -21 -92 -21c-29.333 0 -54 5.33301 -74 16s-35 25.334 -45 44.001c-6.66699 9.33301 -11.667 21 -15 35c-4 13.333 -6 28.333 -6 45v380
l54 12v-376c0 -21.333 2.66699 -39 8 -53c5.33301 -13.333 13.333 -24.333 24 -33c8 -6.66699 18 -12 30 -16s25 -6 39 -6c26.667 0 52.667 8 78 24s46.666 38.667 63.999 68v381l56 10v-390c0 -30 2 -53 6 -69c4 -15.333 10.667 -28 20 -38l-37 -37h4zM125.002 578.998v-1
v0l-22 30l160 126l161 -126l-26 -30l-138 89l-135 -89v1z" />
    <glyph glyph-name="udieresis" unicode="&#xfc;" horiz-adv-x="529" 
d="M434 -16c-12 10.667 -21.3311 22.332 -27.998 34.999s-11.334 29 -14.001 49c-20 -26.667 -44 -46.667 -72 -60c-28 -14 -58.667 -21 -92 -21c-29.333 0 -54 5.33301 -74 16s-35 25.334 -45 44.001c-6.66699 9.33301 -11.667 21 -15 35c-4 13.333 -6 28.333 -6 45v380
l54 12v-376c0 -21.333 2.66699 -39 8 -53c5.33301 -13.333 13.333 -24.333 24 -33c8 -6.66699 18 -12 30 -16s25 -6 39 -6c26.667 0 52.667 8 78 24s46.666 38.667 63.999 68v381l56 10v-390c0 -30 2 -53 6 -69c4 -15.333 10.667 -28 20 -38l-37 -37h4zM173.002 592.998
c-10.667 0 -19.666 3.66699 -26.999 11s-11 16.333 -11 27s3.66699 19.667 11 27s16.333 11 27 11s19.667 -3.66699 27 -11s11 -16.333 11 -27s-3.33301 -19.667 -10 -27s-15.334 -11 -26.001 -11h-2zM351.003 593.998v-1v0v0c-10.667 0 -20 3.66699 -28 11
c-7.33301 7.33301 -11 16.333 -11 27s3.66699 19.667 11 27s16.333 11 27 11c11.333 0 20.333 -3.66699 27 -11c7.33301 -7.33301 11 -16.333 11 -27s-3.33301 -19.667 -10 -27c-7.33301 -7.33301 -16.333 -11 -27 -11v1z" />
    <glyph glyph-name="yacute" unicode="&#xfd;" horiz-adv-x="439" 
d="M97 -204l-16.002 37.999c20 6 37 15 51 27c13.333 12 25.333 28.667 36 50s21.334 49.333 32.001 84l4 10l-25 -4c-1.33301 8 -4.66602 21.333 -9.99902 40l-17 58c-6 20.667 -11.333 37.667 -16 51l-124 356l55 18l121 -364c5.33301 -16 10 -32.333 14 -49l10 -43
c2.66699 -12 4 -18.667 4 -20h2c1.33301 4 3.33301 11 6 21s6 21 10 33s8 23.333 12 34l118 374h62l-175 -528c-10.667 -34 -22.667 -63.667 -36 -89c-13.333 -26 -29.333 -47.667 -48 -65s-41.667 -29.666 -69 -36.999zM189.998 578.999l-18 34l190 123l30 -54l-202 -102
v-1z" />
    <glyph glyph-name="thorn" unicode="&#xfe;" horiz-adv-x="543" 
d="M90 -211v842.003c0 24 -1.33301 44.667 -4 62s-6 32.666 -10 45.999l55 12c4 -13.333 7.33301 -29.333 10 -48s4 -40.667 4 -66v-124c0 -16 -0.333008 -29.333 -1 -40c-1.33301 -10.667 -2 -18.667 -2 -24c20 24 42.667 42 68 54c26 12 53.667 18 83 18
c26 0 50.667 -5.33301 74 -16s43.333 -26.334 60 -47.001c18.667 -22.667 32.667 -50.334 42 -83.001c9.33301 -32 14 -70.667 14 -116c0 -40 -4 -74 -12 -102s-18.667 -52.667 -32 -74c-18.667 -29.333 -41 -52 -67 -68s-55.667 -24 -89 -24c-26.667 0 -52 5.33301 -76 16
s-44.667 26 -62 46v-252l-56 -12h1zM273 39.0029v-1v0v0c26.667 0 50.667 6 72 18c21.333 12.667 38 30 50 52c8 16 15 36 21 60c5.33301 24 8 52 8 84c0 34.667 -2.66699 66 -8 94s-13.333 50.667 -24 68c-12 18 -27.333 32 -46 42c-18.667 9.33301 -38.667 14 -60 14
c-26.667 0 -52 -6 -76 -18s-46 -30.667 -66 -56v-292c18 -22.667 38.333 -39.667 61 -51s45.667 -17 69 -17z" />
    <glyph glyph-name="ydieresis" unicode="&#xff;" horiz-adv-x="439" 
d="M97 -204l-16.002 37.999c20 6 37 15 51 27c13.333 12 25.333 28.667 36 50s21.334 49.333 32.001 84l4 10l-25 -4c-1.33301 8 -4.66602 21.333 -9.99902 40l-17 58c-6 20.667 -11.333 37.667 -16 51l-124 356l55 18l121 -364c5.33301 -16 10 -32.333 14 -49l10 -43
c2.66699 -12 4 -18.667 4 -20h2c1.33301 4 3.33301 11 6 21s6 21 10 33s8 23.333 12 34l118 374h62l-175 -528c-10.667 -34 -22.667 -63.667 -36 -89c-13.333 -26 -29.333 -47.667 -48 -65s-41.667 -29.666 -69 -36.999zM130.998 592.999
c-10.667 0 -19.666 3.66699 -26.999 11s-11 16.333 -11 27s3.66699 19.667 11 27s16.333 11 27 11s19.667 -3.66699 27 -11s11 -16.333 11 -27s-3.33301 -19.667 -10 -27s-15.334 -11 -26.001 -11h-2zM308.999 593.999v-1v0v0c-10.667 0 -20 3.66699 -28 11
c-7.33301 7.33301 -11 16.333 -11 27s3.66699 19.667 11 27s16.333 11 27 11c11.333 0 20.333 -3.66699 27 -11c7.33301 -7.33301 11 -16.333 11 -27s-3.33301 -19.667 -10 -27c-7.33301 -7.33301 -16.333 -11 -27 -11v1z" />
    <glyph glyph-name="Amacron" unicode="&#x100;" horiz-adv-x="561" 
d="M244 702h76l232 -702h-66l-73 228h-272l-73 -228h-58zM400 276l-120 374l-122 -374h242zM144 808v-1v0v39h274v-39h-274v1z" />
    <glyph glyph-name="amacron" unicode="&#x101;" horiz-adv-x="505" 
d="M425 -11c-16.667 5.33301 -30.3359 14.334 -41.0029 27.001c-10.667 12 -18 27.333 -22 46c-21.333 -24 -44 -41.333 -68 -52c-24 -11.333 -50.667 -17 -80 -17c-41.333 0.666992 -74 7.66699 -98 21c-24 14 -40.667 31.667 -50 53s-14 43.666 -14 66.999
c0.666992 58 24 101.667 70 131s109.667 44 191 44h28c8.66699 -0.666992 14.334 -1 17.001 -1v47c0 24 -1.33301 43.333 -4 58s-8 26.334 -16 35.001c-8.66699 9.33301 -19 16.666 -31 21.999s-26.667 8 -44 8c-30.667 -0.666992 -60.667 -7 -90 -19s-54 -26.667 -74 -44
l-28 40c30.667 21.333 62.667 38 96 50s68 18 104 18c30.667 0 56.334 -5.33301 77.001 -16c21.333 -10.667 37 -26.334 47 -47.001c9.33301 -18.667 15 -38 17 -58c2.66699 -19.333 3.33398 -40 2.00098 -62l-4 -184c-1.33301 -40 0.666992 -69.667 6 -89
c6 -19.333 18.667 -33.666 38 -42.999l-28 -40zM223.998 31.001c28 0 53.333 6.66699 76 20s41.334 32 56.001 56v14v20v14v33v44v32c-6.66699 0.666992 -14 1 -22 1h-24c-66.667 0 -116 -10.667 -148 -32s-48 -54 -48 -98c0 -31.333 8.66699 -56.666 26 -75.999
c17.333 -18.667 45.666 -28.334 84.999 -29.001zM135.998 611.001v-1v0v39h274v-39h-274v1z" />
    <glyph glyph-name="Abreve" unicode="&#x102;" horiz-adv-x="561" 
d="M244 702h76l232 -702h-66l-73 228h-272l-73 -228h-58zM400 276l-120 374l-122 -374h242zM284 748l0.000976562 -1.00098v0v0c-24.667 1.33301 -48 8.66602 -70 21.999s-41 28 -57 44c-16 16.667 -27.333 29.667 -34 39l26 30c7.33301 -8 17.666 -17.333 30.999 -28
s29 -20 47 -28s37.667 -12 59 -12c18.667 0 37 4.33301 55 13c17.333 8.66699 33 18.334 47 29.001c13.333 10.667 23.666 19.667 30.999 27l22 -30c-6.66699 -9.33301 -18 -22.333 -34 -39c-16 -16 -35 -30.667 -57 -44c-21.333 -13.333 -44.666 -20.666 -69.999 -21.999h4
z" />
    <glyph glyph-name="abreve" unicode="&#x103;" horiz-adv-x="505" 
d="M425 -11c-16.667 5.33301 -30.3359 14.334 -41.0029 27.001c-10.667 12 -18 27.333 -22 46c-21.333 -24 -44 -41.333 -68 -52c-24 -11.333 -50.667 -17 -80 -17c-41.333 0.666992 -74 7.66699 -98 21c-24 14 -40.667 31.667 -50 53s-14 43.666 -14 66.999
c0.666992 58 24 101.667 70 131s109.667 44 191 44h28c8.66699 -0.666992 14.334 -1 17.001 -1v47c0 24 -1.33301 43.333 -4 58s-8 26.334 -16 35.001c-8.66699 9.33301 -19 16.666 -31 21.999s-26.667 8 -44 8c-30.667 -0.666992 -60.667 -7 -90 -19s-54 -26.667 -74 -44
l-28 40c30.667 21.333 62.667 38 96 50s68 18 104 18c30.667 0 56.334 -5.33301 77.001 -16c21.333 -10.667 37 -26.334 47 -47.001c9.33301 -18.667 15 -38 17 -58c2.66699 -19.333 3.33398 -40 2.00098 -62l-4 -184c-1.33301 -40 0.666992 -69.667 6 -89
c6 -19.333 18.667 -33.666 38 -42.999l-28 -40zM223.998 31.001c28 0 53.333 6.66699 76 20s41.334 32 56.001 56v14v20v14v33v44v32c-6.66699 0.666992 -14 1 -22 1h-24c-66.667 0 -116 -10.667 -148 -32s-48 -54 -48 -98c0 -31.333 8.66699 -56.666 26 -75.999
c17.333 -18.667 45.666 -28.334 84.999 -29.001zM258.998 575.001v-1.00098v0v0c-25.333 1.33301 -48.666 8.66602 -69.999 21.999c-22 13.333 -41 28.333 -57 45c-16 16 -27.333 28.667 -34 38l26 31c7.33301 -8 17.666 -17.333 30.999 -28s29 -20 47 -28
s37.667 -12 59 -12c18.667 0 37 4.66699 55 14c17.333 8.66699 33 18.334 47 29.001c13.333 10.667 23.333 19.667 30 27l22 -31c-6.66699 -9.33301 -18 -22 -34 -38c-16 -16.667 -35 -31.667 -57 -45s-45.333 -20.666 -70 -21.999z" />
    <glyph glyph-name="Aogonek" unicode="&#x104;" horiz-adv-x="561" 
d="M11 -2l233.998 701.999h76l232 -702c-9.33301 -4 -20 -11.667 -32 -23c-12 -10.667 -22.667 -23.667 -32 -39c-9.33301 -16 -14.333 -32.667 -15 -50c0 -13.333 4 -24.666 12 -33.999s20.667 -14 38 -14c10.667 0 20.667 1.33301 30 4s19.333 6.66699 30 12l16 -34
c-9.33301 -5.33301 -20.666 -10.333 -33.999 -15s-27.666 -7 -42.999 -7c-31.333 0.666992 -55 9.33398 -71 26.001c-16 16 -24 36 -24 60c0.666992 24.667 7 47 19 67c12 19.333 25 35.666 39 48.999l-73 228h-272l-73 -228h-58zM157.998 276.999v-1v0h242l-120 374
l-122 -374v1z" />
    <glyph glyph-name="aogonek" unicode="&#x105;" horiz-adv-x="505" 
d="M454 30c-23.333 -22 -41.668 -41.001 -55.001 -57.001s-22.666 -30.333 -27.999 -43s-8 -25 -8 -37c0 -13.333 4 -24.666 12 -33.999s20.667 -14 38 -14c10.667 0 20.667 1.33301 30 4s19.333 6.66699 30 12l15 -34c-8.66699 -5.33301 -19.667 -10.333 -33 -15
s-28 -7 -44 -7c-31.333 0.666992 -55 9.33398 -71 26.001c-16 16 -24 36 -24 60c0 19.333 5.66699 40 17 62c10.667 21.333 28.667 42 54 62c-6 6 -11 13 -15 21s-7.33301 16.667 -10 26c-21.333 -24 -44 -41.333 -68 -52c-24 -11.333 -50.667 -17 -80 -17
c-41.333 0.666992 -74 7.66699 -98 21c-24 14 -40.667 31.667 -50 53s-14 43.666 -14 66.999c0.666992 57.333 24 100.666 70 129.999s109.667 44 191 44h28c8.66699 -0.666992 14.334 -1 17.001 -1v47c0 24 -1.33301 43.333 -4 58s-8 26.334 -16 35.001
c-8.66699 9.33301 -19 16.666 -31 21.999s-26.667 8 -44 8c-30.667 -0.666992 -60.667 -7 -90 -19s-54 -26.667 -74 -44l-28 40c30.667 21.333 62.667 38 96 50s68 18 104 18c30.667 0 56.667 -5.66699 78 -17s36.666 -27.666 45.999 -48.999c8 -14 13.333 -31 16 -51
s3.66699 -42.333 3 -67l-4 -186c-1.33301 -27.333 -1 -49.333 1 -66s6.33301 -29.667 13 -39s16.667 -17 30 -23v6zM223.998 31.999v-1v0v0c28 0 53.333 6.66699 76 20s41.334 32 56.001 56v16v22v10v33v44v32c-6.66699 0.666992 -14 1 -22 1h-24
c-66.667 0 -116 -10.667 -148 -32s-48 -54 -48 -98c0 -31.333 8.66699 -56.666 26 -75.999c17.333 -18.667 45.666 -28.334 84.999 -29.001z" />
    <glyph glyph-name="Cacute" unicode="&#x106;" horiz-adv-x="545" 
d="M518 49c-26.667 -18.667 -55.334 -32.6689 -86.001 -42.002c-30.667 -10 -62.334 -15 -95.001 -15c-38.667 0 -74.667 7.66699 -108 23c-33.333 14.667 -64 39 -92 73c-26.667 32 -46 70.667 -58 116c-12.667 45.333 -19 94.333 -19 147c0 48 5.33301 92.667 16 134
s26 77.333 46 108c24.667 38.667 55.667 68.667 93 90c36.667 21.333 77.667 32 123 32c32.667 0 63 -4.66699 91 -14s54 -23.333 78 -42l-31 -38c-21.333 16 -43 27.667 -65 35c-22.667 6.66699 -47.334 10 -74.001 10c-40 0 -74.667 -10 -104 -30
c-30 -19.333 -54 -47.666 -72 -84.999c-12 -25.333 -21.333 -55.333 -28 -90s-10 -74 -10 -118c0 -40 3.33301 -75.333 10 -106c6.66699 -30 15.667 -56.333 27 -79c20.667 -41.333 47.334 -71.666 80.001 -90.999c32 -19.333 68 -29 108 -29c26.667 0 51.334 4 74.001 12
s45.334 20 68.001 36l32 -40zM289 749.998v-1v0l-19 34l190 123l30 -54l-202 -102h1z" />
    <glyph glyph-name="cacute" unicode="&#x107;" horiz-adv-x="447" 
d="M265 -5c-35.333 0 -66.332 6.6709 -92.999 20.0039s-48.667 32.666 -66 57.999c-15.333 22.667 -27 48.667 -35 78s-12 63.333 -12 102c0 54.667 6.66699 98.667 20 132s30.666 60.666 51.999 81.999c20 19.333 41 33.666 63 42.999s46 14 72 14
c30.667 0 56.667 -5 78 -15s40 -23 56 -39l-30 -39c-17.333 15.333 -34 26.333 -50 33s-34.667 10 -56 10s-41.333 -4.66699 -60 -14s-34 -23 -46 -41c-13.333 -18.667 -23.333 -42.667 -30 -72c-7.33301 -29.333 -11 -65 -11 -107c0 -40 5.33301 -75.333 16 -106
s26.667 -54.667 48 -72c22 -17.333 49.667 -26 83 -26c22 0 43 4.66699 63 14s38 23.333 54 42l31 -36c-21.333 -22.667 -44 -39.334 -68 -50.001s-50.667 -16 -80 -16zM197.001 580.004v-1v0l-18 34l190 123l31 -54l-202 -102h-1z" />
    <glyph glyph-name="Ccircumflex" unicode="&#x108;" horiz-adv-x="545" 
d="M518 49c-26.667 -18.667 -55.334 -32.6689 -86.001 -42.002c-30.667 -10 -62.334 -15 -95.001 -15c-38.667 0 -74.667 7.66699 -108 23c-33.333 14.667 -64 39 -92 73c-26.667 32 -46 70.667 -58 116c-12.667 45.333 -19 94.333 -19 147c0 48 5.33301 92.667 16 134
s26 77.333 46 108c24.667 38.667 55.667 68.667 93 90c36.667 21.333 77.667 32 123 32c32.667 0 63 -4.66699 91 -14s54 -23.333 78 -42l-31 -38c-21.333 16 -43 27.667 -65 35c-22.667 6.66699 -47.334 10 -74.001 10c-40 0 -74.667 -10 -104 -30
c-30 -19.333 -54 -47.666 -72 -84.999c-12 -25.333 -21.333 -55.333 -28 -90s-10 -74 -10 -118c0 -40 3.33301 -75.333 10 -106c6.66699 -30 15.667 -56.333 27 -79c20.667 -41.333 47.334 -71.666 80.001 -90.999c32 -19.333 68 -29 108 -29c26.667 0 51.334 4 74.001 12
s45.334 20 68.001 36l32 -40zM204 748.998v-1v0l-23 32l160 126l162 -126l-27 -32l-137 90l-135 -90v1z" />
    <glyph glyph-name="ccircumflex" unicode="&#x109;" horiz-adv-x="447" 
d="M265 -5c-35.333 0 -66.332 6.6709 -92.999 20.0039s-48.667 32.666 -66 57.999c-15.333 22.667 -27 48.667 -35 78s-12 63.333 -12 102c0 54.667 6.66699 98.667 20 132s30.666 60.666 51.999 81.999c20 19.333 41 33.666 63 42.999s46 14 72 14
c30.667 0 56.667 -5 78 -15s40 -23 56 -39l-30 -39c-17.333 15.333 -34 26.333 -50 33s-34.667 10 -56 10s-41.333 -4.66699 -60 -14s-34 -23 -46 -41c-13.333 -18.667 -23.333 -42.667 -30 -72c-7.33301 -29.333 -11 -65 -11 -107c0 -40 5.33301 -75.333 16 -106
s26.667 -54.667 48 -72c22 -17.333 49.667 -26 83 -26c22 0 43 4.66699 63 14s38 23.333 54 42l31 -36c-21.333 -22.667 -44 -39.334 -68 -50.001s-50.667 -16 -80 -16zM129.001 579.004v-1v0l-22 30l161 126l160 -126l-26 -30l-138 89l-135 -89v1z" />
    <glyph glyph-name="Cdotaccent" unicode="&#x10a;" horiz-adv-x="545" 
d="M518 49c-26.667 -18.667 -55.334 -32.6689 -86.001 -42.002c-30.667 -10 -62.334 -15 -95.001 -15c-38.667 0 -74.667 7.66699 -108 23c-33.333 14.667 -64 39 -92 73c-26.667 32 -46 70.667 -58 116c-12.667 45.333 -19 94.333 -19 147c0 48 5.33301 92.667 16 134
s26 77.333 46 108c24.667 38.667 55.667 68.667 93 90c36.667 21.333 77.667 32 123 32c32.667 0 63 -4.66699 91 -14s54 -23.333 78 -42l-31 -38c-21.333 16 -43 27.667 -65 35c-22.667 6.66699 -47.334 10 -74.001 10c-40 0 -74.667 -10 -104 -30
c-30 -19.333 -54 -47.666 -72 -84.999c-12 -25.333 -21.333 -55.333 -28 -90s-10 -74 -10 -118c0 -40 3.33301 -75.333 10 -106c6.66699 -30 15.667 -56.333 27 -79c20.667 -41.333 47.334 -71.666 80.001 -90.999c32 -19.333 68 -29 108 -29c26.667 0 51.334 4 74.001 12
s45.334 20 68.001 36l32 -40zM339 758.998v-1v0v0c-12.667 0 -23.334 4 -32.001 12c-8 8 -12 18.333 -12 31c0 13.333 4 24 12 32c8.66699 8 19.334 12 32.001 12s23 -4 31 -12c8.66699 -8 13 -18.333 13 -31c0 -13.333 -4.33301 -24 -13 -32c-8 -8 -18.333 -12 -31 -12v1z
" />
    <glyph glyph-name="cdotaccent" unicode="&#x10b;" horiz-adv-x="447" 
d="M265 -5c-35.333 0 -66.332 6.6709 -92.999 20.0039s-48.667 32.666 -66 57.999c-15.333 22.667 -27 48.667 -35 78s-12 63.333 -12 102c0 54.667 6.66699 98.667 20 132s30.666 60.666 51.999 81.999c20 19.333 41 33.666 63 42.999s46 14 72 14
c30.667 0 56.667 -5 78 -15s40 -23 56 -39l-30 -39c-17.333 15.333 -34 26.333 -50 33s-34.667 10 -56 10s-41.333 -4.66699 -60 -14s-34 -23 -46 -41c-13.333 -18.667 -23.333 -42.667 -30 -72c-7.33301 -29.333 -11 -65 -11 -107c0 -40 5.33301 -75.333 16 -106
s26.667 -54.667 48 -72c22 -17.333 49.667 -26 83 -26c22 0 43 4.66699 63 14s38 23.333 54 42l31 -36c-21.333 -22.667 -44 -39.334 -68 -50.001s-50.667 -16 -80 -16zM265.001 586.004v-1v0v0c-12 0 -22.333 4.33301 -31 13c-8.66699 8 -13 18.333 -13 31
s4.33301 23 13 31c8.66699 8.66699 19 13 31 13c12.667 0 23.334 -4 32.001 -12s13 -18.667 13 -32c0 -12.667 -4.33301 -23 -13 -31c-8.66699 -8.66699 -19.334 -13 -32.001 -13v1z" />
    <glyph glyph-name="Ccaron" unicode="&#x10c;" horiz-adv-x="545" 
d="M518 49c-26.667 -18.667 -55.334 -32.6689 -86.001 -42.002c-30.667 -10 -62.334 -15 -95.001 -15c-38.667 0 -74.667 7.66699 -108 23c-33.333 14.667 -64 39 -92 73c-26.667 32 -46 70.667 -58 116c-12.667 45.333 -19 94.333 -19 147c0 48 5.33301 92.667 16 134
s26 77.333 46 108c24.667 38.667 55.667 68.667 93 90c36.667 21.333 77.667 32 123 32c32.667 0 63 -4.66699 91 -14s54 -23.333 78 -42l-31 -38c-21.333 16 -43 27.667 -65 35c-22.667 6.66699 -47.334 10 -74.001 10c-40 0 -74.667 -10 -104 -30
c-30 -19.333 -54 -47.666 -72 -84.999c-12 -25.333 -21.333 -55.333 -28 -90s-10 -74 -10 -118c0 -40 3.33301 -75.333 10 -106c6.66699 -30 15.667 -56.333 27 -79c20.667 -41.333 47.334 -71.666 80.001 -90.999c32 -19.333 68 -29 108 -29c26.667 0 51.334 4 74.001 12
s45.334 20 68.001 36l32 -40zM328 748.998v-1v0l-160 125l26 32l138 -90l135 90l24 -32l-161 -125z" />
    <glyph glyph-name="ccaron" unicode="&#x10d;" horiz-adv-x="447" 
d="M265 -5c-35.333 0 -66.332 6.6709 -92.999 20.0039s-48.667 32.666 -66 57.999c-15.333 22.667 -27 48.667 -35 78s-12 63.333 -12 102c0 54.667 6.66699 98.667 20 132s30.666 60.666 51.999 81.999c20 19.333 41 33.666 63 42.999s46 14 72 14
c30.667 0 56.667 -5 78 -15s40 -23 56 -39l-30 -39c-17.333 15.333 -34 26.333 -50 33s-34.667 10 -56 10s-41.333 -4.66699 -60 -14s-34 -23 -46 -41c-13.333 -18.667 -23.333 -42.667 -30 -72c-7.33301 -29.333 -11 -65 -11 -107c0 -40 5.33301 -75.333 16 -106
s26.667 -54.667 48 -72c22 -17.333 49.667 -26 83 -26c22 0 43 4.66699 63 14s38 23.333 54 42l31 -36c-21.333 -22.667 -44 -39.334 -68 -50.001s-50.667 -16 -80 -16zM269.001 577.004v-1v0l-161 125l26 32l138 -90l134 90l24 -32l-160 -125z" />
    <glyph glyph-name="Dcaron" unicode="&#x10e;" horiz-adv-x="615" 
d="M87 0l-0.00195312 702h119c35.333 0 66 -1.33301 92 -4s49.667 -8 71 -16s42.666 -19.667 63.999 -35c40 -29.333 69.667 -69 89 -119c20 -50 30 -109 30 -177c0 -64 -8 -119 -24 -165c-16 -46.667 -38.333 -83.667 -67 -111c-21.333 -20 -42.666 -35.667 -63.999 -47
c-21.333 -10.667 -44.666 -18 -69.999 -22s-54.666 -6 -87.999 -6h-146h-6zM149.998 47l82.999 0.00195312c40 -0.666992 76 3.33301 108 12c32 9.33301 59.333 27.666 82 54.999c22 28 39 60.667 51 98s18 81.666 18 132.999c0 62 -6.66699 112.667 -20 152
s-32.666 72 -57.999 98c-22.667 24 -48.667 40 -78 48s-64 11.667 -104 11h-82v-606v-1zM279.997 749.002v-1v0l-160 125l26 32l137 -90l136 90l24 -32l-161 -125z" />
    <glyph glyph-name="dcaron" unicode="&#x10f;" horiz-adv-x="565" 
d="M261 -10c-34.667 0 -65.002 6.66602 -91.002 19.999c-26 12.667 -47.667 31 -65 55c-15.333 22 -27 48.667 -35 80c-8 32 -12 67 -12 105c0 50.667 7.33301 94.667 22 132s36.667 68 66 92c17.333 14.667 35.333 25.334 54 32.001s38.334 10 59.001 10
c30.667 0 58 -5.66699 82 -17s43.667 -27.333 59 -48v26v42v228l56 -10v-584c0 -40.667 1.33301 -73 4 -97s6.66699 -43.333 12 -58h-56c-2 4 -4.33301 12 -7 24s-4.66699 24.333 -6 37c-17.333 -23.333 -37.666 -40.333 -60.999 -51c-24 -10.667 -50.667 -16 -80 -16z
M263.998 39.999c34.667 0.666992 63.333 8.33203 86 22.999s39.334 32.667 50.001 54v296c-12 17.333 -28.667 31.333 -50 42s-48.333 16 -81 16c-21.333 0 -41.333 -4.66699 -60 -14s-34.334 -23.333 -47.001 -42c-14 -19.333 -24.333 -41.666 -31 -66.999
s-10 -57.333 -10 -96c0 -30.667 2 -58.667 6 -84c4 -26 10.667 -47 20 -63c12.667 -22 28.667 -38.333 48 -49s42.333 -16 69 -16zM495.997 567.997l-0.000976562 -1v0v0c17.333 9.33301 31 21.333 41 36c10.667 14.667 16.667 31.334 18 50.001h-6h-2
c-11.333 0 -21 4.33301 -29 13s-12 19.667 -12 33c0 14.667 4.66699 26.667 14 36c9.33301 10 21.333 15 36 15c17.333 0 31.333 -6.66699 42 -20s16 -31 16 -53c0 -14.667 -2.66699 -29.334 -8 -44.001s-12.666 -28.667 -21.999 -42c-8 -11.333 -18 -22.333 -30 -33
s-24.667 -20 -38 -28l-20 32v6z" />
    <glyph glyph-name="Dcroat" unicode="&#x110;" horiz-adv-x="615" 
d="M150 47h82.998c40 -0.666992 76 3.33301 108 12s59.333 27 82 55c20.667 25.333 37.334 57.333 50.001 96c12.667 38 19 83 19 135c0 62 -6.66699 112.667 -20 152s-32.666 72 -57.999 98c-22.667 24 -48.667 40 -78 48s-64 11.667 -104 11h-82v-274h182l-17 -43h-165
v-289v-1zM86.998 0l-0.00195312 -1v0v337h-85v43h85v322h119c35.333 0 66 -1.33301 92 -4s49.667 -8 71 -16s42.666 -19.667 63.999 -35c40 -29.333 69.667 -69 89 -119c20 -49.333 30 -108 30 -176c0 -64 -8 -119 -24 -165c-16 -46.667 -38.333 -83.667 -67 -111
c-21.333 -20 -42.666 -35.667 -63.999 -47c-21.333 -10.667 -44.666 -18 -69.999 -22s-54.666 -6 -87.999 -6h-146h-6z" />
    <glyph glyph-name="dcroat" unicode="&#x111;" horiz-adv-x="546" 
d="M273 598l-0.00195312 38.999h126v109l56 -10v-100h82v-39h-82v-446c0 -40.667 1.33301 -73 4 -97s6.66699 -43.333 12 -58h-56c-2 4 -4.33301 12 -7 24s-4.66699 24.333 -6 37c-17.333 -23.333 -37.666 -40.333 -60.999 -51c-24 -10.667 -50.667 -16 -80 -16
c-34.667 0 -65 6.66699 -91 20c-26 12.667 -47.667 31 -65 55c-15.333 22 -27 48.667 -35 80c-8 32 -12 67.333 -12 106c0 50.667 7.33301 94.667 22 132s36.667 68 66 92c17.333 14.667 35.333 25.334 54 32.001s38.334 10 59.001 10c30.667 0 58 -5.66699 82 -17
s43.667 -27.333 59 -48v26v42v80h-126zM263.998 40.999l-0.000976562 -1.00195v0v0c34.667 0.666992 63.334 8.33398 86.001 23.001s39.334 32.667 50.001 54v296c-12 17.333 -28.667 31.333 -50 42s-48.333 16 -81 16c-21.333 0 -41.333 -4.66699 -60 -14
s-34.334 -23.333 -47.001 -42c-14 -19.333 -24.333 -41.666 -31 -66.999s-10 -57.333 -10 -96c0 -30.667 2 -58.667 6 -84c4 -26 10.667 -47 20 -63c12.667 -22 28.667 -38.333 48 -49s42.333 -16 69 -16v1z" />
    <glyph glyph-name="Emacron" unicode="&#x112;" horiz-adv-x="503" 
d="M93 1v702h366l-8 -48h-299v-264h244v-50h-244v-291h318v-50h-377v1zM140 808v-1v0v39h273v-39h-273v1z" />
    <glyph glyph-name="emacron" unicode="&#x113;" horiz-adv-x="498" 
d="M277 -11c-46.667 0 -85.9971 11.3291 -117.997 33.9961s-56.333 54 -73 94s-25 87 -25 141c0 43.333 5 80.333 15 111c10 31.333 25 59 45 83c17.333 20.667 38 37 62 49s51.333 18 82 18c27.333 0 51.666 -4.66699 72.999 -14s39.666 -21.666 54.999 -36.999
c13.333 -13.333 24.333 -28.666 33 -45.999s15 -38.666 19 -63.999s6 -56.666 6 -93.999v-12h-328v-26c0.666992 -27.333 4 -51.666 10 -72.999s13.667 -39.333 23 -54c14 -20.667 32.333 -36.334 55 -47.001s48.334 -16 77.001 -16c25.333 0 48.666 3.66699 69.999 11
c21.333 8 40.666 20 57.999 36l22 -36c-21.333 -18.667 -45.666 -32.667 -72.999 -42c-26.667 -10 -56.334 -15 -89.001 -15zM121.003 297.996h268c0 30.667 -2.33301 56 -7 76c-4.66699 20.667 -11 37.667 -19 51c-10 16 -23.667 29 -41 39c-17.333 9.33301 -38 14 -62 14
c-38.667 0 -70.667 -15.333 -96 -46c-24.667 -30 -38.667 -75.333 -42 -136zM131.003 610.996v-1v0v39h274v-39h-274v1z" />
    <glyph glyph-name="Ebreve" unicode="&#x114;" horiz-adv-x="503" 
d="M93 1v702h366l-8 -48h-299v-264h244v-50h-244v-291h318v-50h-377v1zM281 748v-1.00098v0v0c-25.333 1.33301 -48.666 8.66602 -69.999 21.999c-22 13.333 -41 28 -57 44c-16 16.667 -27.333 29.667 -34 39l26 30c7.33301 -8 17.666 -17.333 30.999 -28s29 -20 47 -28
s37.667 -12 59 -12c18.667 0 37 4.33301 55 13c17.333 8.66699 33 18.334 47 29.001c13.333 10.667 23.333 19.667 30 27l22 -30c-6.66699 -9.33301 -18 -22.333 -34 -39c-16 -16 -35 -30.667 -57 -44s-45.333 -20.666 -70 -21.999h5z" />
    <glyph glyph-name="ebreve" unicode="&#x115;" horiz-adv-x="498" 
d="M277 -11c-46.667 0 -85.9971 11.3291 -117.997 33.9961s-56.333 54 -73 94s-25 87 -25 141c0 43.333 5 80.333 15 111c10 31.333 25 59 45 83c17.333 20.667 38 37 62 49s51.333 18 82 18c27.333 0 51.666 -4.66699 72.999 -14s39.666 -21.666 54.999 -36.999
c13.333 -13.333 24.333 -28.666 33 -45.999s15 -38.666 19 -63.999s6 -56.666 6 -93.999v-12h-328v-26c0.666992 -27.333 4 -51.666 10 -72.999s13.667 -39.333 23 -54c14 -20.667 32.333 -36.334 55 -47.001s48.334 -16 77.001 -16c25.333 0 48.666 3.66699 69.999 11
c21.333 8 40.666 20 57.999 36l22 -36c-21.333 -18.667 -45.666 -32.667 -72.999 -42c-26.667 -10 -56.334 -15 -89.001 -15zM121.003 297.996h268c0 30.667 -2.33301 56 -7 76c-4.66699 20.667 -11 37.667 -19 51c-10 16 -23.667 29 -41 39c-17.333 9.33301 -38 14 -62 14
c-38.667 0 -70.667 -15.333 -96 -46c-24.667 -30 -38.667 -75.333 -42 -136zM271.003 574.996l0.000976562 -1.00098v0v0c-25.333 1.33301 -49 8.66602 -71 21.999c-21.333 13.333 -40 28.333 -56 45c-16 16 -27.333 28.667 -34 38l26 31
c7.33301 -8 17.666 -17.333 30.999 -28s29.333 -20 48 -28c18 -8 37.667 -12 59 -12c18.667 0 36.667 4.66699 54 14c18 8.66699 33.667 18.334 47 29.001c14 10.667 24.333 19.667 31 27l22 -31c-6.66699 -9.33301 -18 -22 -34 -38c-16 -16.667 -34.667 -31.667 -56 -45
c-22 -13.333 -45.333 -20.666 -70 -21.999z" />
    <glyph glyph-name="Edotaccent" unicode="&#x116;" horiz-adv-x="503" 
d="M93 1v702h366l-8 -48h-299v-264h244v-50h-244v-291h318v-50h-377v1zM276 759v-1v0v0c-12.667 0 -23.334 4 -32.001 12c-8 8 -12 18.333 -12 31c0 13.333 4 24 12 32c8.66699 8 19.334 12 32.001 12s23 -4 31 -12c8.66699 -8 13 -18.333 13 -31
c0 -13.333 -4.33301 -24 -13 -32c-8 -8 -18.333 -12 -31 -12v1z" />
    <glyph glyph-name="edotaccent" unicode="&#x117;" horiz-adv-x="498" 
d="M277 -11c-46.667 0 -85.9971 11.3291 -117.997 33.9961s-56.333 54 -73 94s-25 87 -25 141c0 43.333 5 80.333 15 111c10 31.333 25 59 45 83c17.333 20.667 38 37 62 49s51.333 18 82 18c27.333 0 51.666 -4.66699 72.999 -14s39.666 -21.666 54.999 -36.999
c13.333 -13.333 24.333 -28.666 33 -45.999s15 -38.666 19 -63.999s6 -56.666 6 -93.999v-12h-328v-26c0.666992 -27.333 4 -51.666 10 -72.999s13.667 -39.333 23 -54c14 -20.667 32.333 -36.334 55 -47.001s48.334 -16 77.001 -16c25.333 0 48.666 3.66699 69.999 11
c21.333 8 40.666 20 57.999 36l22 -36c-21.333 -18.667 -45.666 -32.667 -72.999 -42c-26.667 -10 -56.334 -15 -89.001 -15zM121.003 297.996h268c0 30.667 -2.33301 56 -7 76c-4.66699 20.667 -11 37.667 -19 51c-10 16 -23.667 29 -41 39c-17.333 9.33301 -38 14 -62 14
c-38.667 0 -70.667 -15.333 -96 -46c-24.667 -30 -38.667 -75.333 -42 -136zM263.003 585.996v-1v0v0c-12.667 0 -23 4.33301 -31 13c-8.66699 8 -13 18.333 -13 31s4.33301 23 13 31c8 8.66699 18.333 13 31 13s23.334 -4 32.001 -12c8 -8 12 -18.667 12 -32
c0 -12.667 -4 -23 -12 -31c-8.66699 -8.66699 -19.334 -13 -32.001 -13v1z" />
    <glyph glyph-name="Eogonek" unicode="&#x118;" horiz-adv-x="503" 
d="M94 -1v-1.00098v0v702h366l-8 -48h-299v-264h244v-50h-244v-291h318v-50c-8 -6 -17.667 -14.333 -29 -25c-12 -10.667 -22.333 -23.334 -31 -38.001s-13.334 -30.667 -14.001 -48c0 -13.333 4 -24.666 12 -33.999s20.667 -14 38 -14c10.667 0 20.667 1.33301 30 4
s19.333 6.66699 30 12l15 -34c-8.66699 -5.33301 -19.667 -10.333 -33 -15s-27.666 -7 -42.999 -7c-31.333 0.666992 -55 9.33398 -71 26.001c-16 16 -24 36 -24 60c0.666992 25.333 7 48 19 68c11.333 20 24.333 36 39 48h-316z" />
    <glyph glyph-name="eogonek" unicode="&#x119;" horiz-adv-x="498" 
d="M280 -8c-46.667 0 -85.999 11.3301 -117.999 33.9971s-56.333 54 -73 94s-25 87 -25 141c0 43.333 5 80.333 15 111c10 31.333 25 59 45 83c17.333 20.667 38 37 62 49s51.333 18 82 18c27.333 0 51.666 -4.66699 72.999 -14s39.666 -21.666 54.999 -36.999
c13.333 -13.333 24.333 -28.666 33 -45.999s15 -38.666 19 -63.999s6 -56.666 6 -93.999v-12h-328v-18c0 -32 3 -59 9 -81c6.66699 -22 14.667 -40.333 24 -55c14 -20.667 32.333 -36.334 55 -47.001s48.334 -16 77.001 -16c25.333 0 48.666 3.66699 69.999 11
c21.333 8 40.666 20 57.999 36l22 -36c-12 -10.667 -24.667 -19.667 -38 -27c-13.333 -6.66699 -26.333 -12.667 -39 -18c-11.333 -4.66699 -23.666 -13 -36.999 -25c-12.667 -11.333 -23.667 -25 -33 -41s-14 -32.667 -14 -50c0 -13.333 4 -24.666 12 -33.999
s20.667 -14 38 -14c10.667 0 20.667 1.33301 30 4s19.333 6.66699 30 12l16 -34c-9.33301 -5.33301 -20.666 -10.333 -33.999 -15s-28 -7 -44 -7c-30.667 0.666992 -54 9.33398 -70 26.001c-16 16 -24 36 -24 60c0 21.333 4.66699 40.666 14 57.999s20 32.666 32 45.999h-4z
M121.001 298.997v-1v0h268c0 30.667 -2.33301 56 -7 76c-4.66699 20.667 -11 37.667 -19 51c-10 16 -23.667 29 -41 39c-17.333 9.33301 -38 14 -62 14c-38.667 0 -70.667 -15.333 -96 -46c-24.667 -30 -38.667 -75.333 -42 -136z" />
    <glyph glyph-name="Ecaron" unicode="&#x11a;" horiz-adv-x="503" 
d="M93 1v702h366l-8 -48h-299v-264h244v-50h-244v-291h318v-50h-377v1zM275 749v-1v0l-161 125l26 32l137 -90l135 90l24 -32l-160 -125z" />
    <glyph glyph-name="ecaron" unicode="&#x11b;" horiz-adv-x="498" 
d="M277 -11c-46.667 0 -85.9971 11.3291 -117.997 33.9961s-56.333 54 -73 94s-25 87 -25 141c0 43.333 5 80.333 15 111c10 31.333 25 59 45 83c17.333 20.667 38 37 62 49s51.333 18 82 18c27.333 0 51.666 -4.66699 72.999 -14s39.666 -21.666 54.999 -36.999
c13.333 -13.333 24.333 -28.666 33 -45.999s15 -38.666 19 -63.999s6 -56.666 6 -93.999v-12h-328v-26c0.666992 -27.333 4 -51.666 10 -72.999s13.667 -39.333 23 -54c14 -20.667 32.333 -36.334 55 -47.001s48.334 -16 77.001 -16c25.333 0 48.666 3.66699 69.999 11
c21.333 8 40.666 20 57.999 36l22 -36c-21.333 -18.667 -45.666 -32.667 -72.999 -42c-26.667 -10 -56.334 -15 -89.001 -15zM121.003 297.996h268c0 30.667 -2.33301 56 -7 76c-4.66699 20.667 -11 37.667 -19 51c-10 16 -23.667 29 -41 39c-17.333 9.33301 -38 14 -62 14
c-38.667 0 -70.667 -15.333 -96 -46c-24.667 -30 -38.667 -75.333 -42 -136zM267.003 576.996v-1v0l-161 125l26 32l138 -90l134 90l24 -32l-160 -125z" />
    <glyph glyph-name="Gcircumflex" unicode="&#x11c;" horiz-adv-x="620" 
d="M351 -4c-44 0 -84.001 7.66602 -120.001 22.999s-67.333 39 -94 71c-25.333 30.667 -44.666 68 -57.999 112s-20 94.667 -20 152c0 60.667 7.33301 113.667 22 159c14.667 46 37.334 85.667 68.001 119c24 26.667 51.333 47 82 61s65.334 21 104.001 21
c36 0 69.333 -5.33301 100 -16s58.667 -26.667 84 -48l-26 -37c-26.667 18.667 -52.334 32 -77.001 40s-51 12 -79 12c-40 0 -75.333 -10 -106 -30s-54 -48.667 -70 -86c-12 -29.333 -21.333 -60.666 -28 -93.999s-10 -69 -10 -107c0 -48 4.66699 -91.333 14 -130
s22 -70 38 -94c20 -28 46 -49 78 -63c32 -14.667 66 -22 102 -22c24 0 46.667 2.66699 68 8c22 5.33301 41.667 13.333 59 24v240h-160l-12 48h228v-319c-25.333 -16 -54 -28.333 -86 -37c-32.667 -8.66699 -66.334 -13 -101.001 -13v6zM200.999 748.999v-1v0l-22 32
l160 126l162 -126l-26 -32l-137 90l-136 -90z" />
    <glyph glyph-name="gcircumflex" unicode="&#x11d;" horiz-adv-x="508" 
d="M271 -196c-51.333 0 -93.0039 5.99512 -125.004 17.9951c-32 11.333 -55.333 27 -70 47s-22 42.333 -22 67c0 10 0.666992 19.667 2 29c2 8.66699 5 17.667 9 27l58 5c-4 -6.66699 -7.33301 -14.334 -10 -23.001c-2.66699 -9.33301 -4 -18.666 -4 -27.999
c0 -14.667 3 -28 9 -40s14.667 -22 26 -30c13.333 -8.66699 30 -15.334 50 -20.001c20 -5.33301 42.667 -8 68 -8c44 0 78.667 8.33301 104 25s38.333 44.334 39 83.001c0 14.667 -2.33301 28 -7 40c-5.33301 12 -13 22 -23 30c-9.33301 7.33301 -22.666 13 -39.999 17
s-39.333 6 -66 6h-34h-34h-24c-30.667 0 -53.334 6 -68.001 18c-14.667 11.333 -22 27 -22 47c0 19.333 8 36.333 24 51c16.667 14 41.667 25.667 75 35c-37.333 10.667 -66.666 29.334 -87.999 56.001s-32 57.334 -32 92.001c0.666992 51.333 17.667 92.333 51 123
c32.667 30.667 76.667 46.334 132 47.001c24 0 43.333 -2.33301 58 -7l42 -13c13.333 -4.66699 30 -7 50 -7c13.333 0 25.333 2 36 6s22 10 34 18l34 -35c-13.333 -10 -26.666 -17.333 -39.999 -22c-12.667 -4 -26.334 -6 -41.001 -6c-8 0 -15.333 0.666992 -22 2
s-12.667 3 -18 5c14.667 -13.333 25.667 -28.666 33 -45.999c8 -17.333 12 -36.333 12 -57c0 -32 -6.66699 -60 -20 -84s-32 -42.667 -56 -56c-14.667 -8 -30.667 -13.667 -48 -17c-17.333 -2.66699 -34.333 -3.66699 -51 -3c-33.333 -11.333 -58.666 -22.333 -75.999 -33
c-17.333 -11.333 -26 -23 -26 -35c0 -8.66699 4 -15.667 12 -21s20.667 -8 38 -8h22h40h31c29.333 0 53.333 -2.33301 72 -7s34.334 -11.667 47.001 -21c18.667 -13.333 32 -28.666 40 -45.999c8 -18 12 -37.667 12 -59c-1.33301 -54.667 -19.666 -94.667 -54.999 -120
s-83 -38 -143 -38zM244.996 236.995c37.333 0 66 10.001 86 30.001s30 49.333 30 88c0 37.333 -9.66699 66.666 -29 87.999s-48.333 32 -87 32s-68 -10.667 -88 -32s-30 -52 -30 -92c0 -34.667 10 -62.667 30 -84s49.333 -32.333 88 -33v3zM109.996 578.996v-1v0l-22 30
l161 126l160 -126l-26 -30l-138 89l-135 -89v1z" />
    <glyph glyph-name="Gbreve" unicode="&#x11e;" horiz-adv-x="620" 
d="M351 -4c-44 0 -84.001 7.66602 -120.001 22.999s-67.333 39 -94 71c-25.333 30.667 -44.666 68 -57.999 112s-20 94.667 -20 152c0 60.667 7.33301 113.667 22 159c14.667 46 37.334 85.667 68.001 119c24 26.667 51.333 47 82 61s65.334 21 104.001 21
c36 0 69.333 -5.33301 100 -16s58.667 -26.667 84 -48l-26 -37c-26.667 18.667 -52.334 32 -77.001 40s-51 12 -79 12c-40 0 -75.333 -10 -106 -30s-54 -48.667 -70 -86c-12 -29.333 -21.333 -60.666 -28 -93.999s-10 -69 -10 -107c0 -48 4.66699 -91.333 14 -130
s22 -70 38 -94c20 -28 46 -49 78 -63c32 -14.667 66 -22 102 -22c24 0 46.667 2.66699 68 8c22 5.33301 41.667 13.333 59 24v240h-160l-12 48h228v-319c-25.333 -16 -54 -28.333 -86 -37c-32.667 -8.66699 -66.334 -13 -101.001 -13v6zM340.999 747.999v-1.00098v0v0
c-25.333 1.33301 -48.666 8.66602 -69.999 21.999c-22 13.333 -41 28 -57 44c-16 16.667 -27.333 29.667 -34 39l26 30c7.33301 -8 17.666 -17.333 30.999 -28s29 -20 47 -28s37.667 -12 59 -12c18.667 0 36.667 4.33301 54 13c18 8.66699 33.667 18.334 47 29.001
c14 10.667 24.333 19.667 31 27l22 -30c-6.66699 -9.33301 -18 -22.333 -34 -39c-16 -16 -35 -30.667 -57 -44s-45.333 -20.666 -70 -21.999h5z" />
    <glyph glyph-name="gbreve" unicode="&#x11f;" horiz-adv-x="508" 
d="M271 -196c-51.333 0 -93.0039 5.99512 -125.004 17.9951c-32 11.333 -55.333 27 -70 47s-22 42.333 -22 67c0 10 0.666992 19.667 2 29c2 8.66699 5 17.667 9 27l58 5c-4 -6.66699 -7.33301 -14.334 -10 -23.001c-2.66699 -9.33301 -4 -18.666 -4 -27.999
c0 -14.667 3 -28 9 -40s14.667 -22 26 -30c13.333 -8.66699 30 -15.334 50 -20.001c20 -5.33301 42.667 -8 68 -8c44 0 78.667 8.33301 104 25s38.333 44.334 39 83.001c0 14.667 -2.33301 28 -7 40c-5.33301 12 -13 22 -23 30c-9.33301 7.33301 -22.666 13 -39.999 17
s-39.333 6 -66 6h-34h-34h-24c-30.667 0 -53.334 6 -68.001 18c-14.667 11.333 -22 27 -22 47c0 19.333 8 36.333 24 51c16.667 14 41.667 25.667 75 35c-37.333 10.667 -66.666 29.334 -87.999 56.001s-32 57.334 -32 92.001c0.666992 51.333 17.667 92.333 51 123
c32.667 30.667 76.667 46.334 132 47.001c24 0 43.333 -2.33301 58 -7l42 -13c13.333 -4.66699 30 -7 50 -7c13.333 0 25.333 2 36 6s22 10 34 18l34 -35c-13.333 -10 -26.666 -17.333 -39.999 -22c-12.667 -4 -26.334 -6 -41.001 -6c-8 0 -15.333 0.666992 -22 2
s-12.667 3 -18 5c14.667 -13.333 25.667 -28.666 33 -45.999c8 -17.333 12 -36.333 12 -57c0 -32 -6.66699 -60 -20 -84s-32 -42.667 -56 -56c-14.667 -8 -30.667 -13.667 -48 -17c-17.333 -2.66699 -34.333 -3.66699 -51 -3c-33.333 -11.333 -58.666 -22.333 -75.999 -33
c-17.333 -11.333 -26 -23 -26 -35c0 -8.66699 4 -15.667 12 -21s20.667 -8 38 -8h22h40h31c29.333 0 53.333 -2.33301 72 -7s34.334 -11.667 47.001 -21c18.667 -13.333 32 -28.666 40 -45.999c8 -18 12 -37.667 12 -59c-1.33301 -54.667 -19.666 -94.667 -54.999 -120
s-83 -38 -143 -38zM244.996 236.995c37.333 0 66 10.001 86 30.001s30 49.333 30 88c0 37.333 -9.66699 66.666 -29 87.999s-48.333 32 -87 32s-68 -10.667 -88 -32s-30 -52 -30 -92c0 -34.667 10 -62.667 30 -84s49.333 -32.333 88 -33v3zM246.996 574.996
l0.000976562 -1.00098v0v0c-24.667 1.33301 -48 8.66602 -70 21.999c-21.333 13.333 -40 28.333 -56 45c-16 16 -27.333 28.667 -34 38l26 31c7.33301 -8 17.666 -17.333 30.999 -28s29.333 -20 48 -28c18 -8 37.667 -12 59 -12c18.667 0 36.667 4.66699 54 14
c18 8.66699 33.667 18.334 47 29.001c14 10.667 24.333 19.667 31 27l22 -31c-6.66699 -9.33301 -18 -22 -34 -38c-16 -16.667 -34.667 -31.667 -56 -45c-22 -13.333 -45.667 -20.666 -71 -21.999z" />
    <glyph glyph-name="Gdotaccent" unicode="&#x120;" horiz-adv-x="620" 
d="M351 -4c-44 0 -84.001 7.66602 -120.001 22.999s-67.333 39 -94 71c-25.333 30.667 -44.666 68 -57.999 112s-20 94.667 -20 152c0 60.667 7.33301 113.667 22 159c14.667 46 37.334 85.667 68.001 119c24 26.667 51.333 47 82 61s65.334 21 104.001 21
c36 0 69.333 -5.33301 100 -16s58.667 -26.667 84 -48l-26 -37c-26.667 18.667 -52.334 32 -77.001 40s-51 12 -79 12c-40 0 -75.333 -10 -106 -30s-54 -48.667 -70 -86c-12 -29.333 -21.333 -60.666 -28 -93.999s-10 -69 -10 -107c0 -48 4.66699 -91.333 14 -130
s22 -70 38 -94c20 -28 46 -49 78 -63c32 -14.667 66 -22 102 -22c24 0 46.667 2.66699 68 8c22 5.33301 41.667 13.333 59 24v240h-160l-12 48h228v-319c-25.333 -16 -54 -28.333 -86 -37c-32.667 -8.66699 -66.334 -13 -101.001 -13v6zM336.999 758.999v-1v0v0
c-12.667 0 -23.334 4 -32.001 12c-8 8 -12 18.333 -12 31c0 13.333 4 24 12 32c8.66699 8 19.334 12 32.001 12s23 -4 31 -12c8.66699 -8 13 -18.333 13 -31c0 -13.333 -4.33301 -24 -13 -32c-8 -8 -18.333 -12 -31 -12v1z" />
    <glyph glyph-name="gdotaccent" unicode="&#x121;" horiz-adv-x="508" 
d="M271 -196c-51.333 0 -93.0039 5.99512 -125.004 17.9951c-32 11.333 -55.333 27 -70 47s-22 42.333 -22 67c0 10 0.666992 19.667 2 29c2 8.66699 5 17.667 9 27l58 5c-4 -6.66699 -7.33301 -14.334 -10 -23.001c-2.66699 -9.33301 -4 -18.666 -4 -27.999
c0 -14.667 3 -28 9 -40s14.667 -22 26 -30c13.333 -8.66699 30 -15.334 50 -20.001c20 -5.33301 42.667 -8 68 -8c44 0 78.667 8.33301 104 25s38.333 44.334 39 83.001c0 14.667 -2.33301 28 -7 40c-5.33301 12 -13 22 -23 30c-9.33301 7.33301 -22.666 13 -39.999 17
s-39.333 6 -66 6h-34h-34h-24c-30.667 0 -53.334 6 -68.001 18c-14.667 11.333 -22 27 -22 47c0 19.333 8 36.333 24 51c16.667 14 41.667 25.667 75 35c-37.333 10.667 -66.666 29.334 -87.999 56.001s-32 57.334 -32 92.001c0.666992 51.333 17.667 92.333 51 123
c32.667 30.667 76.667 46.334 132 47.001c24 0 43.333 -2.33301 58 -7l42 -13c13.333 -4.66699 30 -7 50 -7c13.333 0 25.333 2 36 6s22 10 34 18l34 -35c-13.333 -10 -26.666 -17.333 -39.999 -22c-12.667 -4 -26.334 -6 -41.001 -6c-8 0 -15.333 0.666992 -22 2
s-12.667 3 -18 5c14.667 -13.333 25.667 -28.666 33 -45.999c8 -17.333 12 -36.333 12 -57c0 -32 -6.66699 -60 -20 -84s-32 -42.667 -56 -56c-14.667 -8 -30.667 -13.667 -48 -17c-17.333 -2.66699 -34.333 -3.66699 -51 -3c-33.333 -11.333 -58.666 -22.333 -75.999 -33
c-17.333 -11.333 -26 -23 -26 -35c0 -8.66699 4 -15.667 12 -21s20.667 -8 38 -8h22h40h31c29.333 0 53.333 -2.33301 72 -7s34.334 -11.667 47.001 -21c18.667 -13.333 32 -28.666 40 -45.999c8 -18 12 -37.667 12 -59c-1.33301 -54.667 -19.666 -94.667 -54.999 -120
s-83 -38 -143 -38zM244.996 236.995c37.333 0 66 10.001 86 30.001s30 49.333 30 88c0 37.333 -9.66699 66.666 -29 87.999s-48.333 32 -87 32s-68 -10.667 -88 -32s-30 -52 -30 -92c0 -34.667 10 -62.667 30 -84s49.333 -32.333 88 -33v3zM245.996 585.996v-1v0v0
c-12.667 0 -23.334 4.33301 -32.001 13c-8.66699 8 -13 18.333 -13 31s4.33301 23 13 31c8.66699 8.66699 19.334 13 32.001 13c12 0 22.333 -4 31 -12s13 -18.667 13 -32c0 -12.667 -4.33301 -23 -13 -31c-8.66699 -8.66699 -19 -13 -31 -13v1z" />
    <glyph glyph-name="Gcommaaccent" unicode="&#x122;" horiz-adv-x="620" 
d="M351 -4c-44 0 -84.001 7.66602 -120.001 22.999s-67.333 39 -94 71c-25.333 30.667 -44.666 68 -57.999 112s-20 94.667 -20 152c0 60.667 7.33301 113.667 22 159c14.667 46 37.334 85.667 68.001 119c24 26.667 51.333 47 82 61s65.334 21 104.001 21
c36 0 69.333 -5.33301 100 -16s58.667 -26.667 84 -48l-26 -37c-26.667 18.667 -52.334 32 -77.001 40s-51 12 -79 12c-40 0 -75.333 -10 -106 -30s-54 -48.667 -70 -86c-12 -29.333 -21.333 -60.666 -28 -93.999s-10 -69 -10 -107c0 -48 4.66699 -91.333 14 -130
s22 -70 38 -94c20 -28 46 -49 78 -63c32 -14.667 66 -22 102 -22c24 0 46.667 2.66699 68 8c22 5.33301 41.667 13.333 59 24v240h-160l-12 48h228v-319c-25.333 -16 -54 -28.333 -86 -37c-32.667 -8.66699 -66.334 -13 -101.001 -13v6zM319.999 -263.001l0.00195312 -1v0
l-22 33c17.333 9.33301 30.666 21 39.999 35c9.33301 13.333 14.666 28.666 15.999 45.999h-4h-5c-12 0 -22 4.33301 -30 13c-8 9.33301 -12 20.666 -12 33.999c0 14.667 4.66699 26.667 14 36c9.33301 10 21 15 35 15c18 0 32.333 -6.66699 43 -20s16 -30.666 16 -51.999
c0 -14 -2.66699 -27.667 -8 -41c-4.66699 -13.333 -11.667 -26.666 -21 -39.999c-8 -10.667 -18 -21 -30 -31s-24 -19 -36 -27h4z" />
    <glyph glyph-name="gcommaaccent" unicode="&#x123;" horiz-adv-x="508" 
d="M271 -196c-51.333 0 -93.0039 5.99512 -125.004 17.9951c-32 11.333 -55.333 27 -70 47s-22 42.333 -22 67c0 10 0.666992 19.667 2 29c2 8.66699 5 17.667 9 27l58 5c-4 -6.66699 -7.33301 -14.334 -10 -23.001c-2.66699 -9.33301 -4 -18.666 -4 -27.999
c0 -14.667 3 -28 9 -40s14.667 -22 26 -30c13.333 -8.66699 30 -15.334 50 -20.001c20 -5.33301 42.667 -8 68 -8c44 0 78.667 8.33301 104 25s38.333 44.334 39 83.001c0 14.667 -2.33301 28 -7 40c-5.33301 12 -13 22 -23 30c-9.33301 7.33301 -22.666 13 -39.999 17
s-39.333 6 -66 6h-34h-34h-24c-30.667 0 -53.334 6 -68.001 18c-14.667 11.333 -22 27 -22 47c0 19.333 8 36.333 24 51c16.667 14 41.667 25.667 75 35c-37.333 10.667 -66.666 29.334 -87.999 56.001s-32 57.334 -32 92.001c0.666992 51.333 17.667 92.333 51 123
c32.667 30.667 76.667 46.334 132 47.001c24 0 43.333 -2.33301 58 -7l42 -13c13.333 -4.66699 30 -7 50 -7c13.333 0 25.333 2 36 6s22 10 34 18l34 -35c-13.333 -10 -26.666 -17.333 -39.999 -22c-12.667 -4 -26.334 -6 -41.001 -6c-8 0 -15.333 0.666992 -22 2
s-12.667 3 -18 5c14.667 -13.333 25.667 -28.666 33 -45.999c8 -17.333 12 -36.333 12 -57c0 -32 -6.66699 -60 -20 -84s-32 -42.667 -56 -56c-14.667 -8 -30.667 -13.667 -48 -17c-17.333 -2.66699 -34.333 -3.66699 -51 -3c-33.333 -11.333 -58.666 -22.333 -75.999 -33
c-17.333 -11.333 -26 -23 -26 -35c0 -8.66699 4 -15.667 12 -21s20.667 -8 38 -8h22h40h31c29.333 0 53.333 -2.33301 72 -7s34.334 -11.667 47.001 -21c18.667 -13.333 32 -28.666 40 -45.999c8 -18 12 -37.667 12 -59c-1.33301 -54.667 -19.666 -94.667 -54.999 -120
s-83 -38 -143 -38zM244.996 236.995c37.333 0 66 10.001 86 30.001s30 49.333 30 88c0 37.333 -9.66699 66.666 -29 87.999s-48.333 32 -87 32s-68 -10.667 -88 -32s-30 -52 -30 -92c0 -34.667 10 -62.667 30 -84s49.333 -32.333 88 -33v3zM304.996 806.996v-1v0v0
c-17.333 -9.33301 -31.333 -21.333 -42 -36c-10 -14.667 -15.667 -31.334 -17 -50.001h6h4c10.667 0 20 -4.33301 28 -13s12 -19.667 12 -33c0 -14.667 -4.66699 -26.667 -14 -36c-9.33301 -10 -21.333 -15 -36 -15c-17.333 0 -31.333 6.66699 -42 20s-16 31 -16 53
c0 14.667 2.66699 29.334 8 44.001s12.333 28.667 21 42c8 11.333 18 22.333 30 33s24.667 20 38 28l20 -32v-4z" />
    <glyph glyph-name="Hcircumflex" unicode="&#x124;" horiz-adv-x="623" 
d="M93 702h56v-304h322v304h58v-702h-58v350h-322v-350h-56v702zM175 749v-1v0l-22 32l160 126l162 -126l-26 -32l-137 90l-136 -90z" />
    <glyph glyph-name="hcircumflex" unicode="&#x125;" horiz-adv-x="536" 
d="M90 -1l0.000976562 633.001c0 32 -2 56.667 -6 74c-3.33301 17.333 -5.66602 27.333 -6.99902 30l55 12c1.33301 -2.66699 3.66602 -13.667 6.99902 -33c4 -18.667 6 -47 6 -85v-135c0 -13.333 -0.333008 -26 -1 -38c-0.666992 -11.333 -1 -19 -1 -23
c22.667 24 48.334 44 77.001 60c29.333 16 60.666 24.333 93.999 25c41.333 0 74 -12.333 98 -37c24 -25.333 36.333 -61.333 37 -108v-374h-56v365c0 37.333 -8 64 -24 80c-6.66699 7.33301 -15.667 13 -27 17c-12 4.66699 -25.667 7 -41 7
c-26.667 0 -53.334 -7.33301 -80.001 -22s-51.667 -36.334 -75 -65.001v-382h-56v-1zM-19.999 739.001v-1v0l-22 30l161 126l160 -126l-26 -30l-138 89l-135 -89v1z" />
    <glyph glyph-name="Hbar" unicode="&#x126;" horiz-adv-x="623" 
d="M8 561h85v142h56v-142h322v142h58v-142h85v-45h-85v-516h-58v350h-322v-350h-56v516h-85v45zM150 399v-1v0h322v118h-322v-118v1z" />
    <glyph glyph-name="hbar" unicode="&#x127;" horiz-adv-x="536" 
d="M24 588l0.00195312 -1.00195v0v46h64v1c-0.666992 30.667 -2.66699 54.334 -6 71.001s-5.66602 26.334 -6.99902 29.001l55 12c1.33301 -2.66699 3.66602 -13 6.99902 -31c3.33301 -17.333 5.66602 -43.666 6.99902 -78.999v-2h196v-46h-196v-95
c0 -13.333 -0.333008 -26 -1 -38c-0.666992 -11.333 -1 -19 -1 -23c22.667 24 48.334 44 77.001 60c29.333 16 60.666 24.333 93.999 25c24 0 45 -4 63 -12s33 -19.667 45 -35c9.33301 -12 16.333 -26 21 -42s7 -34 7 -54v-374h-56v365c0 37.333 -8 64 -24 80
c-6.66699 7.33301 -15.667 13 -27 17c-12 4.66699 -25.667 7 -41 7c-26.667 0 -53.334 -7.33301 -80.001 -22s-51.667 -36.334 -75 -65.001v-382h-56v591h-64z" />
    <glyph glyph-name="Itilde" unicode="&#x128;" horiz-adv-x="243" 
d="M93 702h56v-702h-56v702zM-17 774v-0.999023v0l-20 33c12 16 26 28.667 42 38s36.333 14 61 14c18.667 0 34 -3 46 -9s24 -11.667 36 -17c12 -6 27 -9 45 -9c14.667 0 27 3.33301 37 10c10.667 6.66699 20.667 15 30 25l20 -32c-12 -16 -26 -28.667 -42 -38
s-36.333 -14 -61 -14c-18.667 0.666992 -34 4 -46 10l-36 18c-12 6.66699 -27 10 -45 10c-14.667 0 -27 -3.33301 -37 -10s-19.667 -15.334 -29 -26.001z" />
    <glyph glyph-name="itilde" unicode="&#x129;" horiz-adv-x="238" 
d="M90 510l58 10v-520h-58v510zM-21 608l-0.000976562 -0.999023v0l-20 32c12 16 26 28.667 42 38s36.333 14 61 14c18.667 -0.666992 34 -4 46 -10l36 -18c12 -6.66699 27 -10 45 -10c14.667 0 27.334 3.33301 38.001 10c10 6.66699 19.667 15 29 25l20 -32
c-12 -16 -26 -28.667 -42 -38s-36.333 -14 -61 -14c-18.667 0 -34 3.33301 -46 10l-36 18c-12 6 -27 9.33301 -45 10c-14.667 0 -27 -3.33301 -37 -10s-19.667 -15.334 -29 -26.001z" />
    <glyph glyph-name="Imacron" unicode="&#x12a;" horiz-adv-x="243" 
d="M93 702h56v-702h-56v702zM-16 808v-1v0v39h274v-39h-274v1z" />
    <glyph glyph-name="imacron" unicode="&#x12b;" horiz-adv-x="238" 
d="M90 510l58 10v-520h-58v510zM-20 611v-1v0v39h274v-39h-274v1z" />
    <glyph glyph-name="Ibreve" unicode="&#x12c;" horiz-adv-x="243" 
d="M93 702h56v-702h-56v702zM123 748l0.000976562 -1.00098v0v0c-25.333 1.33301 -49 8.66602 -71 21.999c-21.333 13.333 -40 28 -56 44c-16 16.667 -27.333 29.667 -34 39l26 30c7.33301 -8 17.666 -17.333 30.999 -28s29.333 -20 48 -28c18 -8 37.667 -12 59 -12
c18.667 0 36.667 4.33301 54 13c18 8.66699 33.667 18.334 47 29.001c14 10.667 24.333 19.667 31 27l22 -30c-6.66699 -9.33301 -18 -22.333 -34 -39c-16 -16 -34.667 -30.667 -56 -44c-22 -13.333 -45.333 -20.666 -70 -21.999h3z" />
    <glyph glyph-name="ibreve" unicode="&#x12d;" horiz-adv-x="238" 
d="M90 510l58 10v-520h-58v510zM119 575l0.000976562 -1.00098v0v0c-24.667 1.33301 -48 8.66602 -70 21.999c-21.333 13.333 -40 28.333 -56 45c-16 16 -27.333 28.667 -34 38l26 31c7.33301 -8 17.666 -17.333 30.999 -28s29.333 -20 48 -28c18 -8 37.667 -12 59 -12
c18.667 0 36.667 4.66699 54 14c18 8.66699 33.667 18.334 47 29.001c14 10.667 24.333 19.667 31 27l22 -31c-6.66699 -9.33301 -18 -22 -34 -38c-16 -16.667 -34.667 -31.667 -56 -45c-22 -13.333 -45.667 -20.666 -71 -21.999z" />
    <glyph glyph-name="Iogonek" unicode="&#x12e;" horiz-adv-x="243" 
d="M95 -2l-0.000976562 -1.00098v0v702h56v-702c-9.33301 -8 -19.333 -17.667 -30 -29s-20 -24 -28 -38c-8 -13.333 -12 -28 -12 -44c0 -13.333 4 -24.666 12 -33.999s20.667 -14 38 -14c10.667 0 20.667 1.33301 30 4s19.333 6.66699 30 12l16 -34
c-9.33301 -5.33301 -20.666 -10.333 -33.999 -15s-28 -7 -44 -7c-31.333 0.666992 -55 9.33398 -71 26.001c-16 16 -24 36 -24 60c1.33301 24.667 8 47 20 67c12 19.333 25 35.666 39 48.999z" />
    <glyph glyph-name="iogonek" unicode="&#x12f;" horiz-adv-x="238" 
d="M89 -1l0.00195312 509.998l58 10v-520c-10.667 -8.66699 -21.334 -19 -32.001 -31s-19.334 -25 -26.001 -39c-7.33301 -13.333 -11 -27.333 -11 -42c0 -13.333 4 -24.666 12 -33.999s20.667 -14 38 -14c10.667 0 20.667 1.33301 30 4s19.333 6.66699 30 12l15 -34
c-8.66699 -5.33301 -19.667 -10.333 -33 -15s-28 -7 -44 -7c-31.333 0.666992 -55 9.33398 -71 26.001c-16 16 -24 36 -24 60c0.666992 24 7 46 19 66s25.333 36.333 40 49zM120.002 626.998v-1v0v0c-12.667 0 -23.334 4.33301 -32.001 13c-8.66699 8 -13 18.333 -13 31
s4.33301 23 13 31c8.66699 8.66699 19.334 13 32.001 13c12 0 22.333 -4 31 -12s13 -18.667 13 -32c0 -12.667 -4.33301 -23 -13 -31c-8.66699 -8.66699 -19 -13 -31 -13v1z" />
    <glyph glyph-name="Idotaccent" unicode="&#x130;" horiz-adv-x="243" 
d="M93 702h56v-702h-56v702zM121 759v-1v0v0c-12.667 0 -23.334 4 -32.001 12c-8 8 -12 18.333 -12 31c0 13.333 4 24 12 32c8.66699 8 19.334 12 32.001 12s23 -4 31 -12c8.66699 -8 13 -18.333 13 -31c0 -13.333 -4.33301 -24 -13 -32c-8 -8 -18.333 -12 -31 -12v1z" />
    <glyph glyph-name="dotlessi" unicode="&#x131;" horiz-adv-x="238" 
d="M90 1v-1v0v510l58 10v-520h-58v1z" />
    <glyph glyph-name="IJ" unicode="&#x132;" horiz-adv-x="492" 
d="M93 702h56v-702h-56v702zM262 -125l-0.00195312 -0.999023v0l-28 37c20 8 38 18 54 30s28 25.333 36 40c6.66699 12 11.334 28.667 14.001 50s4 51 4 89v584h58v-584c0 -29.333 -0.666992 -54 -2 -74s-3.66602 -36.667 -6.99902 -50c-4 -14 -9.33301 -27 -16 -39
c-12 -19.333 -28 -36.333 -48 -51s-42.667 -26.334 -68 -35.001z" />
    <glyph glyph-name="ij" unicode="&#x133;" horiz-adv-x="474" 
d="M120 626c-12.667 0 -23.334 4.33301 -32.001 13c-8.66699 8 -13 18.333 -13 31s4.33301 23 13 31c8.66699 8.66699 19.334 13 32.001 13c12 0 22.333 -4 31 -12s13 -18.667 13 -32c0 -12.667 -4.33301 -23 -13 -31c-8.66699 -8.66699 -19 -13 -31 -13zM90 1v510l58 9
v-520h-58v1zM279 -202l-26.001 38.001c22.667 9.33301 39.334 21.333 50.001 36s17.667 32.667 21 54c2.66699 21.333 4 46.666 4 75.999v508l56 11v-524c0 -22.667 -1 -44 -3 -64s-5.66699 -36.667 -11 -50c-9.33301 -20.667 -22 -37.667 -38 -51s-34 -24.333 -54 -33z
M355.999 627.001v-1v0v0c-13.333 0 -24 4.33301 -32 13c-8 8 -12 18.333 -12 31c0 13.333 4 24 12 32s18.667 12 32 12c12 0 22 -4 30 -12s12 -18.667 12 -32c0 -12.667 -4 -23 -12 -31c-8 -8.66699 -18 -13 -30 -13v1z" />
    <glyph glyph-name="Jcircumflex" unicode="&#x134;" horiz-adv-x="249" 
d="M19 -126l-28.002 37.001c20 8 38 18 54 30s28 25.333 36 40c6.66699 12 11.334 28.667 14.001 50s4 51 4 89v584h58v-584c0 -29.333 -0.666992 -54 -2 -74s-3.66602 -36.667 -6.99902 -50c-4 -14 -9.33301 -27 -16 -39c-12 -19.333 -28 -36.333 -48 -51
s-42.667 -26.334 -68 -35.001zM-10.002 749.001v-1v0l-22 32l160 126l162 -126l-27 -32l-137 90l-135 -90z" />
    <glyph glyph-name="jcircumflex" unicode="&#x135;" horiz-adv-x="237" 
d="M42 -202l-26.001 38.001c22.667 9.33301 39.334 21.333 50.001 36s17.667 32.667 21 54c2.66699 21.333 4 46.666 4 75.999v507l56 12v-524c0 -22.667 -1 -44 -3 -64s-5.66699 -36.667 -11 -50c-9.33301 -20.667 -22 -37.667 -38 -51s-34 -24.333 -54 -33z
M-22.001 579.001v-1v0l-22 30l160 126l161 -126l-26 -30l-138 89l-135 -89v1z" />
    <glyph glyph-name="Kcommaaccent" unicode="&#x136;" horiz-adv-x="528" 
d="M159 372l284 331h74l-292 -331l293 -372h-74zM93 702h58v-702h-58v702zM266 -263l0.000976562 -1v0l-22 33c17.333 9.33301 30.666 21 39.999 35c9.33301 13.333 14.666 28.666 15.999 45.999h-4h-5c-11.333 0 -21 4.33301 -29 13c-8 9.33301 -12 20.666 -12 33.999
c0 14.667 4.66699 26.667 14 36c9.33301 10 21.333 15 36 15c17.333 0 31.333 -6.66699 42 -20s16 -30.666 16 -51.999c0 -14 -2.66699 -27.667 -8 -41s-12.666 -26.666 -21.999 -39.999c-8 -10.667 -18 -21 -30 -31s-24.333 -19 -37 -27h5z" />
    <glyph glyph-name="kcommaaccent" unicode="&#x137;" horiz-adv-x="474" 
d="M91 0v632.999c0 32 -2 56.667 -6 74c-3.33301 17.333 -5.66602 27.333 -6.99902 30l55 12c1.33301 -2.66699 3.66602 -13.667 6.99902 -33c4 -19.333 6 -47.666 6 -84.999v-631h-56h1zM153 285.999l210 224h70l-214 -224l255 -286h-74zM232 -263.001l0.000976562 -1v0
l-22 33c17.333 9.33301 30.666 21 39.999 35c9.33301 13.333 14.666 28.666 15.999 45.999h-4h-5c-12 0 -22 4.33301 -30 13c-8 9.33301 -12 20.666 -12 33.999c0 14.667 4.66699 26.667 14 36c9.33301 10 21 15 35 15c17.333 0 31.333 -6.66699 42 -20
s16 -30.666 16 -51.999c0 -14 -2.66699 -27.667 -8 -41s-12.666 -26.666 -21.999 -39.999c-8 -10.667 -18 -21 -30 -31s-24 -19 -36 -27h6z" />
    <glyph glyph-name="kgreenlandic" unicode="&#x138;" horiz-adv-x="474" 
d="M91 0v406c0 32 -2 56.667 -6 74c-3.33301 17.333 -5.66602 27.333 -6.99902 30l55 12c1.33301 -2.66699 3.66602 -13.667 6.99902 -33c4 -18.667 6 -47 6 -85v-404h-56h1zM400 1v-1v0l-247 286l210 224h70l-214 -224l255 -286h-74v1z" />
    <glyph glyph-name="Lacute" unicode="&#x139;" horiz-adv-x="453" 
d="M92 1v702h58v-654h288l-8 -49h-337zM94 750v-1v0l-20 34l190 123l31 -54l-202 -102h1z" />
    <glyph glyph-name="lacute" unicode="&#x13a;" horiz-adv-x="239" 
d="M163 -7c-24.667 0 -43 7 -55 21c-12 13.333 -18 35 -18 65v554c0 32 -1.66699 56.667 -5 74c-2.66699 17.333 -4.66699 27.333 -6 30l55 10c1.33301 -2.66699 3.66602 -13.667 6.99902 -33c4 -18.667 6 -46.667 6 -84v-539c0 -21.333 2.66699 -36 8 -44
c4.66699 -8 13 -12 25 -12c2.66699 0 5.33398 0.333008 8.00098 1c2.66699 1.33301 4.66699 2 6 2l12 -36c-8 -4 -15 -6.66699 -21 -8c-6.66699 -1.33301 -14 -2 -22 -2v1zM65 763v-1v0l-18 34l190 122l31 -54l-202 -102z" />
    <glyph glyph-name="Lcommaaccent" unicode="&#x13b;" horiz-adv-x="453" 
d="M92 1v702h58v-654h288l-8 -49h-337zM232 -263l0.000976562 -1v0l-22 33c17.333 9.33301 30.666 21 39.999 35c9.33301 13.333 14.666 28.666 15.999 45.999h-4h-5c-12 0 -22 4.33301 -30 13c-8 9.33301 -12 20.666 -12 33.999c0 14.667 4.66699 26.667 14 36
c9.33301 10 21 15 35 15c17.333 0 31.333 -6.66699 42 -20s16 -30.666 16 -51.999c0 -14 -2.66699 -27.667 -8 -41s-12.666 -26.666 -21.999 -39.999c-8 -10.667 -18 -21 -30 -31s-24 -19 -36 -27h6z" />
    <glyph glyph-name="lcommaaccent" unicode="&#x13c;" horiz-adv-x="239" 
d="M163 -7c-24.667 0 -43 7 -55 21c-12 13.333 -18 35 -18 65v554c0 32 -1.66699 56.667 -5 74c-2.66699 17.333 -4.66699 27.333 -6 30l55 10c1.33301 -2.66699 3.66602 -13.667 6.99902 -33c4 -18.667 6 -46.667 6 -84v-539c0 -21.333 2.66699 -36 8 -44
c4.66699 -8 13 -12 25 -12c2.66699 0 5.33398 0.333008 8.00098 1c2.66699 1.33301 4.66699 2 6 2l12 -36c-8 -4 -15 -6.66699 -21 -8c-6.66699 -1.33301 -14 -2 -22 -2v1zM123 -263l0.000976562 -1v0l-22 33c17.333 9.33301 30.666 21 39.999 35
c9.33301 13.333 14.666 28.666 15.999 45.999h-4h-5c-12 0 -22 4.33301 -30 13c-8 9.33301 -12 20.666 -12 33.999c0 14.667 4.66699 26.667 14 36c9.33301 10 21 15 35 15c17.333 0 31.333 -6.66699 42 -20s16 -30.666 16 -51.999c0 -14 -2.66699 -27.667 -8 -41
s-12.666 -26.666 -21.999 -39.999c-8 -10.667 -18 -21 -30 -31s-24.333 -19 -37 -27h7z" />
    <glyph glyph-name="Lcaron" unicode="&#x13d;" horiz-adv-x="453" 
d="M92 1v702h58v-654h288l-8 -49h-337zM252 521v-1v0v0c17.333 9.33301 31.333 21.333 42 36c10 14.667 15.667 31.334 17 50.001h-6h-3c-10.667 0 -20 4.66699 -28 14c-8 8.66699 -12 19.667 -12 33c0 14.667 4.66699 26.667 14 36c9.33301 10 21.333 15 36 15
c17.333 0 31.333 -6.66699 42 -20s16 -30.666 16 -51.999c0 -14.667 -2.66699 -29.334 -8 -44.001s-12.333 -28.334 -21 -41.001c-8 -11.333 -18 -22.333 -30 -33s-24.667 -20 -38 -28l-20 32z" />
    <glyph glyph-name="lcaron" unicode="&#x13e;" horiz-adv-x="258" 
d="M163 -7c-24.667 0 -43 7 -55 21c-12 13.333 -18 35 -18 65v554c0 32 -1.66699 56.667 -5 74c-2.66699 17.333 -4.66699 27.333 -6 30l55 10c1.33301 -2.66699 3.66602 -13.667 6.99902 -33c4 -18.667 6 -46.667 6 -84v-539c0 -21.333 2.66699 -36 8 -44
c4.66699 -8 13 -12 25 -12c2.66699 0 5.33398 0.333008 8.00098 1c2.66699 1.33301 4.66699 2 6 2l12 -36c-8 -4 -15 -6.66699 -21 -8c-6.66699 -1.33301 -14 -2 -22 -2v1zM187 566v-1v0v0c17.333 9.33301 31.333 21.333 42 36c10 14.667 15.667 31.334 17 50.001h-6h-3
c-10.667 0 -20 4.33301 -28 13s-12 19.667 -12 33c0 14.667 4.66699 26.667 14 36c9.33301 10 21.333 15 36 15c17.333 0 31.333 -6.66699 42 -20s16 -31 16 -53c0 -14.667 -2.66699 -29.334 -8 -44.001s-12.333 -28.667 -21 -42c-8 -11.333 -18 -22.333 -30 -33
s-24.667 -20 -38 -28l-20 32z" />
    <glyph glyph-name="Ldot" unicode="&#x13f;" horiz-adv-x="453" 
d="M92 1v702h58v-654h288l-8 -49h-337zM345 329v-1v0v0c-12.667 0 -23 4 -31 12c-8.66699 8 -13 18.333 -13 31c0 13.333 4.33301 24 13 32c8 8 18.333 12 31 12s23.334 -4 32.001 -12c8 -8 12 -18.333 12 -31c0 -13.333 -4 -24 -12 -32
c-8.66699 -8 -19.334 -12 -32.001 -12v1z" />
    <glyph glyph-name="ldot" unicode="&#x140;" horiz-adv-x="274" 
d="M163 -7c-24.667 0 -43 7 -55 21c-12 13.333 -18 35 -18 65v554c0 32 -1.66699 56.667 -5 74c-2.66699 17.333 -4.66699 27.333 -6 30l55 10c1.33301 -2.66699 3.66602 -13.667 6.99902 -33c4 -18.667 6 -46.667 6 -84v-539c0 -21.333 2.66699 -36 8 -44
c4.66699 -8 13 -12 25 -12c2.66699 0 5.33398 0.333008 8.00098 1c2.66699 1.33301 4.66699 2 6 2l12 -36c-8 -4 -15 -6.66699 -21 -8c-6.66699 -1.33301 -14 -2 -22 -2v1zM253 297v-1v0v0c-12.667 0 -23.334 4.33301 -32.001 13c-8 8 -12 18.333 -12 31s4 23 12 31
c8.66699 8.66699 19.334 13 32.001 13s23 -4 31 -12c8.66699 -8 13 -18.667 13 -32c0 -12.667 -4.33301 -23 -13 -31c-8 -8.66699 -18.333 -13 -31 -13v1z" />
    <glyph glyph-name="Lslash" unicode="&#x141;" horiz-adv-x="453" 
d="M92 0v-1v0v320l-72 -22v50l72 24v331h58v-312l192 62v-51l-192 -62v-290h288l-8 -49h-337h-1z" />
    <glyph glyph-name="lslash" unicode="&#x142;" horiz-adv-x="239" 
d="M158 -4l0.00195312 -1.00098v0v0c-10.667 0 -20.334 1.33301 -29.001 4s-16.334 7.33398 -23.001 14.001c-6.66699 6 -12 14.333 -16 25s-6 24.667 -6 42v246l-62 -22v52l62 22v256c0 32 -1.66699 56.667 -5 74c-2.66699 17.333 -4.66699 27.333 -6 30l55 10
c1.33301 -2.66699 3.66602 -13.667 6.99902 -33c4 -18.667 6 -46.667 6 -84v-236l79 28v-50l-79 -30v-252c0 -21.333 2.66699 -36 8 -44s14 -12 26 -12c2.66699 0 5.33398 0.333008 8.00098 1c2.66699 1.33301 4.66699 2 6 2l12 -36c-8 -4 -15.333 -6.66699 -22 -8
c-6 -1.33301 -13 -2 -21 -2v4z" />
    <glyph glyph-name="Nacute" unicode="&#x143;" horiz-adv-x="631" 
d="M93 2l0.000976562 701.998h68l268 -503l27 -56l22 -48c5.33301 -13.333 8.66602 -20.666 9.99902 -21.999v20c-0.666992 13.333 -1.66699 29.333 -3 48l-2 56c-0.666992 18.667 -1 34.667 -1 48l-2 454h58v-702h-62l-266 498l-47 90
c-10.667 22.667 -16.667 36.334 -18 41.001v-18c0.666992 -10.667 1.66699 -24 3 -40l2 -48c0.666992 -16 1 -30 1 -42l2 -480h-60v2zM248.001 749.998v-1v0l-20 34l190 123l30 -54l-202 -102h2z" />
    <glyph glyph-name="nacute" unicode="&#x144;" horiz-adv-x="528" 
d="M92 -1l0.000976562 403.003c0 28 -2 50 -6 66s-8 28 -12 36l54 14c1.33301 -2.66699 4 -11.334 8 -26.001s6.33301 -33.334 7 -56.001c25.333 26.667 52 47 80 61c27.333 14 55.666 21 84.999 21c26.667 0 50 -5.33301 70 -16s35 -25.334 45 -44.001
c6 -9.33301 11 -20 15 -32c3.33301 -12 5 -24.667 5 -38v-388h-56v360c0 23.333 -2 41.333 -6 54s-10 23.667 -18 33c-6.66699 7.33301 -16 13 -28 17c-12 4.66699 -25.333 7 -40 7c-24 0 -49.667 -7 -77 -21c-28 -14.667 -52.667 -34 -74 -58v-392h-54zM179.001 579.003
l-18 34l189 123l31 -54l-202 -102v-1z" />
    <glyph glyph-name="Ncommaaccent" unicode="&#x145;" horiz-adv-x="631" 
d="M93 2l0.000976562 701.998h68l268 -503l27 -56l22 -48c5.33301 -13.333 8.66602 -20.666 9.99902 -21.999v20c-0.666992 13.333 -1.66699 29.333 -3 48l-2 56c-0.666992 18.667 -1 34.667 -1 48l-2 454h58v-702h-62l-266 498l-47 90
c-10.667 22.667 -16.667 36.334 -18 41.001v-18c0.666992 -10.667 1.66699 -24 3 -40l2 -48c0.666992 -16 1 -30 1 -42l2 -480h-60v2zM283.001 -263.002l0.000976562 -1v0l-22 33c17.333 9.33301 30.666 21 39.999 35c9.33301 13.333 14.666 28.666 15.999 45.999h-4h-5
c-11.333 0 -21 4.33301 -29 13c-8 9.33301 -12 20.666 -12 33.999c0 14.667 4.66699 26.667 14 36c9.33301 10 21.333 15 36 15c17.333 0 31.333 -6.66699 42 -20s16 -30.666 16 -51.999c0 -14 -2.33301 -27.667 -7 -41c-5.33301 -13.333 -12.666 -26.666 -21.999 -39.999
c-8 -10.667 -17.667 -21 -29 -31c-12 -10 -24.333 -19 -37 -27h3z" />
    <glyph glyph-name="ncommaaccent" unicode="&#x146;" horiz-adv-x="528" 
d="M92 -1l0.000976562 403.003c0 28 -2 50 -6 66s-8 28 -12 36l54 14c1.33301 -2.66699 4 -11.334 8 -26.001s6.33301 -33.334 7 -56.001c25.333 26.667 52 47 80 61c27.333 14 55.666 21 84.999 21c26.667 0 50 -5.33301 70 -16s35 -25.334 45 -44.001
c6 -9.33301 11 -20 15 -32c3.33301 -12 5 -24.667 5 -38v-388h-56v360c0 23.333 -2 41.333 -6 54s-10 23.667 -18 33c-6.66699 7.33301 -16 13 -28 17c-12 4.66699 -25.333 7 -40 7c-24 0 -49.667 -7 -77 -21c-28 -14.667 -52.667 -34 -74 -58v-392h-54zM234.001 -262.997
l0.00195312 -1v0l-22 33c17.333 9.33301 30.666 21 39.999 35c9.33301 13.333 14.666 28.666 15.999 45.999h-4h-5c-12 0 -22 4.33301 -30 13c-8 9.33301 -12 20.666 -12 33.999c0 14.667 4.66699 26.667 14 36c9.33301 10 21 15 35 15c18 0 32.333 -6.66699 43 -20
s16 -30.666 16 -51.999c0 -14 -2.66699 -27.667 -8 -41c-4.66699 -13.333 -11.667 -26.666 -21 -39.999c-8 -10.667 -18 -21 -30 -31s-24 -19 -36 -27h4z" />
    <glyph glyph-name="Ncaron" unicode="&#x147;" horiz-adv-x="631" 
d="M93 2l0.000976562 701.998h68l268 -503l27 -56l22 -48c5.33301 -13.333 8.66602 -20.666 9.99902 -21.999v20c-0.666992 13.333 -1.66699 29.333 -3 48l-2 56c-0.666992 18.667 -1 34.667 -1 48l-2 454h58v-702h-62l-266 498l-47 90
c-10.667 22.667 -16.667 36.334 -18 41.001v-18c0.666992 -10.667 1.66699 -24 3 -40l2 -48c0.666992 -16 1 -30 1 -42l2 -480h-60v2zM314.001 748.998v-1v0l-161 125l26 32l138 -90l135 90l24 -32l-160 -125z" />
    <glyph glyph-name="ncaron" unicode="&#x148;" horiz-adv-x="528" 
d="M92 -1l0.000976562 403.003c0 28 -2 50 -6 66s-8 28 -12 36l54 14c1.33301 -2.66699 4 -11.334 8 -26.001s6.33301 -33.334 7 -56.001c25.333 26.667 52 47 80 61c27.333 14 55.666 21 84.999 21c26.667 0 50 -5.33301 70 -16s35 -25.334 45 -44.001
c6 -9.33301 11 -20 15 -32c3.33301 -12 5 -24.667 5 -38v-388h-56v360c0 23.333 -2 41.333 -6 54s-10 23.667 -18 33c-6.66699 7.33301 -16 13 -28 17c-12 4.66699 -25.333 7 -40 7c-24 0 -49.667 -7 -77 -21c-28 -14.667 -52.667 -34 -74 -58v-392h-54zM269.001 577.003v-1
v0l-161 125l26 32l138 -90l134 90l24 -32l-160 -125z" />
    <glyph glyph-name="napostrophe" unicode="&#x149;" horiz-adv-x="575" 
d="M139 -1l0.000976562 403.003c0 28 -2 50 -6 66s-8 28 -12 36l54 14c1.33301 -2.66699 4 -11.334 8 -26.001s6.33301 -33.334 7 -56.001c25.333 26.667 52 47 80 61c27.333 14 55.666 21 84.999 21c26.667 0 50 -5.33301 70 -16s35 -25.334 45 -44.001
c6 -9.33301 11 -20 15 -32c3.33301 -12 5 -24.667 5 -38v-388h-56v360c0 23.333 -2 41.333 -6 54s-10 23.667 -18 33c-6.66699 7.33301 -16 13 -28 17c-12 4.66699 -25.333 7 -40 7c-24 0 -49.667 -7 -77 -21c-28 -14.667 -52.667 -34 -74 -58v-392h-54zM3.00098 538.003
l-0.000976562 -1v0v0c17.333 9.33301 31 21.333 41 36s15.667 31.334 17 50.001h-6h-3c-10.667 0 -20 4.66699 -28 14c-8 8.66699 -12.333 19.667 -13 33c0.666992 14.667 5.66699 26.667 15 36c9.33301 10 21.333 15 36 15c17.333 0 31.333 -6.66699 42 -20
s16 -30.666 16 -51.999c0 -14.667 -2.66699 -29.334 -8 -44.001s-12.666 -28.334 -21.999 -41.001c-8 -11.333 -18 -22.333 -30 -33s-24.667 -20 -38 -28l-20 32z" />
    <glyph glyph-name="Eng" unicode="&#x14a;" horiz-adv-x="631" 
d="M93 4l0.000976562 -1.00195v0v702h68l268 -503l27 -56l22 -48c5.33301 -13.333 8.66602 -20.666 9.99902 -21.999v20c-0.666992 13.333 -1.66699 29.333 -3 48l-2 56c-0.666992 18.667 -1 34.667 -1 48l-2 454h58v-708c0 -22.667 -1 -44 -3 -64s-5.66699 -36.667 -11 -50
c-9.33301 -20.667 -22 -37.667 -38 -51s-34 -24.333 -54 -33l-26 38c21.333 9.33301 37.333 21 48 35s17.667 30 21 48s5 37.667 5 59c0 4.66699 -0.333008 9 -1 13s-1.66699 7.33301 -3 10l-266 498l-47 90c-10.667 22.667 -16.667 36.334 -18 41.001v-18
c0.666992 -10.667 1.66699 -24 3 -40l2 -48c0.666992 -16 1 -30 1 -42l2 -480h-60v4z" />
    <glyph glyph-name="eng" unicode="&#x14b;" horiz-adv-x="528" 
d="M90 1v-0.998047v0v403c0 28 -2 50 -6 66s-8 28 -12 36l54 14c1.33301 -2.66699 4 -11.334 8 -26.001s6.33301 -33.334 7 -56.001c25.333 26.667 52 47 80 61c27.333 14 55.666 21 84.999 21c26.667 0 50 -5.33301 70 -16s35.333 -24.667 46 -42c6 -10.667 11 -22 15 -34
c3.33301 -12 5 -24.667 5 -38v-394c0 -22.667 -1 -44 -3 -64s-5.66699 -36.667 -11 -50c-10 -20.667 -22.667 -37.667 -38 -51c-16 -13.333 -34 -24.333 -54 -33l-26 38c22.667 9.33301 39.334 21.333 50.001 36s17.667 32.667 21 54c2.66699 21.333 4 46.666 4 75.999v359
c0 23.333 -2 41.333 -6 54s-10 23.667 -18 33c-5.33301 6.66699 -14 12.334 -26 17.001s-25.333 7 -40 7c-24 0 -49.667 -7 -77 -21c-28 -14.667 -52.667 -34 -74 -58v-392h-54v1z" />
    <glyph glyph-name="Omacron" unicode="&#x14c;" horiz-adv-x="665" 
d="M331 -14c-48 1.33301 -88.333 11.667 -121 31s-59 43 -79 71c-22.667 30.667 -40.334 68 -53.001 112c-12 44 -18 94 -18 150c0 53.333 5.66699 101.333 17 144s27 79 47 109c20 31.333 47 57 81 77c33.333 20 74.666 30.333 123.999 31c40 -0.666992 74 -7 102 -19
s51 -27 69 -45c18.667 -18 33.334 -35.667 44.001 -53c20 -30.667 35 -66.667 45 -108s15 -89.333 15 -144c0 -60.667 -7.33301 -112.667 -22 -156c-14 -43.333 -35 -80.333 -63 -111c-21.333 -25.333 -46.666 -46 -75.999 -62c-30 -16 -66.667 -24.333 -110 -25z
M342 31.001c38 0.666992 69.3359 9 94.0029 25c24 15.333 43.333 34.333 58 57c16 24 28 53.333 36 88c8.66699 34.667 13 79.334 13 134.001c0 50.667 -3.33301 94.667 -10 132s-16.667 69 -30 95c-8 17.333 -19.333 34 -34 50s-33.334 29.333 -56.001 40
c-22.667 10 -49.334 15 -80.001 15c-41.333 -0.666992 -76 -10.334 -104 -29.001s-48.667 -41 -62 -67c-13.333 -24.667 -23.333 -54 -30 -88s-10 -73.667 -10 -119c0 -52 4 -98.333 12 -139c8 -41.333 19 -75 33 -101c9.33301 -16 22 -31 38 -45
c16 -13.333 34.667 -24.333 56 -33c21.333 -8 44.666 -12 69.999 -12zM194.003 808.001v-1v0v39h274v-39h-274v1z" />
    <glyph glyph-name="omacron" unicode="&#x14d;" horiz-adv-x="534" 
d="M264 -11c-39.333 0.666992 -72.666 8.99805 -99.999 24.998s-49 36.333 -65 61c-15.333 22.667 -27 49.334 -35 80.001s-12 65.334 -12 104.001c0 40 4.66699 76 14 108s22.666 59.333 39.999 82c16 21.333 37.333 39 64 53c26.667 13.333 58 20.333 94 21
c42 -0.666992 76.667 -9.66699 104 -27s48.333 -37.666 63 -60.999c14.667 -22.667 26 -49.334 34 -80.001s12 -66 12 -106c0 -34.667 -3.33301 -65.667 -10 -93c-6.66699 -28 -16 -52.667 -28 -74c-16 -28 -38.667 -50.667 -68 -68c-28.667 -17.333 -63 -26 -103 -26z
M268 31.998c30.667 0 55.998 7.3291 75.998 21.9961s34.667 33.334 44 56.001c9.33301 20 16 40 20 60s6 44.667 6 74c0 36 -2.66699 67.333 -8 94s-12.666 49.334 -21.999 68.001c-10.667 20.667 -26.667 37.334 -48 50.001s-46 19 -74 19c-28 -0.666992 -52 -7 -72 -19
s-34.667 -26.667 -44 -44s-16.666 -38.333 -21.999 -63s-8 -53 -8 -85c0 -36.667 3.33301 -69.667 10 -99c6 -29.333 14.333 -52.666 25 -69.999c10 -16 25 -30 45 -42s44 -18.333 72 -19v-2zM130.998 610.994v-1v0v39h274v-39h-274v1z" />
    <glyph glyph-name="Obreve" unicode="&#x14e;" horiz-adv-x="665" 
d="M331 -14c-48 1.33301 -88.333 11.667 -121 31s-59 43 -79 71c-22.667 30.667 -40.334 68 -53.001 112c-12 44 -18 94 -18 150c0 53.333 5.66699 101.333 17 144s27 79 47 109c20 31.333 47 57 81 77c33.333 20 74.666 30.333 123.999 31c40 -0.666992 74 -7 102 -19
s51 -27 69 -45c18.667 -18 33.334 -35.667 44.001 -53c20 -30.667 35 -66.667 45 -108s15 -89.333 15 -144c0 -60.667 -7.33301 -112.667 -22 -156c-14 -43.333 -35 -80.333 -63 -111c-21.333 -25.333 -46.666 -46 -75.999 -62c-30 -16 -66.667 -24.333 -110 -25z
M342 31.001c38 0.666992 69.3359 9 94.0029 25c24 15.333 43.333 34.333 58 57c16 24 28 53.333 36 88c8.66699 34.667 13 79.334 13 134.001c0 50.667 -3.33301 94.667 -10 132s-16.667 69 -30 95c-8 17.333 -19.333 34 -34 50s-33.334 29.333 -56.001 40
c-22.667 10 -49.334 15 -80.001 15c-41.333 -0.666992 -76 -10.334 -104 -29.001s-48.667 -41 -62 -67c-13.333 -24.667 -23.333 -54 -30 -88s-10 -73.667 -10 -119c0 -52 4 -98.333 12 -139c8 -41.333 19 -75 33 -101c9.33301 -16 22 -31 38 -45
c16 -13.333 34.667 -24.333 56 -33c21.333 -8 44.666 -12 69.999 -12zM333.003 748.001l0.000976562 -1.00098v0v0c-24.667 1.33301 -48 8.66602 -70 21.999c-21.333 13.333 -40 28 -56 44c-16 16.667 -27.333 29.667 -34 39l26 30c7.33301 -8 17.666 -17.333 30.999 -28
s29 -20 47 -28c18.667 -8 38.667 -12 60 -12c18.667 0 36.667 4.33301 54 13c18 8.66699 33.667 18.334 47 29.001c14 10.667 24.333 19.667 31 27l22 -30c-6.66699 -9.33301 -18 -22.333 -34 -39c-16 -16 -34.667 -30.667 -56 -44c-22 -13.333 -45.667 -20.666 -71 -21.999
h3z" />
    <glyph glyph-name="obreve" unicode="&#x14f;" horiz-adv-x="534" 
d="M264 -11c-39.333 0.666992 -72.666 8.99805 -99.999 24.998s-49 36.333 -65 61c-15.333 22.667 -27 49.334 -35 80.001s-12 65.334 -12 104.001c0 40 4.66699 76 14 108s22.666 59.333 39.999 82c16 21.333 37.333 39 64 53c26.667 13.333 58 20.333 94 21
c42 -0.666992 76.667 -9.66699 104 -27s48.333 -37.666 63 -60.999c14.667 -22.667 26 -49.334 34 -80.001s12 -66 12 -106c0 -34.667 -3.33301 -65.667 -10 -93c-6.66699 -28 -16 -52.667 -28 -74c-16 -28 -38.667 -50.667 -68 -68c-28.667 -17.333 -63 -26 -103 -26z
M268 31.998c30.667 0 55.998 7.3291 75.998 21.9961s34.667 33.334 44 56.001c9.33301 20 16 40 20 60s6 44.667 6 74c0 36 -2.66699 67.333 -8 94s-12.666 49.334 -21.999 68.001c-10.667 20.667 -26.667 37.334 -48 50.001s-46 19 -74 19c-28 -0.666992 -52 -7 -72 -19
s-34.667 -26.667 -44 -44s-16.666 -38.333 -21.999 -63s-8 -53 -8 -85c0 -36.667 3.33301 -69.667 10 -99c6 -29.333 14.333 -52.666 25 -69.999c10 -16 25 -30 45 -42s44 -18.333 72 -19v-2zM270.998 574.994l0.000976562 -1.00098v0v0
c-25.333 1.33301 -49 8.66602 -71 21.999c-21.333 13.333 -40 28.333 -56 45c-16 16 -27.333 28.667 -34 38l26 31c7.33301 -8 17.666 -17.333 30.999 -28s29.333 -20 48 -28c18 -8 37.667 -12 59 -12c18.667 0 36.667 4.66699 54 14c18 8.66699 33.667 18.334 47 29.001
c14 10.667 24.333 19.667 31 27l22 -31c-6.66699 -9.33301 -18 -22 -34 -38c-16 -16.667 -34.667 -31.667 -56 -45c-22 -13.333 -45.333 -20.666 -70 -21.999z" />
    <glyph glyph-name="Ohungarumlaut" unicode="&#x150;" horiz-adv-x="665" 
d="M331 -14c-48 1.33301 -88.333 11.667 -121 31s-59 43 -79 71c-22.667 30.667 -40.334 68 -53.001 112c-12 44 -18 94 -18 150c0 53.333 5.66699 101.333 17 144s27 79 47 109c20 31.333 47 57 81 77c33.333 20 74.666 30.333 123.999 31c40 -0.666992 74 -7 102 -19
s51 -27 69 -45c18.667 -18 33.334 -35.667 44.001 -53c20 -30.667 35 -66.667 45 -108s15 -89.333 15 -144c0 -60.667 -7.33301 -112.667 -22 -156c-14 -43.333 -35 -80.333 -63 -111c-21.333 -25.333 -46.666 -46 -75.999 -62c-30 -16 -66.667 -24.333 -110 -25z
M342 31.001c38 0.666992 69.3359 9 94.0029 25c24 15.333 43.333 34.333 58 57c16 24 28 53.333 36 88c8.66699 34.667 13 79.334 13 134.001c0 50.667 -3.33301 94.667 -10 132s-16.667 69 -30 95c-8 17.333 -19.333 34 -34 50s-33.334 29.333 -56.001 40
c-22.667 10 -49.334 15 -80.001 15c-41.333 -0.666992 -76 -10.334 -104 -29.001s-48.667 -41 -62 -67c-13.333 -24.667 -23.333 -54 -30 -88s-10 -73.667 -10 -119c0 -52 4 -98.333 12 -139c8 -41.333 19 -75 33 -101c9.33301 -16 22 -31 38 -45
c16 -13.333 34.667 -24.333 56 -33c21.333 -8 44.666 -12 69.999 -12zM245.003 752.001l-36 16l102 184l57 -24l-124 -178zM383.003 755.001v-1v0l-30 22l128 172l52 -34l-150 -160v1z" />
    <glyph glyph-name="ohungarumlaut" unicode="&#x151;" horiz-adv-x="534" 
d="M264 -11c-39.333 0.666992 -72.666 8.99805 -99.999 24.998s-49 36.333 -65 61c-15.333 22.667 -27 49.334 -35 80.001s-12 65.334 -12 104.001c0 40 4.66699 76 14 108s22.666 59.333 39.999 82c16 21.333 37.333 39 64 53c26.667 13.333 58 20.333 94 21
c42 -0.666992 76.667 -9.66699 104 -27s48.333 -37.666 63 -60.999c14.667 -22.667 26 -49.334 34 -80.001s12 -66 12 -106c0 -34.667 -3.33301 -65.667 -10 -93c-6.66699 -28 -16 -52.667 -28 -74c-16 -28 -38.667 -50.667 -68 -68c-28.667 -17.333 -63 -26 -103 -26z
M268 31.998c30.667 0 55.998 7.3291 75.998 21.9961s34.667 33.334 44 56.001c9.33301 20 16 40 20 60s6 44.667 6 74c0 36 -2.66699 67.333 -8 94s-12.666 49.334 -21.999 68.001c-10.667 20.667 -26.667 37.334 -48 50.001s-46 19 -74 19c-28 -0.666992 -52 -7 -72 -19
s-34.667 -26.667 -44 -44s-16.666 -38.333 -21.999 -63s-8 -53 -8 -85c0 -36.667 3.33301 -69.667 10 -99c6 -29.333 14.333 -52.666 25 -69.999c10 -16 25 -30 45 -42s44 -18.333 72 -19v-2zM184.998 581.994l-36 16l102 184l57 -24l-124 -178zM321.998 584.994v-1v0
l-30 22l128 172l52 -34l-150 -160v1z" />
    <glyph glyph-name="OE" unicode="&#x152;" horiz-adv-x="867" 
d="M405 -3c-36 0 -67.0029 1.33496 -93.0029 4.00195s-49.667 8 -71 16s-42.666 20 -63.999 36c-38.667 29.333 -68 68.666 -88 117.999c-19.333 49.333 -29 108.333 -29 177c0 64 8 119 24 165s38.333 83 67 111c18.667 18.667 38.334 33.667 59.001 45
s44.334 19.666 71.001 24.999s58 8 94 8h448l-8 -49h-295v-262h240v-50h-240v-291h314v-50h-430zM358.997 49.002l0.00195312 -1v0v0h29c12.667 0 25.667 0.333008 39 1s24 1.66699 32 3v596c-6.66699 1.33301 -15.334 2.33301 -26.001 3l-32 2h-25
c-42.667 0 -79.334 -4.66699 -110.001 -14s-56 -26.333 -76 -51c-21.333 -25.333 -38 -57.333 -50 -96s-18 -84 -18 -136c0 -61.333 6.66699 -112 20 -152c12.667 -40 32 -72.667 58 -98c21.333 -20.667 45.333 -35.667 72 -45s56.667 -14 90 -14z" />
    <glyph glyph-name="oe" unicode="&#x153;" horiz-adv-x="849" 
d="M270 -13c-40.667 0 -75.3311 8.66895 -103.998 26.002s-51 40 -67 68c-13.333 22 -23.333 47.667 -30 77c-7.33301 29.333 -11 62 -11 98c0 40 4.66699 76.333 14 109s24.666 61.667 45.999 87c16 19.333 36.667 35.666 62 48.999
c24.667 12.667 54.334 19.334 89.001 20.001c32 -0.666992 59.333 -6.33398 82 -17.001c23.333 -10.667 42.333 -23.334 57 -38.001c8 -9.33301 15.333 -20 22 -32s12 -25.667 16 -41c5.33301 18.667 12 34.667 20 48s17.333 24.666 28 33.999
c15.333 14 33.333 25.667 54 35s44.334 14 71.001 14s50.667 -4.66699 72 -14s39.666 -22 54.999 -38c13.333 -13.333 24.333 -28.666 33 -45.999c8 -17.333 14 -38.666 18 -63.999s6 -56.666 6 -93.999v-12h-327v-14c0 -34.667 3 -63.334 9 -86.001s14 -40.667 24 -54
c14.667 -20.667 33 -36.334 55 -47.001c22.667 -11.333 48.667 -17 78 -17c25.333 0 48.666 4 69.999 12s40.666 20 57.999 36l22 -36c-21.333 -18.667 -45.666 -32.667 -72.999 -42c-26.667 -10 -56.667 -15 -90 -15c-45.333 0 -84 11.333 -116 34s-54 53.667 -66 93
c-4 -13.333 -8.33301 -25.333 -13 -36s-10.334 -20 -17.001 -28c-14 -18 -33.667 -33.667 -59 -47s-55.333 -20.333 -90 -21zM268.003 30.002c30.667 0 56.3311 7.33203 76.998 21.999s35.667 33.334 45 56.001c8 17.333 14 36.666 18 57.999s6 46.666 6 75.999
c0 36 -2.66699 67.333 -8 94s-12.666 49.334 -21.999 68.001c-10.667 21.333 -26.667 38.333 -48 51s-46 19 -74 19c-28 -0.666992 -52 -7 -72 -19s-34.667 -26.667 -44 -44s-16.666 -38 -21.999 -62c-5.33301 -24.667 -8 -53 -8 -85c0 -36.667 3.33301 -69.667 10 -99
c6 -29.333 14.333 -52.666 25 -69.999c10 -16.667 25 -31 45 -43s44 -18 72 -18v-4zM474 301.001l-0.000976562 -1v0h268c0 30.667 -2.33301 56 -7 76c-4.66699 20.667 -11 37.667 -19 51c-10 16 -23.667 28.667 -41 38s-38 14 -62 14c-39.333 0 -71.666 -15 -96.999 -45
s-39.333 -75 -42 -135v2z" />
    <glyph glyph-name="Racute" unicode="&#x154;" horiz-adv-x="543" 
d="M92 4l-0.000976562 701.999h146c46 0 82.333 -4 109 -12s48 -19 64 -33c10.667 -8 21.334 -18.667 32.001 -32s19.334 -29.666 26.001 -48.999c6.66699 -18.667 10 -40.667 10 -66c-0.666992 -59.333 -18.334 -105.333 -53.001 -138s-81 -49 -139 -49h-8
c16 -9.33301 30.667 -21 44 -35c13.333 -14.667 29 -35.667 47 -63l40 -62l44 -68l38 -60c10.667 -17.333 18.667 -30 24 -38h-73c-3.33301 8 -10.666 22 -21.999 42c-10.667 19.333 -24 42 -40 68l-51 79c-17.333 26.667 -34.666 51 -51.999 73
c-12.667 18 -26.334 32.333 -41.001 43s-33.334 16 -56.001 16h-32v-322h-56zM149.999 356.999l88.001 0.00195312c33.333 0 60.666 3 81.999 9s39 14.667 53 26c13.333 10.667 24.333 25.667 33 45s13 43.666 13 72.999c0 28 -6.33301 52.667 -19 74
c-12 21.333 -27.333 36.666 -46 45.999c-12 7.33301 -27.333 13 -46 17c-18 4 -40.333 6 -67 6h-91v-295v-1zM184 750.001v-1v0l-20 34l190 123l30 -54l-202 -102h2z" />
    <glyph glyph-name="racute" unicode="&#x155;" horiz-adv-x="308" 
d="M89 1l-0.000976562 402.003c0 33.333 -2 58 -6 74s-7 25.333 -9 28l56 14c2 -2.66699 5 -11.334 9 -26.001s6 -35 6 -61c6.66699 10.667 14.667 21 24 31c9.33301 9.33301 19.333 18 30 26c14.667 11.333 29.334 19.666 44.001 24.999s29 8 43 8
c6.66699 0 12.667 -0.666992 18 -2s8.66602 -2.33301 9.99902 -3l-22 -60c-2.66699 1.33301 -6 2.66602 -10 3.99902c-4 0.666992 -8 1 -12 1c-16 0 -31.333 -3.33301 -46 -10s-28.667 -16.667 -42 -30c-13.333 -12.667 -22.666 -25 -27.999 -37s-8 -28 -8 -48v-337h-56z
M97.999 579.003l-18 34l190 123l30 -54l-202 -102v-1z" />
    <glyph glyph-name="Rcommaaccent" unicode="&#x156;" horiz-adv-x="543" 
d="M92 4l-0.000976562 701.999h146c46 0 82.333 -4 109 -12s48 -19 64 -33c10.667 -8 21.334 -18.667 32.001 -32s19.334 -29.666 26.001 -48.999c6.66699 -18.667 10 -40.667 10 -66c-0.666992 -59.333 -18.334 -105.333 -53.001 -138s-81 -49 -139 -49h-8
c16 -9.33301 30.667 -21 44 -35c13.333 -14.667 29 -35.667 47 -63l40 -62l44 -68l38 -60c10.667 -17.333 18.667 -30 24 -38h-73c-3.33301 8 -10.666 22 -21.999 42c-10.667 19.333 -24 42 -40 68l-51 79c-17.333 26.667 -34.666 51 -51.999 73
c-12.667 18 -26.334 32.333 -41.001 43s-33.334 16 -56.001 16h-32v-322h-56zM149.999 356.999l88.001 0.00195312c33.333 0 60.666 3 81.999 9s39 14.667 53 26c13.333 10.667 24.333 25.667 33 45s13 43.666 13 72.999c0 28 -6.33301 52.667 -19 74
c-12 21.333 -27.333 36.666 -46 45.999c-12 7.33301 -27.333 13 -46 17c-18 4 -40.333 6 -67 6h-91v-295v-1zM261 -262.999l0.000976562 -1v0l-22 33c17.333 9.33301 30.666 21 39.999 35c9.33301 13.333 14.666 28.666 15.999 45.999h-4h-5c-11.333 0 -21 4.33301 -29 13
c-8 9.33301 -12 20.666 -12 33.999c0.666992 14.667 5.66699 26.667 15 36c9.33301 10 21.333 15 36 15c17.333 0 31.333 -6.66699 42 -20s16 -30.666 16 -51.999c0 -14 -2.33301 -27.667 -7 -41c-5.33301 -13.333 -12.666 -26.666 -21.999 -39.999
c-8 -10.667 -17.667 -21 -29 -31c-12 -10 -24.333 -19 -37 -27h2z" />
    <glyph glyph-name="rcommaaccent" unicode="&#x157;" horiz-adv-x="308" 
d="M89 1l-0.000976562 402.003c0 33.333 -2 58 -6 74s-7 25.333 -9 28l56 14c2 -2.66699 5 -11.334 9 -26.001s6 -35 6 -61c6.66699 10.667 14.667 21 24 31c9.33301 9.33301 19.333 18 30 26c14.667 11.333 29.334 19.666 44.001 24.999s29 8 43 8
c6.66699 0 12.667 -0.666992 18 -2s8.66602 -2.33301 9.99902 -3l-22 -60c-2.66699 1.33301 -6 2.66602 -10 3.99902c-4 0.666992 -8 1 -12 1c-16 0 -31.333 -3.33301 -46 -10s-28.667 -16.667 -42 -30c-13.333 -12.667 -22.666 -25 -27.999 -37s-8 -28 -8 -48v-337h-56z
M85.999 -262.997l0.00195312 -1v0l-22 33c17.333 9.33301 30.666 21 39.999 35c9.33301 13.333 14.666 28.666 15.999 45.999h-4h-5c-12 0 -22 4.33301 -30 13c-8 9.33301 -12 20.666 -12 33.999c0 14.667 4.66699 26.667 14 36c9.33301 10 21 15 35 15
c18 0 32.333 -6.66699 43 -20s16 -30.666 16 -51.999c0 -14 -2.66699 -27.667 -8 -41c-4.66699 -13.333 -11.667 -26.666 -21 -39.999c-8 -10.667 -18 -21 -30 -31s-24 -19 -36 -27h4z" />
    <glyph glyph-name="Rcaron" unicode="&#x158;" horiz-adv-x="543" 
d="M92 4l-0.000976562 701.999h146c46 0 82.333 -4 109 -12s48 -19 64 -33c10.667 -8 21.334 -18.667 32.001 -32s19.334 -29.666 26.001 -48.999c6.66699 -18.667 10 -40.667 10 -66c-0.666992 -59.333 -18.334 -105.333 -53.001 -138s-81 -49 -139 -49h-8
c16 -9.33301 30.667 -21 44 -35c13.333 -14.667 29 -35.667 47 -63l40 -62l44 -68l38 -60c10.667 -17.333 18.667 -30 24 -38h-73c-3.33301 8 -10.666 22 -21.999 42c-10.667 19.333 -24 42 -40 68l-51 79c-17.333 26.667 -34.666 51 -51.999 73
c-12.667 18 -26.334 32.333 -41.001 43s-33.334 16 -56.001 16h-32v-322h-56zM149.999 356.999l88.001 0.00195312c33.333 0 60.666 3 81.999 9s39 14.667 53 26c13.333 10.667 24.333 25.667 33 45s13 43.666 13 72.999c0 28 -6.33301 52.667 -19 74
c-12 21.333 -27.333 36.666 -46 45.999c-12 7.33301 -27.333 13 -46 17c-18 4 -40.333 6 -67 6h-91v-295v-1zM263 749.001v-1v0l-160 125l26 32l138 -90l135 90l24 -32l-161 -125z" />
    <glyph glyph-name="rcaron" unicode="&#x159;" horiz-adv-x="308" 
d="M89 1l-0.000976562 402.003c0 33.333 -2 58 -6 74s-7 25.333 -9 28l56 14c2 -2.66699 5 -11.334 9 -26.001s6 -35 6 -61c6.66699 10.667 14.667 21 24 31c9.33301 9.33301 19.333 18 30 26c14.667 11.333 29.334 19.666 44.001 24.999s29 8 43 8
c6.66699 0 12.667 -0.666992 18 -2s8.66602 -2.33301 9.99902 -3l-22 -60c-2.66699 1.33301 -6 2.66602 -10 3.99902c-4 0.666992 -8 1 -12 1c-16 0 -31.333 -3.33301 -46 -10s-28.667 -16.667 -42 -30c-13.333 -12.667 -22.666 -25 -27.999 -37s-8 -28 -8 -48v-337h-56z
M197.999 577.003v-1v0l-160 125l26 32l137 -90l134 90l24 -32l-161 -125v1z" />
    <glyph glyph-name="Sacute" unicode="&#x15a;" horiz-adv-x="530" 
d="M35 50l26.001 46.0029c28 -20 57 -34.667 87 -44s62.667 -14 98 -14c26.667 0 49.334 2.66699 68.001 8s36 14 52 26c17.333 13.333 30.666 29.333 39.999 48c8.66699 19.333 13 41 13 65c0 20 -3 38 -9 54s-15 29.667 -27 41c-12 12 -26 22 -42 30
c-16 8.66699 -33.333 15.667 -52 21l-71 22c-27.333 8.66699 -50.333 17.667 -69 27s-34.334 20.666 -47.001 33.999c-14.667 16 -25.334 34 -32.001 54c-6.66699 19.333 -10 40.333 -10 63c0 38.667 9.33301 72 28 100s44 49.667 76 65s68.667 23 110 23
c36.667 0 71 -5.33301 103 -16s62 -26 90 -46l-26 -42c-28.667 18.667 -55.667 32.334 -81 41.001s-53.333 13 -84 13c-45.333 0 -82 -11 -110 -33c-28 -22.667 -42.333 -54.334 -43 -95.001c0 -16.667 2.33301 -32.334 7 -47.001c4 -14.667 11.333 -27.334 22 -38.001
c10 -9.33301 23 -18 39 -26s34.667 -15.333 56 -22l76 -24c26 -8 48.667 -17.333 68 -28c18.667 -10.667 35.334 -24 50.001 -40c14 -16 25 -34.667 33 -56s12 -44 12 -68c0 -33.333 -7.33301 -64 -22 -92s-35.667 -51.333 -63 -70c-20 -14 -42.667 -24.333 -68 -31
s-53.333 -10 -84 -10c-40 0 -77.333 5 -112 15c-34.667 9.33301 -68 24.333 -100 45zM221.001 750.003v-1v0l-20 34l190 123l31 -54l-202 -102h1z" />
    <glyph glyph-name="sacute" unicode="&#x15b;" horiz-adv-x="442" 
d="M213 -11c-32.667 0 -64.3291 4.33105 -94.9961 12.998s-58 20.667 -82 36l22 41c23.333 -14.667 48.333 -26 75 -34s54.667 -12 84 -12c37.333 0 66.666 9.33301 87.999 28c20.667 18.667 31 43.667 31 75c0 24 -7.33301 44 -22 60s-38.667 27.667 -72 35l-64 12
c-40 8 -70.667 23.333 -92 46s-32 52 -32 88c0.666992 43.333 16 78.333 46 105s71.333 40.334 124 41.001c27.333 0 53.666 -3.66699 78.999 -11c25.333 -6.66699 48 -16 68 -28l-22 -41c-18.667 10.667 -38.334 19.334 -59.001 26.001s-42.334 10 -65.001 10
c-36 -0.666992 -63.333 -9.66699 -82 -27s-28 -40 -28 -68c0 -24 7 -43.333 21 -58c14 -14 35.333 -24 64 -30l66 -14c46 -9.33301 79.667 -25.666 101 -48.999c20.667 -23.333 31 -52.333 31 -87c-0.666992 -48 -17 -86 -49 -114c-32 -28.667 -75.667 -43.334 -131 -44.001
zM163.005 578.998l-18 34l190 123l30 -54l-202 -102v-1z" />
    <glyph glyph-name="Scircumflex" unicode="&#x15c;" horiz-adv-x="530" 
d="M35 50l26.001 46.0029c28 -20 57 -34.667 87 -44s62.667 -14 98 -14c26.667 0 49.334 2.66699 68.001 8s36 14 52 26c17.333 13.333 30.666 29.333 39.999 48c8.66699 19.333 13 41 13 65c0 20 -3 38 -9 54s-15 29.667 -27 41c-12 12 -26 22 -42 30
c-16 8.66699 -33.333 15.667 -52 21l-71 22c-27.333 8.66699 -50.333 17.667 -69 27s-34.334 20.666 -47.001 33.999c-14.667 16 -25.334 34 -32.001 54c-6.66699 19.333 -10 40.333 -10 63c0 38.667 9.33301 72 28 100s44 49.667 76 65s68.667 23 110 23
c36.667 0 71 -5.33301 103 -16s62 -26 90 -46l-26 -42c-28.667 18.667 -55.667 32.334 -81 41.001s-53.333 13 -84 13c-45.333 0 -82 -11 -110 -33c-28 -22.667 -42.333 -54.334 -43 -95.001c0 -16.667 2.33301 -32.334 7 -47.001c4 -14.667 11.333 -27.334 22 -38.001
c10 -9.33301 23 -18 39 -26s34.667 -15.333 56 -22l76 -24c26 -8 48.667 -17.333 68 -28c18.667 -10.667 35.334 -24 50.001 -40c14 -16 25 -34.667 33 -56s12 -44 12 -68c0 -33.333 -7.33301 -64 -22 -92s-35.667 -51.333 -63 -70c-20 -14 -42.667 -24.333 -68 -31
s-53.333 -10 -84 -10c-40 0 -77.333 5 -112 15c-34.667 9.33301 -68 24.333 -100 45zM135.001 749.003v-1v0l-22 32l160 126l162 -126l-26 -32l-137 90l-136 -90z" />
    <glyph glyph-name="scircumflex" unicode="&#x15d;" horiz-adv-x="442" 
d="M213 -11c-32.667 0 -64.3291 4.33105 -94.9961 12.998s-58 20.667 -82 36l22 41c23.333 -14.667 48.333 -26 75 -34s54.667 -12 84 -12c37.333 0 66.666 9.33301 87.999 28c20.667 18.667 31 43.667 31 75c0 24 -7.33301 44 -22 60s-38.667 27.667 -72 35l-64 12
c-40 8 -70.667 23.333 -92 46s-32 52 -32 88c0.666992 43.333 16 78.333 46 105s71.333 40.334 124 41.001c27.333 0 53.666 -3.66699 78.999 -11c25.333 -6.66699 48 -16 68 -28l-22 -41c-18.667 10.667 -38.334 19.334 -59.001 26.001s-42.334 10 -65.001 10
c-36 -0.666992 -63.333 -9.66699 -82 -27s-28 -40 -28 -68c0 -24 7 -43.333 21 -58c14 -14 35.333 -24 64 -30l66 -14c46 -9.33301 79.667 -25.666 101 -48.999c20.667 -23.333 31 -52.333 31 -87c-0.666992 -48 -17 -86 -49 -114c-32 -28.667 -75.667 -43.334 -131 -44.001
zM93.0049 578.998v-1v0l-22 30l161 126l160 -126l-26 -30l-137 89l-136 -89v1z" />
    <glyph glyph-name="Scedilla" unicode="&#x15e;" horiz-adv-x="530" 
d="M233 -199l0.000976562 -0.996094v0v0c-16 0 -31.333 2.66699 -46 8c-14 5.33301 -25.667 11 -35 17l15 34c11.333 -6.66699 22.333 -11.334 33 -14.001s21.667 -4 33 -4c16 0 28.667 4 38 12c8.66699 8 13 18.333 13 31c0 12 -5 21.667 -15 29
c-9.33301 6.66699 -21 10 -35 10h-17c-4 -0.666992 -7.33301 -1.66699 -10 -3l-6 7l18 64c-35.333 1.33301 -68.333 6.66602 -99 15.999s-60 23.333 -88 42l26 46c28 -20 57 -34.667 87 -44s62.667 -14 98 -14c26.667 0 49.334 2.66699 68.001 8s36 14 52 26
c17.333 13.333 30.666 29.333 39.999 48c8.66699 19.333 13 41 13 65c0 20 -3 38 -9 54s-15 29.667 -27 41c-12 12 -26 22 -42 30c-16 8.66699 -33.333 15.667 -52 21l-71 22c-27.333 8.66699 -50.333 17.667 -69 27s-34.334 20.666 -47.001 33.999
c-14.667 16 -25.334 34 -32.001 54c-6.66699 19.333 -10 40.333 -10 63c0 38.667 9.33301 72 28 100s44 49.667 76 65s68.667 23 110 23c36.667 0 71 -5.33301 103 -16s62 -26 90 -46l-26 -42c-28.667 18.667 -55.667 32.334 -81 41.001s-53.333 13 -84 13
c-45.333 0 -82 -11 -110 -33c-28 -22.667 -42.333 -54.334 -43 -95.001c0 -16.667 2.33301 -32.334 7 -47.001c4 -14.667 11.333 -27.334 22 -38.001c10 -9.33301 23 -18 39 -26s34.667 -15.333 56 -22l76 -24c26 -8 48.667 -17.333 68 -28
c18.667 -10.667 35.334 -24 50.001 -40c14 -16 25 -34.667 33 -56s12 -44 12 -68c0 -33.333 -7.33301 -64 -22 -92s-35.667 -51.333 -63 -70c-18 -12 -37.667 -21.333 -59 -28c-22 -6.66699 -45.667 -10.667 -71 -12l-12 -39c28 -1.33301 48 -8.66602 60 -21.999
s18 -30 18 -50c0 -13.333 -3.33301 -26 -10 -38s-17 -22 -31 -30c-14.667 -8 -32.667 -12 -54 -12z" />
    </font>
</defs>
</svg>
