<?xml version="1.0" standalone="no"?>
<!DOCTYPE svg PUBLIC "-//W3C//DTD SVG 1.1//EN" "http://www.w3.org/Graphics/SVG/1.1/DTD/svg11.dtd" >
<svg>
<metadata>
Created by FontForge 20090914 at Mon Jun 24 01:26:16 2013
 By www-data
</metadata>
<defs>
<font id="MetaPro-CondNorm-Regular" horiz-adv-x="0" >
  <font-face 
    font-family="MetaPro-CondNorm"
    font-weight="400"
    font-stretch="normal"
    units-per-em="1024"
    panose-1="2 11 6 0 5 3 2 2 2 4"
    ascent="819"
    descent="-205"
    x-height="510"
    cap-height="702"
    bbox="-160 -256.998 1054 1098"
    underline-thickness="0"
    underline-position="-355"
    unicode-range="U+0020-U+2183"
  />
<missing-glyph horiz-adv-x="512" 
 />
    <glyph glyph-name=".notdef" horiz-adv-x="512" 
 />
    <glyph glyph-name="space" unicode=" " horiz-adv-x="205" 
d="M0 1v-1v1z" />
    <glyph glyph-name="exclam" unicode="!" horiz-adv-x="238" 
d="M143 202h-54l-17 502l88 12zM176 53v-1v0v0c0 -16 -5.33301 -29.333 -16 -40s-24 -16 -40 -16s-29.333 5.33301 -40 16s-16 24 -16 40s5.33301 29.333 16 40s24 16 40 16s29.333 -5.33301 40 -16s16 -24 16 -40v1z" />
    <glyph glyph-name="quotedbl" unicode="&#x22;" horiz-adv-x="359" 
d="M82 479v246h64v-246h-64zM278 480v-1v0h-64v246h64v-246v1z" />
    <glyph glyph-name="numbersign" unicode="#" horiz-adv-x="494" 
d="M472 442h-96l-19 -156h88v-60h-96l-28 -225h-60l26 225h-112l-26 -225h-60l26 225h-87v60h96l18 156h-88v60h96l26 223h60l-28 -223h112l26 223h60l-26 -223h88v-60h4zM313 443v-1v0h-112l-20 -156h113l18 156z" />
    <glyph glyph-name="dollar" unicode="$" horiz-adv-x="510" 
d="M459 183c0 -37.333 -7.99707 -69.6689 -23.9971 -97.002s-37.333 -49.333 -64 -66s-57 -27.667 -91 -33v-99h-52v96c-34.667 0.666992 -67.334 6.33398 -98.001 17.001s-60.667 26.334 -90 47.001l36 60c24 -20 48.333 -34.667 73 -44c24 -9.33301 50 -14 78 -14v285
l-18 9c-24 12 -47.333 26 -70 42c-22.667 15.333 -41.334 34.666 -56.001 57.999c-14.667 22.667 -22.334 51.334 -23.001 86.001c0 32 6.66699 61.333 20 88c14 26.667 33.667 48.667 59 66s55.333 28 90 32v86h52v-85c28 -2.66699 55.333 -9.33398 82 -20.001
s52.667 -26 78 -46l-36 -54c-25.333 18.667 -47.333 32.667 -66 42c-18.667 8.66699 -38 14 -58 16v-262l35 -18c44 -20.667 78.667 -45.667 104 -75s38.333 -67.666 39 -114.999v-2zM380.003 170.997c0.666992 30.667 -6.33203 56.668 -20.999 78.001
c-14 20.667 -38.333 39.667 -73 57l-4 2v-253c29.333 6.66699 52.666 19.667 69.999 39s26 45.666 26 78.999zM227.004 419.998l0.000976562 -0.999023v0v232c-28.667 -5.33301 -51 -17 -67 -35c-16 -18.667 -24 -41.334 -24 -68.001c0 -21.333 2.66699 -39.333 8 -54
s14.666 -27.667 27.999 -39c13.333 -12 32 -24 56 -36z" />
    <glyph glyph-name="percent" unicode="%" horiz-adv-x="725" 
d="M256 525c0.666992 21.333 -0.333984 42.333 -3.00098 63c-2.66699 20 -10 36.667 -22 50s-31.667 20 -59 20c-31.333 0 -53 -10.333 -65 -31c-12 -21.333 -17.667 -49.666 -17 -84.999c-0.666992 -42.667 5 -75.334 17 -98.001s34.667 -34 68 -34
c28.667 0 49.334 10 62.001 30c13.333 20 20 48 20 84zM318.999 527c0 -53.333 -11.999 -95.002 -35.999 -125.002c-23.333 -29.333 -59.333 -44.333 -108 -45c-48.667 0.666992 -84.667 16.334 -108 47.001c-24 30.667 -36 73.334 -36 128.001s12 97.334 36 128.001
s59.667 46 107 46c34.667 0 62.667 -7.33301 84 -22s36.666 -35.334 45.999 -62.001s14 -58 14 -94zM543 697.998l-296 -698h-60l297 698h58h1zM633 156.998c0.666992 22 -0.333984 43 -3.00098 63s-10 36.667 -22 50s-31.667 20 -59 20c-31.333 0 -53 -10.667 -65 -32
c-12 -20.667 -17.667 -48.667 -17 -84c-0.666992 -42.667 5 -75.667 17 -99c12 -22.667 34.667 -34 68 -34c28.667 0 49.334 10 62.001 30c13.333 20 20 48.333 20 85zM694.999 159.998l0.000976562 -1.00293v0v0c0 -53.333 -12 -94.666 -36 -123.999
c-23.333 -30 -59.333 -45.333 -108 -46c-48.667 0.666992 -84.667 16.334 -108 47.001c-24 30.667 -36 73.334 -36 128.001s12 97.334 36 128.001s59.667 46 107 46c34.667 0 62.667 -7.33301 84 -22s36.666 -35.334 45.999 -62.001s14 -58 14 -94h1z" />
    <glyph glyph-name="ampersand" unicode="&#x26;" horiz-adv-x="600" 
d="M587 -1l-93.0029 -0.00292969l-60 66c-18 -25.333 -41.667 -45.333 -71 -60s-63.333 -22 -102 -22c-66 0 -117 15.333 -153 46c-36 31.333 -54 75.333 -54 132c0.666992 44 12.334 81.333 35.001 112s53.667 56.667 93 78l-34 37c-17.333 18.667 -31 38.334 -41 59.001
s-15 41 -15 61c0 32 7.33301 60 22 84s34 42.667 58 56s50 20 78 20c29.333 0 56.333 -6 81 -18s44.334 -29.667 59.001 -53c14.667 -24 22 -52.667 22 -86c0 -26 -5.33301 -48.667 -16 -68c-10.667 -18.667 -25.667 -36 -45 -52s-42.666 -32 -69.999 -48l146 -163
c4 10.667 7 21.334 9 32.001l4 35c1.33301 14.667 2 29.667 2 45v47h62c0 -40 -1.33301 -73 -4 -99c-2.66699 -25.333 -6.66699 -46.666 -12 -63.999s-11.333 -33.333 -18 -48l114 -128zM393.997 112.997l-176.999 200.001c-30 -16 -52.333 -36 -67 -60s-22 -52 -22 -84
c0 -24 5.33301 -46 16 -66s25.667 -35.667 45 -47c20 -12 43.667 -18 71 -18c20 0 38.667 3.66699 56 11s32.666 16.666 45.999 27.999s24 23 32 35v1zM330.998 515.998l0.000976562 -1.00098v0v0c0 19.333 -3 37 -9 53c-5.33301 16 -14.666 29 -27.999 39
c-12.667 9.33301 -29 14 -49 14c-26.667 0 -47.334 -8.66699 -62.001 -26s-22 -42.666 -22 -75.999c0 -16 4 -32 12 -48s20.667 -33 38 -51l32 -34c34.667 18.667 58.667 38.667 72 60s19.666 44.333 18.999 69z" />
    <glyph glyph-name="quotesingle" unicode="'" horiz-adv-x="227" 
d="M146 480v-1v0h-64v246h64v-246v1z" />
    <glyph glyph-name="parenleft" unicode="(" horiz-adv-x="256" 
d="M279 -116l-0.000976562 -1v0l-16 -35c-37.333 17.333 -70.666 44 -99.999 80c-29.333 36.667 -52.666 80.334 -69.999 131.001c-9.33301 26.667 -16.666 56 -21.999 88s-9.33301 64.333 -12 97c-2.66699 32 -4 62 -4 90c0 58.667 3.66699 109.667 11 153
c7.33301 44 17.666 82 30.999 114s28.666 60.333 45.999 85c16.667 24 35.334 45.333 56.001 64c21.333 18.667 43 33 65 43l16 -35c-30 -20 -56.333 -44.667 -79 -74s-40 -66.666 -52 -111.999c-8 -32 -14 -68.667 -18 -110s-6 -84.666 -6 -129.999
c-0.666992 -66.667 2.66602 -129.334 9.99902 -188.001c6.66699 -58.667 20 -109.334 40 -152.001c12 -25.333 26 -47.333 42 -66s35.667 -35.334 59 -50.001z" />
    <glyph glyph-name="parenright" unicode=")" horiz-adv-x="256" 
d="M200 296l0.00292969 -1v0v0c0 -58.667 -3.66699 -109.667 -11 -153c-6.66699 -44 -16.667 -82 -30 -114s-28.666 -60.333 -45.999 -85c-16.667 -24 -35.334 -45.333 -56.001 -64c-21.333 -18.667 -43 -33 -65 -43l-16 35c30 20 56.333 44.667 79 74s40 66.666 52 111.999
c8 32 14 68.667 18 110s6 84.666 6 129.999c0 66.667 -3.66699 129.334 -11 188.001s-21 109.334 -41 152.001c-12 25.333 -26 47.333 -42 66s-35.667 35.334 -59 50.001l18 35c37.333 -17.333 70.666 -44 99.999 -80c29.333 -36.667 52.666 -80.334 69.999 -131.001
c9.33301 -26.667 16.666 -56 21.999 -88s9.33301 -64.333 12 -97c2.66699 -32 4 -62 4 -90z" />
    <glyph glyph-name="asterisk" unicode="*" horiz-adv-x="391" 
d="M368 559v-1v0l-125 -43l78 -105l-44 -34l-80 110l-78 -110l-44 34l78 105l-126 43l16 52l127 -43v132h53v-132l127 43l16 -52z" />
    <glyph glyph-name="plus" unicode="+" horiz-adv-x="484" 
d="M433 225v-1v0h-158v-159h-64v159h-158v64h158v158h64v-158h158v-64v1z" />
    <glyph glyph-name="comma" unicode="," horiz-adv-x="260" 
d="M199 30l-0.00292969 -1.00195v0v0c0 -17.333 -3.33301 -34.666 -10 -51.999s-16 -34 -28 -50c-10 -13.333 -22.333 -26 -37 -38s-30 -22 -46 -30l-28 43c18.667 9.33301 33.334 21.333 44.001 36s17.334 31.334 20.001 50.001h-3h-7c-15.333 0.666992 -28 7 -38 19
s-15 27 -15 45c0.666992 20 7.33398 36.667 20.001 50c13.333 13.333 29.666 20 48.999 20c22.667 0 41.334 -8.66699 56.001 -26s22 -40 22 -68z" />
    <glyph glyph-name="hyphen" unicode="-" horiz-adv-x="272" 
d="M221 241v-1v0h-170v68h170v-68v1z" />
    <glyph glyph-name="period" unicode="." horiz-adv-x="249" 
d="M188 52v-1v0v0c0 -18 -6 -33 -18 -45s-26.667 -18 -44 -18c-18 0 -33 6 -45 18s-18 27 -18 45s6 33 18 45s27 18 45 18c17.333 0 32 -6 44 -18s18 -27 18 -45v1z" />
    <glyph glyph-name="slash" unicode="/" horiz-adv-x="351" 
d="M320 776v-1v0l-232 -926h-58l230 926h60v1z" />
    <glyph glyph-name="zero" unicode="0" horiz-adv-x="492" 
d="M454 486l0.000976562 -235c0 -77.333 -15 -138.333 -45 -183c-36 -54.667 -90.333 -82 -163 -82c-74 0 -128.667 27.667 -164 83c-29.333 45.333 -44 107 -44 185v228c0 77.333 15 139.333 45 186c35.333 56 89.666 84 162.999 84c71.333 0 125.333 -27.667 162 -83
c30.667 -46.667 46 -107.667 46 -183zM369.001 240v258.001c0 118 -41.333 177 -124 177s-124 -59 -124 -177v-274c0 -44.667 8.66699 -81.334 26 -110.001c22 -35.333 54.333 -53 97 -53c83.333 0 125 59.667 125 179z" />
    <glyph glyph-name="one" unicode="1" horiz-adv-x="492" 
d="M294 737v-660h102v-77h-292v77h108v600h-82v60h164z" />
    <glyph glyph-name="two" unicode="2" horiz-adv-x="492" 
d="M52 0v84.999l219 259c58.667 70 88 129.667 88 179c0 54 -11.5 93 -34.5 117s-50.167 36 -81.5 36c-39.333 0 -69 -18 -89 -54c-17.333 -30 -26 -66 -26 -108h-76c0 66 16 121 48 165c36.667 48.667 86.667 73 150 73c62.667 0 110.667 -22.667 144 -68
c29.333 -39.333 44 -91.666 44 -156.999c0 -67.333 -29 -134 -87 -200l-217 -248h304v-79h-386z" />
    <glyph glyph-name="three" unicode="3" horiz-adv-x="492" 
d="M46 226l81 -0.000976562c0 -111.333 37.667 -167 113 -167c81.333 0 122 52.667 122 158c0 130.667 -43.667 196 -131 196c-17.333 0 -37.333 -5.33301 -60 -16l-25 50l168 216h-231v74h327v-70l-151 -185c123.333 -20 185 -105.667 185 -257
c0 -66 -16.667 -121.333 -50 -166c-36.667 -48.667 -87 -73 -151 -73c-56 0 -102.833 19.333 -140.5 58s-56.5 99.334 -56.5 182.001z" />
    <glyph glyph-name="four" unicode="4" horiz-adv-x="492" 
d="M389 134v-134h-78v134h-273v69l267 534h84v-534h63v-69h-63zM118 203h193v390z" />
    <glyph glyph-name="five" unicode="5" horiz-adv-x="492" 
d="M34 205l80 0.000976562c0 -48 8.66699 -83 26 -105c20 -24.667 53.333 -37 100 -37c37.333 0 69.166 13.5 95.499 40.5s39.5 74.167 39.5 141.5c0 117.333 -43 176 -129 176c-51.333 0 -88.666 -22.333 -111.999 -67l-72 19l56 364h281v-78h-222l-37 -213
c36.667 34 75 51 115 51c67.333 0 119 -26.333 155 -79c31.333 -46 47 -104 47 -174c0 -72.667 -18.667 -132.334 -56 -179.001c-40 -52.667 -95 -79 -165 -79c-66 0 -116.667 20.333 -152 61c-33.333 38 -50 90.667 -50 158z" />
    <glyph glyph-name="six" unicode="6" horiz-adv-x="492" 
d="M258 737h83l-144 -268c19.333 11.333 42.333 17 69 17c58.667 0 106 -26 142 -78c32 -47.333 48 -101.333 48 -162c0 -72 -17.333 -131.667 -52 -179c-38 -54 -91.333 -81 -160 -81c-65.333 0 -117.333 25.333 -156 76c-35.333 46.667 -53 103 -53 169
c0 64 30.333 152 91 264zM111 247c0 -58 13.167 -103.167 39.5 -135.5s57.5 -48.5 93.5 -48.5s66.833 13.833 92.5 41.5s38.5 73.5 38.5 137.5c0 43.333 -10.333 81 -31 113c-24 38 -56.667 57 -98 57c-40.667 0 -74 -18 -100 -54c-23.333 -32.667 -35 -69.667 -35 -111z
" />
    <glyph glyph-name="seven" unicode="7" horiz-adv-x="492" 
d="M424 660l-222 -660h-83l228 660h-264v77h341v-77z" />
    <glyph glyph-name="eight" unicode="8" horiz-adv-x="492" 
d="M132 217c0 -56.667 11.334 -97 34.001 -121s48.667 -36 78 -36c30 0 56.333 11.833 79 35.5s34 63.5 34 119.5c0 39.333 -8.33301 73.333 -25 102c-20.667 35.333 -49.334 53 -86.001 53c-38 0 -67 -17 -87 -51c-18 -28.667 -27 -62.667 -27 -102zM164.001 565
c0 -29.333 6 -55.666 18 -78.999c15.333 -28 36.333 -42 63 -42c28 0 49.333 13.667 64 41c13.333 22 20 48 20 78c0 42.667 -8.33301 72.667 -25 90s-35.667 26 -57 26c-29.333 0 -51.333 -12.333 -66 -37c-11.333 -20.667 -17 -46.334 -17 -77.001zM163.001 410
c-53.333 44 -79.999 95.333 -79.999 154c0 54 13 97.667 39 131c28.667 38 69.334 57 122.001 57c53.333 0 94.666 -18.667 123.999 -56c27.333 -34 41 -78.333 41 -133c0 -60.667 -28.333 -111.667 -85 -153c40 -22 68.333 -47.5 85 -76.5s25 -66.833 25 -113.5
c0 -65.333 -15 -119.333 -45 -162c-34 -48 -82.667 -72 -146 -72c-61.333 0 -109 23.667 -143 71c-30 42.667 -45 95.667 -45 159c0 46 8.16699 83.667 24.5 113s44.166 56.333 83.499 81z" />
    <glyph glyph-name="nine" unicode="9" horiz-adv-x="492" 
d="M231 0h-83.001l145 268c-20 -11.333 -43.333 -17 -70 -17c-58.667 0 -105.667 26.333 -141 79c-32 46.667 -48 100.667 -48 162c0 71.333 17 131 51 179c38 54 91.667 81 161 81c64.667 0 116.334 -25.667 155.001 -77c36 -46.667 54 -103 54 -169
c0 -63.333 -30.333 -151 -91 -263zM378.999 490c0 59.333 -13.167 104.833 -39.5 136.5s-57.5 47.5 -93.5 47.5c-35.333 0 -66 -14 -92 -42s-39 -73.333 -39 -136c0 -44 10 -82 30 -114c24 -37.333 57 -56 99 -56c40 0 73 17.667 99 53c24 32.667 36 69.667 36 111z" />
    <glyph glyph-name="colon" unicode=":" horiz-adv-x="248" 
d="M185 52c0 -18.667 -6 -34 -18 -46s-27.333 -18 -46 -18c-17.333 0 -32 6 -44 18c-11.333 12 -17 27 -17 45c0 18.667 6 34 18 46s27.333 18 46 18c17.333 0 32 -6 44 -18s18 -27 18 -45h-1zM186 375v-1v0v0c0 -18.667 -6 -34 -18 -46s-27 -18 -45 -18s-33 5.66699 -45 17
c-12 12 -18 26.667 -18 44c0 18.667 6 34 18 46s27.333 18 46 18c17.333 0 32 -6 44 -18s18 -27 18 -45v3z" />
    <glyph glyph-name="semicolon" unicode=";" horiz-adv-x="263" 
d="M202 22c0 -16.667 -3.00293 -33 -9.00293 -49c-6.66699 -16 -15.667 -31.333 -27 -46c-9.33301 -12 -20.666 -23.667 -33.999 -35c-14 -10.667 -28.333 -20 -43 -28l-26 42c18.667 8.66699 33.334 20 44.001 34s17.334 30.333 20.001 49h-6h-6c-14 0 -26 5.66699 -36 17
c-9.33301 10.667 -14 24.667 -14 42c0 19.333 6 35.333 18 48s27.333 19 46 19c22 0 39.667 -8.33301 53 -25c13.333 -16 20 -37.333 20 -64v-4zM186.997 379v-1v0v0c0 -18.667 -6 -34 -18 -46s-26.667 -18 -44 -18c-18 0 -33 6.33301 -45 19c-12 12 -18 27.333 -18 46
c0 17.333 6 31.333 18 42c12 11.333 27 17 45 17c17.333 0 32 -6 44 -18s18.333 -26.667 19 -44z" />
    <glyph glyph-name="less" unicode="&#x3c;" horiz-adv-x="325" 
d="M284 89v-1v0l-68 -44l-196 264l196 263l68 -44l-164 -219l164 -220v1z" />
    <glyph glyph-name="equal" unicode="=" horiz-adv-x="537" 
d="M52 360v60h434v-60h-434zM486 201v-1v0h-434v60h434v-60v1z" />
    <glyph glyph-name="greater" unicode="&#x3e;" horiz-adv-x="326" 
d="M305 309v-1v0l-196 -264l-68 44l164 220l-164 219l68 44l196 -263v1z" />
    <glyph glyph-name="question" unicode="?" horiz-adv-x="383" 
d="M329 567c0 -25.333 -3.99902 -47.3311 -11.999 -65.998s-17.333 -34.334 -28 -47.001c-10.667 -13.333 -20.667 -24 -30 -32l-20 -17c-17.333 -15.333 -29.333 -32 -36 -50c-7.33301 -18.667 -11 -38.667 -11 -60c0 -10.667 0.666992 -21.667 2 -33s3.33301 -23 6 -35
h-60c-2.66699 11.333 -4.66699 22.666 -6 33.999c-1.33301 12 -2 23.667 -2 35c0 28 4 54 12 78s20.333 44.667 37 62l38 33c12 10 22 21.667 30 35c8 14 12 33 12 57c0 25.333 -7.33301 46 -22 62s-34 24 -58 24c-21.333 0 -42 -4.33301 -62 -13
c-20 -8 -39.333 -19.333 -58 -34l-30 52c21.333 18.667 46.666 33.334 75.999 44.001s58.666 16 87.999 16c41.333 -0.666992 74.333 -14.334 99 -41.001s37.334 -63 38.001 -109zM236.001 53.002v-1v0v0c0 -16 -5.33301 -29.333 -16 -40s-24 -16 -40 -16
s-29.333 5.33301 -40 16s-16.334 24 -17.001 40c0.666992 16 6.33398 29.333 17.001 40s24 16 40 16s29.333 -5.33301 40 -16s16 -24 16 -40v1z" />
    <glyph glyph-name="at" unicode="@" horiz-adv-x="892" 
d="M831 281c0 -60.667 -8.66797 -113.001 -26.001 -157.001c-17.333 -44.667 -41.333 -79 -72 -103c-30 -24 -65 -36 -105 -36c-26.667 0 -47.667 4.66699 -63 14c-16 9.33301 -27.333 21.333 -34 36s-10 30 -10 46v12c0 4 0.333008 8 1 12
c-10.667 -18.667 -24.667 -36 -42 -52s-36.666 -29 -57.999 -39c-21.333 -10.667 -43.666 -16 -66.999 -16c-18.667 0 -36.667 5.33301 -54 16s-31.333 26.667 -42 48s-16 48.666 -16 81.999c0 41.333 6.66699 81 20 119s32 72 56 102s52.667 53.667 86 71s70 26 110 26
c24.667 0 47.334 -2.66699 68.001 -8c21.333 -6 40.666 -13.667 57.999 -23c-2.66699 -11.333 -6.33398 -26 -11.001 -44s-8.66699 -34.667 -12 -50l-39 -186c-2.66699 -10.667 -4.66699 -20.667 -6 -30s-2 -17.666 -2 -24.999c0 -20 4.66699 -34.333 14 -43
c9.33301 -9.33301 24 -14 44 -14c28 0.666992 51.667 11.667 71 33c18.667 21.333 33 50.333 43 87s15 77.667 15 123c0 57.333 -13.333 108.666 -40 153.999s-62.667 81.333 -108 108c-46 26.667 -98.667 40.334 -158 41.001c-46 0 -88.333 -10.333 -127 -31
c-38.667 -20 -72.667 -47.667 -102 -83s-52 -75.666 -68 -120.999c-16 -44.667 -24 -91.334 -24 -140.001c0.666992 -64 15 -120 43 -168s64.667 -85.333 110 -112c46 -26.667 96.667 -40 152 -40c28 0 54 2 78 6s44.667 8.66699 62 14l14 -56
c-20 -6.66699 -43.333 -11.667 -70 -15c-26.667 -4 -54 -6 -82 -6c-52 0 -100.667 8.33301 -146 25c-45.333 16 -85.333 40 -120 72s-61.667 71.333 -81 118c-20 46.667 -30 100.667 -30 162c0 60.667 10 117 30 169s48 97.667 84 137c35.333 38.667 77 69 125 91
s100 33 156 33c72.667 0 137 -14.667 193 -44s100 -70.666 132 -123.999s48.333 -116 49 -188zM565.999 396.999v-1v0v0c-6.66699 4 -14.667 7 -24 9s-19.333 3 -30 3c-30.667 0 -58 -8.66699 -82 -26c-24 -16.667 -44.333 -38.334 -61 -65.001s-29.667 -55.334 -39 -86.001
c-8.66699 -31.333 -13 -61.666 -13 -90.999s5.66699 -50.666 17 -63.999c11.333 -12.667 27.666 -19 48.999 -19c16.667 0 34.334 5.33301 53.001 16s36 26.667 52 48s27.667 48.333 35 81l41 196z" />
    <glyph glyph-name="A" unicode="A" horiz-adv-x="502" 
d="M501 0h-83l-56 216h-228l-59 -216h-75l200 702h104l198 -702h-1zM346 283v-1v0l-76 285l-20 72l-1 4l-20 -76l-76 -285h192z" />
    <glyph glyph-name="B" unicode="B" horiz-adv-x="534" 
d="M481 192c0 -38.667 -8.33496 -73.333 -25.002 -104s-40 -53 -70 -67c-10.667 -4.66699 -21.667 -8.33398 -33 -11.001s-25.666 -4.66699 -42.999 -6s-41 -2 -71 -2h-158v702h88c37.333 0 66 -0.666992 86 -2s35.667 -3.33301 47 -6s23 -5.66699 35 -9
c22.667 -6.66699 43 -18 61 -34c17.333 -16 31.333 -35 42 -57s16 -45 16 -69c-0.666992 -37.333 -11.667 -70 -33 -98s-50.666 -47.333 -87.999 -58c18.667 -4 36 -8.66699 52 -14s29.333 -12.666 40 -21.999c20 -18 34.333 -39.667 43 -65c8 -25.333 12 -51.333 12 -78h-1
zM403.998 200.001c0 20 -3.33301 39 -10 57c-6.66699 18.667 -16.667 34.334 -30 47.001c-13.333 13.333 -29.333 22 -48 26c-9.33301 1.33301 -20 2.66602 -32 3.99902c-11.333 1.33301 -22.333 2 -33 2h-98v-272h120c48 0 82 12 102 36s29.667 57.333 29 100z
M372.998 519.001l-0.00195312 -1v0v0c-0.666992 28 -8 52 -22 72c-13.333 20 -30.666 33.333 -51.999 40c-8 2.66699 -16.333 4.66699 -25 6c-9.33301 0.666992 -21.333 1 -36 1h-86v-240h96c25.333 0 45.333 2.33301 60 7s26.334 11.667 35.001 21
c8 9.33301 15.333 21.333 22 36c4 8 6.66699 17.333 8 28s2 21 2 31z" />
    <glyph glyph-name="C" unicode="C" horiz-adv-x="499" 
d="M467 39l0.000976562 -0.999023v0v0c-24.667 -18 -51 -30.333 -79 -37s-57.333 -10 -88 -10c-18.667 0 -39.334 3.33301 -62.001 10s-44.334 16.667 -65.001 30c-20 13.333 -36.667 29.333 -50 48c-16 22.667 -29.333 46 -40 70s-18.667 51.667 -24 83
c-5.33301 32 -8 70.667 -8 116c0 70.667 11 133.334 33 188.001s52.333 97.667 91 129c38.667 30.667 83 46.334 133 47.001c29.333 0 57.333 -5.33301 84 -16s50.667 -25.334 72 -44.001l-42 -49c-18.667 15.333 -36.667 27 -54 35s-37.333 12 -60 12
c-34 0 -62.333 -9 -85 -27c-22.667 -17.333 -40.667 -41.333 -54 -72s-23 -65.334 -29 -104.001c-6 -38 -9 -77.667 -9 -119c0 -44 5.33301 -84 16 -120s26 -66.667 46 -92c16 -20.667 34.333 -36.334 55 -47.001c21.333 -11.333 44 -17 68 -17c22 0 42.333 2.66699 61 8
s37.334 15.333 56.001 30l35 -52z" />
    <glyph glyph-name="D" unicode="D" horiz-adv-x="555" 
d="M505 349c0 -51.333 -6.00098 -100.998 -18.001 -148.998c-12.667 -48 -33.667 -89.333 -63 -124c-20 -24 -45 -42.667 -75 -56c-29.333 -13.333 -64.666 -20 -105.999 -20h-160v702h116c50 0 93 -6 129 -18s66 -30 90 -54c30.667 -30.667 52.667 -69.334 66 -116.001
s20 -101.334 20 -164.001zM423.999 339.002v-0.000976562c0 52.667 -4 98.334 -12 137.001c-8.66699 38.667 -21 70 -37 94c-11.333 15.333 -25.333 28.333 -42 39c-17.333 10.667 -35.333 18.667 -54 24c-18 5.33301 -35 8 -51 8h-74v-576h82c38.667 0 70.334 8 95.001 24
s43.667 37.333 57 64s22.666 56 27.999 88c5.33301 32.667 8 65.667 8 99v-1z" />
    <glyph glyph-name="E" unicode="E" horiz-adv-x="445" 
d="M424 1v-1v0h-343v702h334l-12 -64h-248v-240h210v-64h-210v-268h270v-66z" />
    <glyph glyph-name="F" unicode="F" horiz-adv-x="393" 
d="M404 704v-1v0l-12 -64h-236v-240h196v-62h-196v-337h-74v702h322v2z" />
    <glyph glyph-name="G" unicode="G" horiz-adv-x="558" 
d="M481 632l0.00292969 -1.00195v0l-37 -43c-22.667 20 -45.334 34.667 -68.001 44s-45.667 14 -69 14c-40 0 -73.333 -12.667 -100 -38s-46.334 -60.666 -59.001 -105.999s-19 -98 -19 -158c0 -57.333 6 -108 18 -152s32.667 -78.667 62 -104s69.333 -38 120 -38
c17.333 0 33.666 3.33301 48.999 10c14.667 6 27.334 12.333 38.001 19v222h-123l-14 64h206v-318c-22 -17.333 -47.667 -31.333 -77 -42c-29.333 -11.333 -61.333 -17 -96 -17c-41.333 0 -77.333 7.33301 -108 22s-57.334 36.667 -80.001 66c-24 29.333 -42.333 66 -55 110
c-13.333 44 -20 100 -20 168c0 66.667 8 123.667 24 171s39.667 87 71 119c22 22.667 46.333 39.334 73 50.001s56 16 88 16c33.333 0 65.333 -6.66699 96 -20s57 -31.333 79 -54z" />
    <glyph glyph-name="H" unicode="H" horiz-adv-x="565" 
d="M483 1v-1v0h-72v344h-257v-344h-72v702h72v-298h257v298h72v-702v1z" />
    <glyph glyph-name="I" unicode="I" horiz-adv-x="236" 
d="M154 1v-1v0h-72v702h72v-702v1z" />
    <glyph glyph-name="J" unicode="J" horiz-adv-x="243" 
d="M159 701l-0.00195312 -1.00195v0v-582c0 -29.333 -0.666992 -53.666 -2 -72.999s-3.66602 -35.666 -6.99902 -48.999s-8 -26 -14 -38c-9.33301 -20 -22.666 -37 -39.999 -51s-38 -25.667 -62 -35l-35 46c16 7.33301 30 16 42 26c11.333 10.667 22 26 32 46
c6 10.667 9.66699 25.667 11 45c1.33301 20 2 47.667 2 83v584h74z" />
    <glyph glyph-name="K" unicode="K" horiz-adv-x="488" 
d="M396 0l-234 372l236 331h90l-246 -330l244 -373h-90zM156 1v-1v0h-74v702h74v-702v1z" />
    <glyph glyph-name="L" unicode="L" horiz-adv-x="407" 
d="M396 67v-1v0l-10 -66h-304v702h72v-636h242v1z" />
    <glyph glyph-name="M" unicode="M" horiz-adv-x="717" 
d="M656 -1l0.000976562 -0.999023v0h-74l-34 515c-1.33301 14.667 -2.33301 30.667 -3 48c-0.666992 18 -1 34.333 -1 49v29c-1.33301 -5.33301 -3.33301 -15.333 -6 -30s-5.66699 -30 -9 -46s-6.33301 -28.667 -9 -38l-131 -524h-62l-120 498c-4.66699 17.333 -9 35 -13 53
c-4.66699 18.667 -8.33398 36 -11.001 52c-3.33301 15.333 -5.33301 27.666 -6 36.999c0 -11.333 -0.333008 -26.333 -1 -45s-1.66699 -36.667 -3 -54c-1.33301 -18 -2.33301 -32 -3 -42l-34 -500h-72l54 702h106l112 -463c3.33301 -14 7 -32 11 -54
c4 -21.333 8 -44.666 12 -69.999l1 -5c1.33301 13.333 4 30.666 8 51.999s8.66699 44.333 14 69l114 471h108l52 -702v-1z" />
    <glyph glyph-name="N" unicode="N" horiz-adv-x="570" 
d="M489 0v-1v0h-78l-192 432l-38 90l-35 88c2 -20 3.66699 -42 5 -66s2.33301 -48 3 -72c1.33301 -23.333 2 -44.333 2 -63v-408h-74v702h87l203 -458c10.667 -25.333 20.667 -51.333 30 -78c10 -26.667 18.333 -50 25 -70c-2.66699 34.667 -4.66699 65 -6 91
s-2.33301 49.667 -3 71v62v382h70v-702h1z" />
    <glyph glyph-name="O" unicode="O" horiz-adv-x="593" 
d="M542 340c0 -66.667 -6.99805 -122.666 -20.998 -167.999c-14.667 -45.333 -37.334 -84 -68.001 -116c-22.667 -23.333 -46.334 -40.333 -71.001 -51s-52.667 -16 -84 -16c-37.333 0 -70.666 8 -99.999 24s-54 37.667 -74 65c-24 32 -42 71.333 -54 118s-18 100 -18 160
c0 74.667 9.66699 138.667 29 192s47 94.666 83 123.999s79.333 44 130 44c35.333 -0.666992 65.666 -7 90.999 -19s46 -26.667 62 -44c16.667 -17.333 29.667 -34.666 39 -51.999c18.667 -32.667 32.667 -70.334 42 -113.001s14 -92 14 -148zM463.002 328.001
l0.00195312 -0.999023v0v0c0 52 -2.33301 97.333 -7 136c-5.33301 38.667 -13 70.667 -23 96c-10.667 26.667 -27.334 48.667 -50.001 66s-51.667 26.333 -87 27c-29.333 0 -55.333 -6.66699 -78 -20c-22.667 -14 -40 -33.667 -52 -59c-10.667 -22.667 -18.667 -51 -24 -85
c-4.66699 -34 -7 -72.667 -7 -116c0 -36 1.33301 -70.333 4 -103c2.66699 -32 7 -61 13 -87c5.33301 -26.667 12 -48 20 -64c12 -22.667 30 -40.667 54 -54s49 -20 75 -20c25.333 0 47.333 4.66699 66 14c18.667 10 34.667 25 48 45
c15.333 21.333 26.666 49.666 33.999 84.999c7.33301 36 11 82.667 11 140h3z" />
    <glyph glyph-name="P" unicode="P" horiz-adv-x="483" 
d="M461 502c0 -35.333 -4.00098 -66.332 -12.001 -92.999c-8.66699 -26.667 -23 -50.334 -43 -71.001s-42.333 -35 -67 -43c-25.333 -8 -53.333 -12 -84 -12h-102v-282h-72v702h144c33.333 0 64 -2.33301 92 -7c28 -5.33301 50.333 -14 67 -26
c26.667 -19.333 46.334 -43.333 59.001 -72c13.333 -28 20 -60 20 -96h-2zM382.999 491.001l-0.000976562 -0.998047v0v0c0 26 -3 49 -9 69c-6.66699 20 -16 36 -28 48s-28 20.667 -48 26s-44.667 8 -74 8h-70v-293h82c26 0 49 2.66699 69 8s35.333 14.666 46 27.999
s18.334 28.666 23.001 45.999c5.33301 17.333 8 36 8 56z" />
    <glyph glyph-name="Q" unicode="Q" horiz-adv-x="593" 
d="M616 -50l-27.998 -63.998c-4.66699 -2 -11 -3.66699 -19 -5s-18 -2 -30 -2c-13.333 0 -27 3 -41 9c-14.667 5.33301 -28.667 12 -42 20s-25 15.333 -35 22c-21.333 14.667 -42 26 -62 34s-42 14 -66 18c-38 0.666992 -71 9.66699 -99 27
c-27.333 17.333 -50.333 38.333 -69 63c-24 32 -42 71.333 -54 118c-12.667 46.667 -19 100 -19 160c0 74.667 9.66699 138.667 29 192s47 94.666 83 123.999s79.333 44 130 44c32 0 60.333 -5.33301 85 -16c25.333 -10.667 46.666 -24.667 63.999 -42
c18 -17.333 32.333 -36 43 -56c18.667 -33.333 32.667 -71 42 -113s14 -91 14 -147c0 -66.667 -7.33301 -122.667 -22 -168s-37.334 -84.333 -68.001 -117c-6.66699 -6.66699 -13.334 -12.667 -20.001 -18c-7.33301 -5.33301 -15 -10 -23 -14c13.333 -4.66699 28 -11 44 -19
s30 -16 42 -24c8.66699 -6 20 -12.333 34 -19s30.333 -10 49 -10c8 0 15.333 0.666992 22 2s11.334 2.66602 14.001 3.99902zM461.002 327.002l0.000976562 -1.00098v0v0c0 52 -2.66699 97.667 -8 137c-5.33301 38.667 -13 70.667 -23 96c-6.66699 16 -15.667 31 -27 45
s-26 25.667 -44 35c-18 8.66699 -39.667 13 -65 13c-28.667 0 -54.334 -6.66699 -77.001 -20s-40 -32.666 -52 -57.999c-11.333 -22.667 -19.666 -51.334 -24.999 -86.001c-5.33301 -34 -8 -73 -8 -117c0 -36 1.66699 -70 5 -102s8 -60.667 14 -86c6 -26 13 -47 21 -63
c12 -23.333 30 -41.666 54 -54.999s49.333 -20 76 -20c25.333 0 47.333 4.33301 66 13c18.667 9.33301 34.667 24 48 44c15.333 22 26.666 51 33.999 87c7.33301 36.667 11 83 11 139v-1z" />
    <glyph glyph-name="R" unicode="R" horiz-adv-x="490" 
d="M470 -2h-88.002c-6 16 -16.333 37.667 -31 65c-14.667 28 -32.667 59.667 -54 95c-21.333 36 -45.666 74 -72.999 114c-11.333 17.333 -22.333 29.666 -33 36.999s-23.334 11 -38.001 11v-320h-72v702h142c41.333 0 74 -4 98 -12s43.333 -19 58 -33
c14.667 -12.667 28 -31 40 -55s18.667 -54.667 20 -92c-0.666992 -58.667 -15.667 -104.667 -45 -138s-68.666 -50.333 -117.999 -51h-9c14.667 -13.333 27 -27.666 37 -42.999c10.667 -15.333 19.334 -28.333 26.001 -39c12.667 -20 31 -50.667 55 -92l85 -147v-2z
M357.998 514v-0.999023v0v0c0 24 -5.33301 46.667 -16 68s-24.667 36.666 -42 45.999c-9.33301 4.66699 -20.333 8.33398 -33 11.001s-27 4 -43 4h-70v-270h80c17.333 0 32 1.33301 44 4c11.333 2.66699 21 6.66699 29 12s16 12 24 20c10 10.667 17.667 24.667 23 42
s8 37.666 8 60.999z" />
    <glyph glyph-name="S" unicode="S" horiz-adv-x="510" 
d="M455 188l0.00195312 -1.00293v0v0c-0.666992 -42 -11 -77.667 -31 -107s-46.667 -52 -80 -68s-70.666 -24 -111.999 -24c-36 0 -70 5.33301 -102 16s-63 26.667 -93 48l36 60c25.333 -21.333 50.666 -36.666 75.999 -45.999s53.333 -14 84 -14c41.333 0 75 10 101 30
c26.667 20 40.334 50.333 41.001 91c0.666992 30.667 -6.33301 56.334 -21 77.001c-14 20.667 -38.333 39.667 -73 57l-75 38c-24 12 -47.333 26 -70 42c-22.667 15.333 -41.334 34.666 -56.001 57.999c-14.667 22.667 -22.334 51.334 -23.001 86.001c0 34.667 8 66 24 94
s38.667 50.333 68 67c29.333 17.333 64 26 104 26c33.333 0 65.333 -5.66699 96 -17s60.667 -28.333 90 -51l-36 -54c-18.667 14.667 -35.667 26.334 -51 35.001c-15.333 8 -30.333 14 -45 18s-30.667 6 -48 6c-38.667 -0.666992 -68.667 -10.667 -90 -30s-32 -45 -32 -77
c0 -22 2.66699 -40.333 8 -55s15.333 -28 30 -40c14 -12 34 -24.333 60 -37l80 -41c29.333 -14.667 54.666 -30.667 75.999 -48s38 -37.333 50 -60s18 -50 18 -82z" />
    <glyph glyph-name="T" unicode="T" horiz-adv-x="416" 
d="M426 703v-1v0l-2 -66h-168v-636h-72v636h-164v66h406v1z" />
    <glyph glyph-name="U" unicode="U" horiz-adv-x="559" 
d="M484 698l0.000976562 -0.998047v0v-508c0 -28 -1.33301 -51.333 -4 -70s-7.33398 -34.667 -14.001 -48s-16 -26 -28 -38c-18.667 -18 -41 -31 -67 -39c-25.333 -8 -56.333 -12 -93 -12c-46.667 0 -84.667 8 -114 24s-52 41.333 -68 76c-8 17.333 -13 35.333 -15 54
s-3 36 -3 52v512h72v-482c0 -18 0.666992 -36.333 2 -55s4 -34 8 -46c4 -10.667 10.667 -21.334 20 -32.001s22 -19.334 38 -26.001s36.333 -10 61 -10c25.333 0 47.333 3.66699 66 11c18.667 8 32.667 19.333 42 34c10 16 16.333 32.667 19 50s4 37.333 4 60v498h72z" />
    <glyph glyph-name="V" unicode="V" horiz-adv-x="487" 
d="M488 705l0.000976562 -1v0l-206 -702h-76l-206 702h76l130 -456c5.33301 -21.333 10.666 -44.666 15.999 -69.999l14 -68c4 -20 6.66699 -32.667 8 -38c1.33301 7.33301 4 19.666 8 36.999l14 60l19 71l131 462h72v3z" />
    <glyph glyph-name="W" unicode="W" horiz-adv-x="698" 
d="M693 699l0.000976562 -0.999023v0l-138 -702h-100l-74 390c-9.33301 48 -16.666 88.667 -21.999 122c-4.66699 33.333 -8.33398 64 -11.001 92c-0.666992 -5.33301 -2 -15.333 -4 -30c-2.66699 -15.333 -5.33398 -33 -8.00098 -53
c-2.66699 -20.667 -5.66699 -41.667 -9 -63s-6.66602 -41.333 -9.99902 -60l-72 -396h-98l-142 702h78l76 -410l12 -71c4 -24.667 7.33301 -48.334 10 -71.001l7 -58c1.33301 -16 2.33301 -26 3 -30c0 2 1.33301 10.333 4 25s5.66699 32.667 9 54c4 21.333 8 44 12 68
s8 46 12 66l80 428h86l83 -436c5.33301 -29.333 10 -58 14 -86s7.33301 -52.667 10 -74s4.66699 -36 6 -44c0.666992 6 2.66699 21 6 45s7.66602 52.667 12.999 86l17 102l76 408h74v-3z" />
    <glyph glyph-name="X" unicode="X" horiz-adv-x="469" 
d="M468 1v-1v0h-83l-156 328l-148 -328h-82l184 377l-165 326h84l125 -268l120 268h82l-154 -320l194 -383z" />
    <glyph glyph-name="Y" unicode="Y" horiz-adv-x="452" 
d="M462 703l0.000976562 -0.999023v0l-198 -429v-274h-76v278l-198 424h88l116 -268c6.66699 -14.667 12.667 -29.334 18 -44.001s10.666 -30.334 15.999 -47.001l17 48c5.33301 14.667 11 29.334 17 44.001l116 268h84v1z" />
    <glyph glyph-name="Z" unicode="Z" horiz-adv-x="440" 
d="M411 68v-1.00098v0l-16 -66h-362v60l262 505l14 27l12 21l15 25c-11.333 -1.33301 -23 -2 -35 -2c-11.333 -0.666992 -22.333 -1 -33 -1h-228l20 66h348v-66l-255 -498c-7.33301 -14.667 -14.333 -27.667 -21 -39l-21 -36c6.66699 0.666992 16 1.33398 28 2.00098
s23 1 33 1h238z" />
    <glyph glyph-name="bracketleft" unicode="[" horiz-adv-x="250" 
d="M230 -158v-1v0h-148v910h148v-56h-83v-799h83v-56v2z" />
    <glyph glyph-name="backslash" unicode="\" horiz-adv-x="344" 
d="M334 -17v-1v0l-56 -24l-268 786l56 22l268 -784v1z" />
    <glyph glyph-name="bracketright" unicode="]" horiz-adv-x="250" 
d="M168 -161h-148v56h83v799h-83v56h148v-910v-1z" />
    <glyph glyph-name="asciicircum" unicode="^" horiz-adv-x="573" 
d="M514 283v-1v0h-64l-162 368l-164 -368h-62l198 444h54l198 -444z" />
    <glyph glyph-name="underscore" unicode="_" horiz-adv-x="445" 
d="M446 -58v-1v0h-446v60h446v-60v1z" />
    <glyph glyph-name="grave" unicode="`" horiz-adv-x="284" 
d="M253 625v-1v0l-22 -42l-200 100l38 70l184 -128v1z" />
    <glyph glyph-name="a" unicode="a" horiz-adv-x="461" 
d="M414 29l-34.001 -53.0039c-15.333 5.33301 -28.333 14.666 -39 27.999s-18 29 -22 47c-21.333 -24 -42 -41.333 -62 -52s-42.667 -16 -68 -16c-36 0.666992 -64.333 8.33398 -85 23.001c-21.333 14.667 -36.333 33.334 -45 56.001c-8.66699 22 -13 44.667 -13 68
c0.666992 58 21 102.333 61 133c40.667 30.667 98.334 46 173.001 46h16h15v36c0 22.667 -1 41.334 -3 56.001s-5.66699 26 -11 34c-7.33301 9.33301 -15.666 16.333 -24.999 21s-20.666 7 -33.999 7c-17.333 0 -35 -2.66699 -53 -8s-34.667 -12.333 -50 -21
c-16 -8.66699 -28.667 -18 -38 -28l-37 52c29.333 22.667 59.666 39.334 90.999 50.001s63 16 95 16c30.667 0 56.334 -6.66699 77.001 -20c21.333 -13.333 36.666 -33.333 45.999 -60c4 -10.667 6.66699 -24.667 8 -42s2 -40.666 2 -69.999v-39c0 -20 -0.333008 -42 -1 -66
s-1 -45.333 -1 -64v-31c0 -20 1 -36 3 -48s5.66699 -22 11 -30c5.33301 -7.33301 12.666 -14 21.999 -20zM307.999 123.996l0.000976562 -1.00098v0l2 139c-5.33301 0.666992 -11.333 1 -18 1h-17c-50.667 0 -88.667 -10.667 -114 -32s-38 -51.666 -38 -90.999
c0 -30.667 6.33301 -54.667 19 -72c13.333 -17.333 32.666 -26 57.999 -26c22.667 0 43.667 7.33301 63 22c19.333 14 34.333 33.333 45 58v2z" />
    <glyph glyph-name="b" unicode="b" horiz-adv-x="500" 
d="M450 263c0 -52 -6.99902 -99.332 -20.999 -141.999s-35 -76 -63 -100c-12.667 -10.667 -26.667 -19 -42 -25c-14.667 -5.33301 -31.334 -8 -50.001 -8c-29.333 0 -54 6 -74 18s-36 28 -48 48c-1.33301 -10.667 -2.66602 -20 -3.99902 -28s-4.33301 -17 -9 -27h-70
c5.33301 12 8.66602 28 9.99902 48c2 20 3 46.667 3 80v502c0 18.667 -0.666992 36.667 -2 54s-4 34 -8 50l70 16c4 -19.333 6.66699 -39 8 -59s2 -41 2 -63v-119v-22c0 -8 -0.666992 -19.333 -2 -34c14.667 18.667 32 34.667 52 48s45.333 20.333 76 21
c38.667 0 70.667 -11.333 96 -34c25.333 -22 44 -52.333 56 -91s18 -83.334 18 -134.001zM374.001 265.001v-0.999023v0v0c0 33.333 -2 62 -6 86s-10.667 43.333 -20 58c-9.33301 14 -21.333 25 -36 33s-30.667 12 -48 12c-22.667 0 -44 -6 -64 -18s-36 -27.667 -48 -47
v-275c12 -17.333 28 -32 48 -44c20 -11.333 40.667 -17 62 -17c13.333 -0.666992 27.333 2.33301 42 9c15.333 6 29 19.333 41 40c6.66699 13.333 12 26.666 16 39.999c4 14 7 31 9 51c1.33301 20 2 45.333 2 76z" />
    <glyph glyph-name="c" unicode="c" horiz-adv-x="397" 
d="M376 53l-0.000976562 -1.00195v0v0c-20 -24 -40.667 -40.667 -62 -50s-45.666 -14 -72.999 -14c-32 0 -60 6 -84 18s-43.667 30.667 -59 56c-14.667 24 -25.334 51.333 -32.001 82s-10 65 -10 103c0 54.667 6 99.334 18 134.001c12 34 27.667 61.667 47 83
c17.333 20 36 35 56 45c20 9.33301 42 14 66 14c28 0 51.667 -4.66699 71 -14s36 -21.333 50 -36l-36 -48c-14 13.333 -27.667 22.666 -41 27.999s-28.666 8 -45.999 8s-33.333 -4.66699 -48 -14s-27 -24.666 -37 -45.999c-8 -17.333 -14 -34.666 -18 -51.999
s-6.66699 -35.666 -8 -54.999c-1.33301 -18.667 -2 -40.334 -2 -65.001c0 -34.667 4 -66 12 -94s20.333 -50.333 37 -67c16 -16 36.333 -24 61 -24c18 0 35 4 51 12s30.333 20.667 43 38l40 -43z" />
    <glyph glyph-name="d" unicode="d" horiz-adv-x="500" 
d="M429 -5l-71.998 0.00195312c-2.66699 6 -5 13.667 -7 23s-3.33301 19.333 -4 30c-14 -18.667 -30.333 -33.334 -49 -44.001s-41.334 -16 -68.001 -16c-57.333 0.666992 -102 23.334 -134 68.001c-31.333 45.333 -47 109 -47 191c0 54.667 8 101.667 24 141
s39.333 71 70 95c14 11.333 28.333 19.666 43 24.999s30 8 46 8c24.667 0 47 -5.33301 67 -16s36.667 -25.334 50 -44.001v38v40v214l70 -12v-570c0 -44 1 -79 3 -105c1.33301 -26 4.66602 -46.333 9.99902 -61zM348.002 122.002v-1.00195v0v288
c-10.667 16.667 -24.667 29.334 -42 38.001s-39 13 -65 13c-17.333 0 -33 -4.66699 -47 -14c-14.667 -9.33301 -26.667 -22.666 -36 -39.999c-10.667 -18.667 -18 -40 -22 -64s-6 -53.667 -6 -89c0 -30 1 -57.667 3 -83c2 -24.667 7 -44.334 15 -59.001
c11.333 -21.333 24 -36.666 38 -45.999c13.333 -9.33301 30 -14 50 -14c15.333 0 30.333 2.66699 45 8s28 13 40 23s20.667 22.667 26 38z" />
    <glyph glyph-name="e" unicode="e" horiz-adv-x="450" 
d="M410 242h-278c0 -32 1.33301 -58.333 4 -79c2.66699 -21.333 8.66699 -40 18 -56c12.667 -22 28.667 -38 48 -48s40.333 -15 63 -15c21.333 0 40.666 4.33301 57.999 13c17.333 8 33.333 19.333 48 34l28 -42c-20 -20.667 -42.667 -36.334 -68 -47.001
s-52.666 -16 -81.999 -16c-62 0.666992 -110.333 25 -145 73s-52.334 114.667 -53.001 200c0 42.667 4 79.334 12 110.001c8 31.333 21.333 59.666 40 84.999c18 24 38.333 41.333 61 52s47.334 16 74.001 16c24 0 46.667 -4.66699 68 -14c21.333 -10 39.333 -24 54 -42
c12 -14.667 21.333 -30.667 28 -48c7.33301 -17.333 12.333 -38.666 15 -63.999c3.33301 -25.333 5 -58 5 -98v-11zM333 299l0.000976562 -0.999023v0v0c0 28 -1.33301 52.667 -4 74c-2.66699 22 -7.33398 39.333 -14.001 52c-8 14 -18.667 25.333 -32 34
c-13.333 8 -30 12 -50 12c-34.667 -0.666992 -60 -16.334 -76 -47.001s-24.667 -72.667 -26 -126h204z" />
    <glyph glyph-name="f" unicode="f" horiz-adv-x="256" 
d="M310 714l0.000976562 -0.999023v0l-28 -50c-9.33301 5.33301 -19.333 9.66602 -30 12.999s-22 5 -34 5c-20 0 -35.333 -8 -46 -24c-10.667 -16.667 -16 -39.667 -16 -69v-81h123l-22 -54h-102v-454h-74v454h-42v54h42v82c0 25.333 2.66699 46.333 8 63
c5.33301 16 11.666 29 18.999 39c8 10 15.333 17.667 22 23c10.667 9.33301 22.667 16 36 20s28 6 44 6c19.333 0 37 -2 53 -6s30.667 -10.667 44 -20h3z" />
    <glyph glyph-name="g" unicode="g" horiz-adv-x="439" 
d="M451 463c-12 -9.33301 -23.9941 -15.998 -35.9941 -19.998c-11.333 -4 -24.333 -6 -39 -6c-5.33301 0 -10.666 0.666992 -15.999 2s-10.333 3 -15 5c8.66699 -12.667 15 -26.334 19 -41.001c4.66699 -14.667 7 -30 7 -46c0 -26.667 -5.33301 -53.334 -16 -80.001
s-27 -48.334 -49 -65.001c-12 -8.66699 -25.333 -14.334 -40 -17.001c-14.667 -3.33301 -29.334 -5 -44.001 -5c-23.333 -9.33301 -41 -17.666 -53 -24.999s-20 -13.666 -24 -18.999s-6 -10 -6 -14c0.666992 -10.667 5 -18 13 -22c7.33301 -4 15.666 -6 24.999 -6h66
c28 0 50.667 -2 68 -6s32.666 -11.333 45.999 -22c17.333 -14 29.666 -29.667 36.999 -47c8 -17.333 12 -36.666 12 -57.999c0 -36 -7.33301 -66 -22 -90s-35.334 -42 -62.001 -54s-57.334 -18 -92.001 -18c-20.667 0 -42.334 2 -65.001 6c-22 4 -42.667 10.667 -62 20
s-35 22.333 -47 39c-12 17.333 -18 38.666 -18 63.999c0 9.33301 0.666992 18.666 2 27.999s3.33301 18.333 6 27l73 7c-4 -6.66699 -7.33301 -14 -10 -22s-4 -16 -4 -24c0 -23.333 5.33301 -41.666 16 -54.999s24.667 -22.666 42 -27.999s36 -8 56 -8c32 0 58 8 78 24
s30.333 40.333 31 73c0 24 -4.66699 42 -14 54s-22 20 -38 24s-34.333 6 -55 6h-27h-41c-13.333 0 -26.666 2 -39.999 6s-24.333 11 -33 21s-13 23.667 -13 41c0 16 4 29.667 12 41c8 10.667 18.333 20 31 28c12.667 7.33301 26 13.333 40 18
c-31.333 12 -56.333 31.333 -75 58s-28.334 56.667 -29.001 90c0 33.333 6.66699 62.666 20 87.999c13.333 26 32 46.333 56 61s53 22 87 22c18.667 0 35.334 -2.33301 50.001 -7l41 -14c13.333 -4 28 -6 44 -6c12 0 22.667 2 32 6s18.666 10 27.999 18l46 -50z
M291.006 357.002v-1.00098v0v0c0 20 -2 38 -6 54s-12 28.667 -24 38s-29.333 14 -52 14s-40 -5 -52 -15c-12 -10.667 -20.333 -24.667 -25 -42c-4.66699 -16.667 -7 -35 -7 -55c-0.666992 -30.667 5 -55.667 17 -75c12 -20 34.667 -30 68 -30c21.333 0 38 5 50 15
s20 23 24 39c4 16.667 6 34.334 6 53.001z" />
    <glyph glyph-name="h" unicode="h" horiz-adv-x="500" 
d="M417 3l-0.00195312 -1v0h-68v350c0 18.667 -1.33301 34 -4 46s-7 21.333 -13 28c-5.33301 6.66699 -12.666 12 -21.999 16s-19.666 6 -30.999 6c-22 0 -44.333 -6 -67 -18s-43.667 -31.333 -63 -58v-373h-70v630c0 23.333 -1.33301 43.666 -4 60.999
c-2 17.333 -4.33301 32 -7 44l69 14c3.33301 -13.333 6 -30 8 -50c2.66699 -20 4 -43.667 4 -71v-117c0 -12.667 -0.333008 -24 -1 -34c0 -10.667 -0.666992 -21 -2 -31c20 21.333 42.667 38 68 50s52.666 18 81.999 18c20 0 38 -3.66699 54 -11
c16.667 -7.33301 30.334 -17.666 41.001 -30.999c10.667 -14.667 17.667 -31.667 21 -51c4 -18.667 6 -36.667 6 -54v-366z" />
    <glyph glyph-name="i" unicode="i" horiz-adv-x="237" 
d="M82 0v512l72 10v-522h-72zM174 661v-1v0v0c0 -16.667 -5.66699 -30.667 -17 -42c-10.667 -11.333 -24.667 -17 -42 -17c-16.667 0 -30.334 5.66699 -41.001 17c-11.333 11.333 -17 25.333 -17 42s5.66699 30.667 17 42c10.667 11.333 24.334 17 41.001 17
c17.333 0 31.333 -5.66699 42 -17c11.333 -11.333 17 -25.333 17 -42v1z" />
    <glyph glyph-name="j" unicode="j" horiz-adv-x="236" 
d="M156 524v-516c0 -22.667 -1 -43.667 -3 -63s-5.66699 -36 -11 -50c-8 -23.333 -19.333 -43 -34 -59c-14.667 -15.333 -32.667 -28.333 -54 -39l-38 46c20 10 34.667 21.667 44 35s15.333 30 18 50s4 44.667 4 74v508l72 14h2zM172 661v-1v0v0
c0 -16.667 -5.66699 -30.667 -17 -42c-10.667 -11.333 -24.667 -17 -42 -17c-16.667 0 -30.334 5.66699 -41.001 17c-11.333 11.333 -17 25.333 -17 42s5.66699 30.667 17 42c10.667 11.333 24.334 17 41.001 17c17.333 0 31.333 -5.66699 42 -17
c11.333 -11.333 17 -25.333 17 -42v1z" />
    <glyph glyph-name="k" unicode="k" horiz-adv-x="451" 
d="M153 0l-70 -0.000976562v625c0 22.667 -1.33301 42.667 -4 60s-6 34 -10 50l70 14c3.33301 -13.333 6.33301 -30.666 9 -51.999s4 -45.333 4 -72v-625h1zM450 0.999023v-1v0h-89l-205 289l170 221h84l-175 -221l215 -289v1z" />
    <glyph glyph-name="l" unicode="l" horiz-adv-x="234" 
d="M202 3l-0.00195312 -1v0v0c-8 -4.66699 -15.333 -7.66699 -22 -9s-14.667 -2 -24 -2c-21.333 0 -38.666 7.33301 -51.999 22c-6.66699 6.66699 -12 16 -16 28s-6 27.333 -6 46v540c0 22.667 -1.33301 42.667 -4 60s-6 32.333 -10 45l68 14
c4.66699 -16 8.33398 -34 11.001 -54s4 -42 4 -66v-526c0 -20 2 -33.667 6 -41s10.667 -11 20 -11h5c1.33301 0 3.33301 0.333008 6 1l14 -48v2z" />
    <glyph glyph-name="m" unicode="m" horiz-adv-x="718" 
d="M636 2l-0.00195312 -1.00293v0h-70v386c0 24.667 -4.66699 43 -14 55c-9.33301 12.667 -23.333 19 -42 19c-20 0 -39 -5 -57 -15c-18.667 -9.33301 -39.334 -25.333 -62.001 -48v-396h-70v374c0 15.333 -0.666992 28.333 -2 39s-4.66602 19.334 -9.99902 26.001
s-11.666 11.334 -18.999 14.001s-16.333 4 -27 4c-16 0 -32.667 -4.66699 -50 -14s-38.333 -25.333 -63 -48v-396h-66v396c0 24 -1.33301 45 -4 63c-3.33301 18 -7.33301 32.667 -12 44l68 20c4 -10 7.33301 -21 10 -33s4 -24 4 -36c16 20 35.667 36.667 59 50
s46.333 20 69 20s43.334 -5.33301 62.001 -16s32.667 -29 42 -55c22 24 45.667 41.667 71 53c25.333 12 49.333 18 72 18c33.333 -0.666992 60 -13.667 80 -39s30.333 -58.666 31 -99.999v-386v2z" />
    <glyph glyph-name="n" unicode="n" horiz-adv-x="489" 
d="M410 -1l0.000976562 -1.00098v0h-70v350c0 26.667 -1.33301 46.667 -4 60c-2.66699 12.667 -7 23 -13 31c-4.66699 6.66699 -11.334 12 -20.001 16c-9.33301 4 -19.333 6 -30 6c-18.667 0 -39.334 -6 -62.001 -18s-43 -28 -61 -48v-394h-68v394
c0 24.667 -1.33301 46.334 -4 65.001c-3.33301 18.667 -7.33301 34 -12 46l68 18c4.66699 -9.33301 8.33398 -19.333 11.001 -30s4 -23 4 -37c25.333 25.333 49.333 43 72 53c22.667 9.33301 45.667 14 69 14c18 0 35 -4 51 -12c15.333 -8 28.333 -18.667 39 -32
s18 -28 22 -44s6 -32 6 -48v-388z" />
    <glyph glyph-name="o" unicode="o" horiz-adv-x="465" 
d="M427 244c0 -34.667 -3.33301 -65.999 -10 -93.999s-15.667 -52.667 -27 -74c-17.333 -30.667 -39.333 -53.667 -66 -69c-26.667 -14.667 -56.667 -22 -90 -22c-32 0 -60 6.33301 -84 19s-44.333 31.667 -61 57c-15.333 24 -27 52.667 -35 86s-12 70.333 -12 111
c0 41.333 4.33301 78.666 13 111.999c8 33.333 20 61.333 36 84c16 24 36 42 60 54s50.667 18 80 18c36.667 -0.666992 67.667 -9 93 -25c24.667 -16 44.667 -36.667 60 -62c13.333 -22.667 23.333 -50 30 -82s10 -68.667 10 -110zM343 239.001l-0.00195312 -0.99707v0v0
c0 36 -1.66699 68 -5 96c-2.66699 28 -7.66699 50.667 -15 68c-9.33301 22.667 -22.666 39 -39.999 49c-17.333 10.667 -35.333 16 -54 16c-20 0 -38 -4.66699 -54 -14s-28 -22.666 -36 -39.999c-7.33301 -16 -12.666 -36 -15.999 -60c-4 -24.667 -6 -52.334 -6 -83.001
c0 -24 1.33301 -47.333 4 -70s6 -43.334 10 -62.001s8.66699 -33.334 14 -44.001c8.66699 -15.333 21 -27.333 37 -36s33.667 -13 53 -13c23.333 0 43 6.33301 59 19c16.667 12.667 29 31 37 55c5.33301 16 9 34 11 54c1.33301 19.333 2 41.666 2 66.999z" />
    <glyph glyph-name="p" unicode="p" horiz-adv-x="498" 
d="M447 260c0 -40 -2.66797 -73.666 -8.00098 -100.999s-14.666 -52.333 -27.999 -75c-16 -28.667 -35.333 -51.334 -58 -68.001s-49.334 -25 -80.001 -25c-25.333 0 -47.666 5.33301 -66.999 16s-37.666 24.667 -54.999 42v-244l-70 -16v612c0 26 -1 48.333 -3 67
c-1.33301 18.667 -3.33301 33.334 -6 44.001l70 12c1.33301 -8 2.66602 -17.667 3.99902 -29s2 -27 2 -47c18.667 24 38.667 42 60 54s45 18 71 18c28 0 51.667 -5.33301 71 -16c18.667 -10.667 35 -26.334 49 -47.001c16 -23.333 28 -51.333 36 -84
c7.33301 -32.667 11 -71.667 11 -117zM372.999 249.001l0.00195312 -1v0v0c0 30.667 -1.33301 58.667 -4 84s-7 46 -13 62c-6.66699 18 -17 33 -31 45s-32.333 18 -55 18c-24.667 0 -46.334 -6 -65.001 -18s-37 -29.667 -55 -53v-272c17.333 -21.333 34.666 -38 51.999 -50
c16.667 -12 35.667 -18 57 -18c25.333 0 45.333 6 60 18s26 27.333 34 46c8 16 13.333 35.333 16 58s4 48.667 4 78v3z" />
    <glyph glyph-name="q" unicode="q" horiz-adv-x="498" 
d="M426 509c-4 -13.333 -7.33301 -30.666 -10 -51.999c-2.66699 -22 -4 -48.333 -4 -79v-570l-66 -18v263c-18.667 -21.333 -37.334 -37.333 -56.001 -48s-41.334 -16 -68.001 -16c-21.333 0 -40 3.33301 -56 10s-31.333 17.334 -46 32.001
c-22.667 20.667 -40 47.667 -52 81s-18 75.666 -18 126.999c0 50 3.33301 91 10 123s17.334 59.333 32.001 82c16 26.667 35 46.667 57 60s47.667 20 77 20c26.667 0 49.334 -5.33301 68.001 -16s37.667 -27.334 57 -50.001c0.666992 7.33301 2 16.333 4 27s4.33301 19 7 25
h68zM344 126l0.000976562 -1v0v275c-14 20 -30.333 35.333 -49 46c-18.667 11.333 -40 17 -64 17c-21.333 0 -39.333 -4.66699 -54 -14c-15.333 -10 -27.333 -25 -36 -45c-8 -16.667 -13.333 -36.334 -16 -59.001s-4 -50.667 -4 -84c0 -37.333 2 -67.666 6 -90.999
c4 -24 9.33301 -42.667 16 -56c6 -13.333 13 -24 21 -32c9.33301 -10 20 -17.667 32 -23c12 -4.66699 27 -7 45 -7c24 0 44.667 6 62 18s32.666 30 45.999 54z" />
    <glyph glyph-name="r" unicode="r" horiz-adv-x="300" 
d="M301 524l-0.000976562 -0.998047v0l-31 -79c-2 1.33301 -5 2.66602 -9 3.99902c-4 0.666992 -8 1 -12 1c-10.667 0 -22.667 -2.66699 -36 -8s-25.333 -14 -36 -26c-9.33301 -10.667 -15.666 -21.334 -18.999 -32.001c-4 -11.333 -6 -26 -6 -44v-336h-70v394
c0 17.333 -1.33301 36 -4 56s-7 38 -13 54l70 18c5.33301 -12 9.33301 -23.333 12 -34s4 -22.667 4 -36v-8c17.333 28 36.666 48.333 57.999 61c21.333 12 44 18 68 18c2.66699 0 6.33398 -0.666992 11.001 -2l12 -4z" />
    <glyph glyph-name="s" unicode="s" horiz-adv-x="418" 
d="M371 152l0.000976562 -0.999023v0v0c-0.666992 -50.667 -16.334 -90.334 -47.001 -119.001c-30.667 -28 -71.334 -42.333 -122.001 -43c-28 0 -56.333 4.66699 -85 14c-28 9.33301 -53.333 22 -76 38l29 53c22.667 -16 45.334 -28 68.001 -36s46.334 -12 71.001 -12
c27.333 0 49 8.66699 65 26s24 40 24 68c-0.666992 22.667 -8.66699 40.667 -24 54c-16 13.333 -34.667 23.666 -56 30.999l-40 14c-34.667 12 -63.334 29.333 -86.001 52c-22.667 22 -34.334 50.333 -35.001 85c0.666992 46.667 15.334 84 44.001 112
c28.667 28.667 66.334 43.334 113.001 44.001c23.333 0 47 -3.66699 71 -11s45.667 -17 65 -29l-28 -54c-18.667 10.667 -36.667 19.334 -54 26.001s-35.333 10 -54 10c-26 -0.666992 -46.333 -9 -61 -25s-22 -35 -22 -57c0 -22.667 6 -41.334 18 -56.001
c11.333 -14.667 30.333 -26.667 57 -36l41 -14c21.333 -7.33301 41.666 -17 60.999 -29c18.667 -12 34 -27 46 -45c12 -18.667 18 -40.667 18 -66z" />
    <glyph glyph-name="t" unicode="t" horiz-adv-x="285" 
d="M259 10l0.00195312 -0.999023v0v0c-12.667 -6.66699 -25 -11.667 -37 -15c-12 -4 -25.667 -6 -41 -6c-11.333 0 -21.666 1.33301 -30.999 4s-18 6 -26 10c-14.667 6.66699 -25.334 18.667 -32.001 36c-7.33301 17.333 -11 39 -11 65v353h-58v58h58
c0 13.333 0.333008 28 1 44l4 47c1.33301 15.333 2.66602 28.333 3.99902 39l70 16c-2.66699 -32 -4.66699 -59.333 -6 -82s-2 -44.667 -2 -66h112l-18 -58h-95v-338c0 -28 4 -48 12 -60c8.66699 -11.333 23.667 -17 45 -17c9.33301 0 16.666 0.666992 21.999 2
s11 3.66602 17 6.99902l14 -44z" />
    <glyph glyph-name="u" unicode="u" horiz-adv-x="490" 
d="M442 36l0.00195312 -1.00391v0l-46 -54c-14.667 13.333 -25.334 25.333 -32.001 36c-6.66699 11.333 -11.334 25 -14.001 41c-17.333 -25.333 -37.333 -44 -60 -56s-50 -18 -82 -18c-18.667 0 -35.334 2.33301 -50.001 7c-14 4 -26.333 10.333 -37 19
c-18 16 -29.667 34.667 -35 56c-5.33301 20.667 -8 42.334 -8 65.001v381l68 12v-381c0 -24 2 -42.667 6 -56s11 -24 21 -32c6.66699 -5.33301 14.667 -9.33301 24 -12c8.66699 -2.66699 19 -4 31 -4c24.667 0 46.334 8 65.001 24c18 16 34 37.333 48 64v382l68 10v-375
c0 -21.333 1 -38.666 3 -51.999s5 -24.666 9 -33.999c4.66699 -9.33301 10.667 -17.666 18 -24.999z" />
    <glyph glyph-name="v" unicode="v" horiz-adv-x="396" 
d="M399 510l-0.000976562 -1v0l-167 -515h-71l-158 512l72 16l102 -352c2.66699 -8.66699 5.33398 -19 8.00098 -31l8 -36c2.66699 -12 4.66699 -22 6 -30l1 -4c0 3.33301 0.666992 10 2 20c2 10.667 4.66699 22.334 8 35.001c2.66699 13.333 5.66699 25.666 9 36.999
l106 349h71h3z" />
    <glyph glyph-name="w" unicode="w" horiz-adv-x="604" 
d="M593 512l0.000976562 -1.00098v0l-126 -514h-66l-88 358l-7 27c-2.66699 10 -5.33398 23 -8.00098 39c-2 -13.333 -4.33301 -26 -7 -38c-2 -12 -3.66699 -20 -5 -24l-91 -362h-64l-123 510l68 18l72 -337c1.33301 -9.33301 3.33301 -20 6 -32s5 -23.333 7 -34
c2.66699 -11.333 4.66699 -20.666 6 -27.999l1 5l18 76l78 335h76l78 -339l19 -85l2 6l6 40c2 13.333 4 25 6 35l73 343h70z" />
    <glyph glyph-name="x" unicode="x" horiz-adv-x="408" 
d="M409 0v-1v0h-82l-86 156l-32 58l-5 9l-37 -66l-87 -156h-79l166 282l-138 228h83l64 -124l22 -41l6 -10l26 51l62 124h78l-132 -228l170 -282h1z" />
    <glyph glyph-name="y" unicode="y" horiz-adv-x="382" 
d="M381 510l-0.000976562 -0.999023v0l-152 -528c-14 -51.333 -31.667 -92.333 -53 -123s-51 -51.334 -89 -62.001l-20 48c18.667 6.66699 34 15.334 46 26.001c12.667 11.333 23.334 27 32.001 47s17 47.333 25 82l-28 -4c-2.66699 13.333 -6.66699 31 -12 53l-16 70
c-6 24 -11.667 44.667 -17 62l-98 320l66 26l94 -331c4 -13.333 8 -29.333 12 -48s7.33301 -36.334 10 -53.001l6 -38l1 4l30 116l88 334h76h-1z" />
    <glyph glyph-name="z" unicode="z" horiz-adv-x="390" 
d="M361 60v-1v0l-32 -58h-297v56l246 394h-228v60h296v-62l-238 -391h252z" />
    <glyph glyph-name="braceleft" unicode="{" horiz-adv-x="273" 
d="M254 -162l0.000976562 -0.998047v0h-62c-26 0 -47.667 10.333 -65 31c-17.333 21.333 -26.333 54 -27 98v180c0 40.667 -7.33301 71 -22 91s-33.334 30 -56.001 30v55c22.667 0 41 10 55 30c14.667 20.667 22 50 22 88v180c0 29.333 4.33301 53.333 13 72
s20 32.667 34 42s29 14 45 14h62v-56h-48c-18.667 0 -30.667 -6.33301 -36 -19c-6 -12.667 -8.66699 -29.334 -8 -50.001v-198c-0.666992 -32 -5.66699 -57.333 -15 -76s-20 -32 -32 -40s-22 -12.667 -30 -14v-2c8 -0.666992 18 -4.33398 30 -11.001
c12 -7.33301 22.667 -20.333 32 -39s14.333 -45.667 15 -81v-197c-0.666992 -20 2 -36.333 8 -49c5.33301 -13.333 17.333 -20 36 -20h48v-56z" />
    <glyph glyph-name="bar" unicode="|" horiz-adv-x="222" 
d="M140 -212v-1v0h-58v987h58v-987v1z" />
    <glyph glyph-name="braceright" unicode="}" horiz-adv-x="273" 
d="M254 272l0.000976562 -1.00195v0v0c-22.667 0 -41.334 -10 -56.001 -30s-22 -50.333 -22 -91v-180c-0.666992 -44 -9.66699 -76.667 -27 -98c-17.333 -20.667 -39 -31 -65 -31h-62v56h48c18.667 0 30.667 6.66699 36 20c6 12.667 8.66699 29 8 49v197
c0.666992 35.333 5.66699 62.333 15 81s20 31.667 32 39c12 6.66699 22 10.334 30 11.001v2c-8 1.33301 -18 6 -30 14s-22.667 21.333 -32 40s-14.333 44 -15 76v198c0.666992 20.667 -2 37.334 -8 50.001c-5.33301 12.667 -17.333 19 -36 19h-48v56h62
c16 0 31 -4.66699 45 -14s25.333 -23.333 34 -42s13 -42.667 13 -72v-180c0 -38 7.33301 -67.333 22 -88c14 -20 32.333 -30 55 -30v-55z" />
    <glyph glyph-name="asciitilde" unicode="~" horiz-adv-x="532" 
d="M468 334l-0.000976562 -0.999023v0v0c-13.333 -22.667 -28.666 -41.334 -45.999 -56.001c-17.333 -15.333 -39.333 -23.333 -66 -24c-22.667 0.666992 -44.667 5.66699 -66 15l-64 28c-21.333 9.33301 -42.666 14.333 -63.999 15c-19.333 0 -35 -5.66699 -47 -17
c-12 -10.667 -21.333 -25.334 -28 -44.001l-28 39c12.667 22 27.667 40.667 45 56s39.333 23.333 66 24c22.667 -1.33301 44.667 -6.66602 66 -15.999l64 -28c21.333 -9.33301 42.666 -14.333 63.999 -15c19.333 0 35 5.33301 47 16c12 11.333 22 26.333 30 45l30 -39z" />
    <glyph glyph-name="exclamdown" unicode="&#xa1;" horiz-adv-x="238" 
d="M76 -197l17 514h54l17 -502zM176 469v-1v0v0c0 -16 -5.33301 -29.333 -16 -40s-24 -16 -40 -16s-29.333 5.33301 -40 16s-16 24 -16 40s5.33301 29.333 16 40s24 16 40 16s29.333 -5.33301 40 -16s16 -24 16 -40v1z" />
    <glyph glyph-name="cent" unicode="&#xa2;" horiz-adv-x="396" 
d="M370 57c-16.667 -20 -33.666 -35.332 -50.999 -45.999s-36.333 -17.334 -57 -20.001v-78h-49v77c-25.333 2.66699 -48 10 -68 22s-36.667 29.333 -50 52c-14.667 24 -25.334 50.667 -32.001 80s-10 64 -10 104c0 38.667 2.66699 71.667 8 99s13 50.666 23 69.999
s21.333 36.333 34 51c14.667 16 29.334 28 44.001 36s31.667 14 51 18v80h49v-80c20.667 -3.33301 38.667 -9.66602 54 -18.999s29.666 -20.666 42.999 -33.999l-38 -46c-12 10.667 -22.667 18.667 -32 24s-18.666 8.66602 -27.999 9.99902v-408c16 3.33301 30 9 42 17
c11.333 8 21.666 19 30.999 33l36 -43v1zM212.001 48.001v-1.00195v0v408c-28 -10 -48 -27.667 -60 -53s-19.333 -53.666 -22 -84.999s-3.66699 -61 -3 -89c0 -53.333 6.66699 -94.666 20 -123.999s35.333 -48 66 -56h-1z" />
    <glyph glyph-name="sterling" unicode="&#xa3;" horiz-adv-x="502" 
d="M483 679l0.000976562 -1v0l-52 -55c-13.333 15.333 -27.333 27 -42 35s-31.667 12 -51 12c-29.333 0 -52.333 -8 -69 -24s-28.334 -38 -35.001 -66s-10 -60 -10 -96v-83h144v-62h-144v-270h219v-72h-390v72h96v270h-86v62h86v85c0 58.667 8 106.334 24 143.001
c16 37.333 38 64.666 66 81.999c28.667 17.333 61.667 26 99 26c30 0 57 -4.66699 81 -14c23.333 -9.33301 44.333 -25 63 -47z" />
    <glyph glyph-name="currency" unicode="&#xa4;" horiz-adv-x="512" 
d="M491 77l-52 -51.999l-60 62c-15.333 -13.333 -33 -23.333 -53 -30c-20 -7.33301 -41.333 -11 -64 -11c-24 0 -46 3.66699 -66 11s-37.667 17.666 -53 30.999l-62 -62l-52 52l68 68c-8 16 -14 33.333 -18 52s-6 38 -6 58c0 20.667 2.33301 40.334 7 59.001
c4 18.667 10.333 36.334 19 53.001l-66 66l52 52l62 -62c15.333 12 32.666 21.333 51.999 28s40.333 10 63 10s43.334 -3.33301 62.001 -10s35.667 -16 51 -28l62 62l52 -52l-68 -68c8.66699 -16.667 15 -34.334 19 -53.001c4.66699 -18.667 7 -38.334 7 -59.001
c0 -20 -2 -39.333 -6 -58c-4.66699 -18.667 -11 -36 -19 -52l66 -68zM370 255.001v-1v0v0c0 25.333 -4 48.666 -12 69.999s-20.333 38.666 -37 51.999c-16 13.333 -36.333 20 -61 20s-45.334 -6.66699 -62.001 -20s-29.334 -30.666 -38.001 -51.999
c-8 -21.333 -12 -44.666 -12 -69.999s4 -48.666 12 -69.999c8.66699 -21.333 21.334 -38.666 38.001 -51.999s37.334 -20 62.001 -20s45 6.66699 61 20c16.667 13.333 29 30.666 37 51.999s12 44.666 12 69.999v1z" />
    <glyph glyph-name="yen" unicode="&#xa5;" horiz-adv-x="481" 
d="M477 704l0.000976562 -1v0l-148 -322h123v-54h-150l-24 -52v-52h174v-54h-174v-167h-76v167h-162v54h162v57l-20 47h-141v54h114l-148 322h87l119 -274l12 -36l18 -54c6 19.333 11.667 36 17 50s10.666 27 15.999 39l120 274h80z" />
    <glyph glyph-name="brokenbar" unicode="&#xa6;" horiz-adv-x="221" 
d="M82 -213v444h58v-444h-58zM140 356v-1v0h-58v419h58v-419v1z" />
    <glyph glyph-name="section" unicode="&#xa7;" horiz-adv-x="454" 
d="M417 287c0 -31.333 -6.99902 -59.0039 -20.999 -83.0039s-32.333 -43.333 -55 -58c19.333 -14 34.333 -31 45 -51c10.667 -19.333 16 -43 16 -71c-0.666992 -39.333 -9.66699 -71.666 -27 -96.999s-40 -44 -68 -56s-57.333 -18 -88 -18
c-38.667 0 -73.334 9.66699 -104.001 29c-30.667 18.667 -54 49.667 -70 93l68 32c8.66699 -30.667 22.667 -53 42 -67c20 -14 43.333 -21 70 -21c30 0.666992 53.333 10.334 70 29.001c17.333 18.667 26 43.334 26 74.001c0 16 -3.33301 29.333 -10 40
s-16.667 20.667 -30 30s-30 20 -50 32l-98 60c-22.667 13.333 -40.667 30.666 -54 51.999c-13.333 22 -20 48.333 -20 79c0 36 8 66 24 90s39.333 42.667 70 56c-22.667 12.667 -40.334 29 -53.001 49s-19 44.333 -19 73c0 36 7.33301 66 22 90s34.667 41.667 60 53
c25.333 12 54.666 18 87.999 18c32.667 0 63 -7.33301 91 -22s49.333 -38.667 64 -72l-66 -36c-8 22.667 -20.667 39.334 -38 50.001s-35.666 16 -54.999 16c-15.333 0 -30.333 -3.33301 -45 -10c-14 -6.66699 -25.667 -16.667 -35 -30s-14 -30 -14 -50
c0 -17.333 3.33301 -32.666 10 -45.999s16.334 -24 29.001 -32l120 -70c32 -18.667 57 -40.667 75 -66c17.333 -25.333 26 -56 26 -92zM337.001 277.996v-1.00195v0v0c0 22.667 -5.33301 41.334 -16 56.001s-26 28 -46 40l-81 49c-18 -8 -34 -19.333 -48 -34
c-13.333 -14.667 -20.333 -36 -21 -64c0.666992 -20.667 8 -39.667 22 -57s31 -31.666 51 -42.999l83 -46c16 8 29.333 21.333 40 40c11.333 18.667 17 38 17 58z" />
    <glyph glyph-name="dieresis" unicode="&#xa8;" horiz-adv-x="403" 
d="M158 636c0 -14 -4.66699 -25.667 -14 -35s-20.666 -14 -33.999 -14s-24.666 4.66699 -33.999 14s-14 21 -14 35c0 13.333 4.66699 24.666 14 33.999s20.666 14 33.999 14s24.666 -4.66699 33.999 -14s14 -20.666 14 -33.999zM343 637v-1v0v0
c0 -14 -4.66699 -25.667 -14 -35s-20.666 -14 -33.999 -14s-24.666 4.66699 -33.999 14s-14.333 21 -15 35c0 13.333 4.66699 24.666 14 33.999s20.666 14 33.999 14s24.666 -4.66699 33.999 -14s14 -20.666 14 -33.999z" />
    <glyph glyph-name="copyright" unicode="&#xa9;" horiz-adv-x="803" 
d="M752 362c-0.666992 -73.333 -15.667 -138.666 -45 -195.999s-70 -102.666 -122 -135.999s-112.667 -50.333 -182 -51c-69.333 0.666992 -130.333 17.667 -183 51c-52 33.333 -92.667 78.666 -122 135.999s-44 122.666 -44 195.999s14.667 138.666 44 195.999
s70 102.666 122 135.999c52.667 33.333 113.667 50.333 183 51c69.333 -0.666992 130 -17.667 182 -51s92.667 -78.666 122 -135.999s44.333 -122.666 45 -195.999zM684 362c0 62 -11.333 117.667 -34 167c-22.667 48.667 -55.334 87 -98.001 115
c-42 28 -92.333 42.333 -151 43c-58.667 -0.666992 -109 -15 -151 -43c-42.667 -28 -75.334 -66.333 -98.001 -115c-22.667 -49.333 -34 -105 -34 -167s11.333 -117.667 34 -167c22.667 -48.667 55.334 -87 98.001 -115c42 -28 92.333 -42.333 151 -43
c58.667 0.666992 109 15 151 43c42.667 28 75.334 66.333 98.001 115c22.667 49.333 34 105 34 167zM521 180l-0.00195312 -1v0v0c-16 -12 -33.333 -21 -52 -27s-38.667 -9 -60 -9c-28 0 -53.333 5.33301 -76 16c-22 10.667 -41 26 -57 46
c-14.667 19.333 -26 41.666 -34 66.999s-12 53.333 -12 84c0 24.667 2.66699 47.667 8 69c4.66699 21.333 11.334 40.666 20.001 57.999c16 30.667 37 54.667 63 72c26.667 17.333 56.667 26 90 26c20 0 38.667 -3 56 -9c18 -5.33301 33.667 -13.333 47 -24l-28 -39
c-12 8.66699 -24 15 -36 19s-25.333 6 -40 6c-21.333 0 -40 -5.33301 -56 -16s-28.667 -26 -38 -46c-6.66699 -13.333 -12 -29.333 -16 -48c-3.33301 -18.667 -5 -40.667 -5 -66c0 -23.333 1.33301 -42.666 4 -57.999c2.66699 -16 6.66699 -30 12 -42
c10.667 -23.333 25.334 -40.666 44.001 -51.999c18 -10.667 38.333 -16 61 -16c16 0 30 2 42 6s23.333 10.333 34 19l28 -38z" />
    <glyph glyph-name="ordfeminine" unicode="&#xaa;" horiz-adv-x="367" 
d="M329 414l-25.998 -39c-12 4 -22 10.667 -30 20s-13.333 20.666 -16 33.999c-16 -19.333 -32.333 -32.666 -49 -39.999c-16.667 -6.66699 -33.667 -10 -51 -10c-28 0 -50 5.33301 -66 16s-27.333 24.334 -34 41.001c-6.66699 17.333 -10 34.666 -10 51.999
c0 44 14.667 77.667 44 101c29.333 22.667 71.666 34 126.999 34h13h15v42c0 23.333 -4.33301 41 -13 53c-9.33301 12 -22.666 18 -39.999 18c-18.667 0 -37.334 -4 -56.001 -12c-18.667 -8.66699 -36 -19.667 -52 -33l-26 44c23.333 17.333 46.666 30 69.999 38
s47 12 71 12c21.333 0 39.333 -4 54 -12c14.667 -7.33301 25.334 -17.333 32.001 -30c7.33301 -13.333 11.666 -29.333 12.999 -48s2 -37.667 2 -57v-144c0 -24 1.33301 -42 4 -54c2.66699 -11.333 9.66699 -20.333 21 -27zM245.002 586
c-5.33301 1.33301 -10 1.99902 -14 1.99902h-12c-40 0 -69.333 -8 -88 -24s-28 -39.333 -28 -70c0 -23.333 4.66699 -41.666 14 -54.999s24 -20 44 -20s36.667 5.33301 50 16c14 10.667 25 25 33 43v108h1zM320.002 252.999v-1v0h-278v49h278v-49v1z" />
    <glyph glyph-name="guillemotleft" unicode="&#xab;" horiz-adv-x="450" 
d="M232 57l-54 -31l-128 220l128 219l54 -31l-108 -188l108 -188v-1zM398 57l-54 -31l-128 220l128 219l54 -31l-108 -188l108 -188v-1z" />
    <glyph glyph-name="logicalnot" unicode="&#xac;" horiz-adv-x="450" 
d="M399 80v-1v0h-64v150h-284v66h347v-216z" />
    <glyph glyph-name="uni00AD" unicode="&#xad;" horiz-adv-x="272" 
d="M221 241v-1v0h-170v68h170v-68v1z" />
    <glyph glyph-name="registered" unicode="&#xae;" horiz-adv-x="803" 
d="M752 362c-0.666992 -73.333 -15.667 -138.666 -45 -195.999s-70 -102.666 -122 -135.999s-112.667 -50.333 -182 -51c-70 0.666992 -131 17.667 -183 51s-92.667 78.666 -122 135.999s-44 122.666 -44 195.999s14.667 138.666 44 195.999s70 102.666 122 135.999
s113 50.333 183 51c69.333 -0.666992 130 -17.667 182 -51s92.667 -78.666 122 -135.999s44.333 -122.666 45 -195.999zM684 362c0 62 -11.333 117.667 -34 167c-22.667 48.667 -55 87 -97 115c-42.667 28 -93 42.333 -151 43c-58.667 -0.666992 -109.334 -15 -152.001 -43
c-42 -28 -74.333 -66.333 -97 -115c-22.667 -49.333 -34 -105 -34 -167s11.333 -117.667 34 -167c22.667 -48.667 55 -87 97 -115c42.667 -28 93.334 -42.333 152.001 -43c58 0.666992 108.333 15 151 43c42 28 74.333 66.333 97 115c22.667 49.333 34 105 34 167zM558 157
l-71.9971 -0.00195312c-6 11.333 -11.333 21 -16 29l-19 32l-27 44c-6.66699 12 -13.334 22.667 -20.001 32s-15 19.333 -25 30c-5.33301 6.66699 -10.666 11.334 -15.999 14.001c-5.33301 3.33301 -12 5 -20 5v-188h-60v423h119c24.667 0 45 -2.66699 61 -8
s29 -12.666 39 -21.999c10 -8.66699 19 -20.334 27 -35.001c7.33301 -14.667 11 -32 11 -52c0 -33.333 -9.33301 -61 -28 -83c-18.667 -21.333 -45.334 -32.666 -80.001 -33.999h-4c9.33301 -8 16.666 -15.333 21.999 -22s9.66602 -12.667 12.999 -18
c4.66699 -5.33301 10 -12.333 16 -21l20 -31l62 -98zM475.003 460.998v-1.00098v0v0c0 14.667 -3.33301 27.334 -10 38.001s-16 18.667 -28 24c-6 2.66699 -13.333 4.66699 -22 6s-18.667 2 -30 2h-44v-148h41c18.667 0 33.667 1.33301 45 4
c12 3.33301 21.667 8.33301 29 15c6.66699 6.66699 12 14.667 16 24s6 20.333 6 33z" />
    <glyph glyph-name="macron" unicode="&#xaf;" horiz-adv-x="286" 
d="M265 701v-1v0h-244v56h244v-56v1z" />
    <glyph glyph-name="degree" unicode="&#xb0;" horiz-adv-x="346" 
d="M316 536c0 -28 -6 -53.333 -18 -76s-28.667 -40.667 -50 -54s-46 -20 -74 -20s-52.667 6.66699 -74 20s-38 31.333 -50 54s-18 48 -18 76s6 53.333 18 76s28.667 40.667 50 54s46 20 74 20s52.667 -6.66699 74 -20s38 -31.333 50 -54s18 -48 18 -76zM256 537v-1v0v0
c0 29.333 -6.66699 54 -20 74s-34 30.333 -62 31c-28 -0.666992 -48.667 -11 -62 -31s-20 -44.667 -20 -74s6.66699 -54 20 -74s34 -30.333 62 -31c28 0.666992 48.667 11 62 31s20 44.667 20 74v1z" />
    <glyph glyph-name="plusminus" unicode="&#xb1;" horiz-adv-x="433" 
d="M248 305v-148h-64v148h-133v66h133v140h64v-140h134v-66h-134zM380 38v-1v0h-326v68h326v-68v1z" />
    <glyph glyph-name="twosuperior" unicode="&#xb2;" horiz-adv-x="307" 
d="M272 526v-0.998047v0l-13 -54h-222v41c12 9.33301 24.667 20.666 38 33.999s28.666 30.333 45.999 51c19.333 24 35 44.667 47 62s20.667 33.333 26 48s8 29.667 8 45c0 26.667 -4.66699 45.334 -14 56.001s-21.333 16 -36 16
c-17.333 -0.666992 -33.666 -5.33398 -48.999 -14.001s-29.666 -17.667 -42.999 -27l-26 32c23.333 22 45.333 38 66 48c20.667 10.667 41.334 16 62.001 16c32 0 58 -10.667 78 -32s30.333 -50 31 -86c-1.33301 -32.667 -10 -63 -26 -91c-16 -28.667 -35 -55 -57 -79
c-10.667 -12.667 -22.334 -25.334 -35.001 -38.001c-12.667 -12 -24.334 -22 -35.001 -30c4 0 9 0.666992 15 2c6 0.666992 10.667 1 14 1h127h-2z" />
    <glyph glyph-name="threesuperior" unicode="&#xb3;" horiz-adv-x="307" 
d="M277 597v-0.999023v0v0c0 -24 -6 -46 -18 -66s-27.333 -36 -46 -48c-20 -12 -40.667 -20.667 -62 -26s-42.666 -8 -63.999 -8c-4 0 -9 0.333008 -15 1c-6 0 -12.333 0.666992 -19 2l-16 46c12 -1.33301 21.333 -2.33301 28 -3h18c31.333 0 56.333 5.33301 75 16
s32 24 40 40s12 31.667 12 47c0 12 -2 22.333 -6 31s-8.33301 15 -13 19c-8 6 -16.667 10.333 -26 13s-21 4 -35 4h-35v46h16c14.667 0 28.667 0.666992 42 2c13.333 2 24.666 7 33.999 15s14 21.667 14 41c0 20 -4 34.667 -12 44s-22 14 -42 14c-16 0 -30 -3 -42 -9
c-12.667 -6 -27.667 -15.667 -45 -29l-30 34c8.66699 8 19 16.333 31 25c12 9.33301 26 17 42 23c16 6.66699 34 10 54 10c36 -0.666992 63.333 -10.334 82 -29.001c19.333 -19.333 29 -44.333 29 -75c0 -18.667 -5.33301 -35.334 -16 -50.001s-24 -26.667 -40 -36
c18.667 -8.66699 34 -21 46 -37c12 -15.333 18 -33.666 18 -54.999z" />
    <glyph glyph-name="acute" unicode="&#xb4;" horiz-adv-x="284" 
d="M253 683v-1v0l-200 -100l-22 42l184 128l38 -70v1z" />
    <glyph glyph-name="mu" unicode="&#xb5;" horiz-adv-x="496" 
d="M445 37l0.000976562 -1v0l-42 -49c-14.667 13.333 -25.667 25.666 -33 36.999c-7.33301 12 -12.333 26 -15 42c-17.333 -26.667 -38 -46.667 -62 -60s-51.333 -20 -82 -20c-12 0 -23.333 1.66699 -34 5c-10.667 2.66699 -19.334 7.33398 -26.001 14.001v-200l-70 -16v721
l70 14v-374c0 -24 2 -42 6 -54s11 -21.667 21 -29c7.33301 -5.33301 16 -10 26 -14c9.33301 -4 19 -6 29 -6c22.667 0 44.334 8.33301 65.001 25c20 16 36 38 48 66v370l68 12v-362c-0.666992 -33.333 1 -59.333 5 -78c3.33301 -18.667 11.666 -34.667 24.999 -48z" />
    <glyph glyph-name="paragraph" unicode="&#xb6;" horiz-adv-x="522" 
d="M438 -1v-0.999023v0h-64v640h-104v-640h-64v310c-36 0 -68 8.66699 -96 26s-50 40.666 -66 69.999s-24 62 -24 98c0.666992 66.667 19 116.667 55 150s85.667 50 149 50h216v-702z" />
    <glyph glyph-name="periodcentered" unicode="&#xb7;" horiz-adv-x="240" 
d="M180 287v-1v0v0c0 -16 -5.33301 -29.333 -16 -40c-10.667 -11.333 -24 -17 -40 -17s-30 5.66699 -42 17c-11.333 10.667 -17 24 -17 40c0 16.667 5.33301 30.334 16 41.001c11.333 10.667 25 16 41 16s29.333 -5.33301 40 -16s16 -24.334 16 -41.001z" />
    <glyph glyph-name="cedilla" unicode="&#xb8;" horiz-adv-x="226" 
d="M200 -116l-0.00195312 -0.998047v0v0c0 -22.667 -8 -42.334 -24 -59.001c-15.333 -16 -38.333 -24.667 -69 -26c-13.333 0 -26.666 2.66699 -39.999 8s-24.666 11 -33.999 17l18 46c11.333 -6.66699 21 -11.334 29 -14.001s16.667 -4 26 -4s17.666 2.66699 24.999 8
c6.66699 5.33301 10.334 14 11.001 26c-0.666992 10.667 -5 18.667 -13 24s-16.667 8 -26 8h-14c-4 0 -7 -0.333008 -9 -1l-8 10l20 78h54l-12 -48c22.667 -4 38.667 -12 48 -24s14 -28 14 -48h4z" />
    <glyph glyph-name="onesuperior" unicode="&#xb9;" horiz-adv-x="307" 
d="M258 473v-0.999023v0h-178v49h62v273c-12 -9.33301 -24 -17.333 -36 -24c-12.667 -6.66699 -26 -13.334 -40 -20.001l-18 37l110 86h47v-352h54v-49z" />
    <glyph glyph-name="ordmasculine" unicode="&#xba;" horiz-adv-x="369" 
d="M44 252v49h280v-49h-280zM262 567c0 41.333 -3.33301 73.999 -10 97.999s-16 40.667 -28 50c-12 10 -26.667 15 -44 15c-28.667 0 -49 -12 -61 -36s-18 -59.333 -18 -106c0 -53.333 6.66699 -93.333 20 -120s35.333 -40 66 -40c26.667 0 46 11.667 58 35
c12 22.667 18 57.334 18 104.001h-1zM329 569.999v-1.00098v0v0c0 -62.667 -12 -110.667 -36 -144s-59.667 -50 -107 -50c-46 0.666992 -81.333 19 -106 55s-37 86 -37 150c0 62.667 12 111.334 36 146.001s58.667 52.334 104 53.001
c51.333 -0.666992 88.333 -19.334 111 -56.001s34 -87.667 34 -153h1z" />
    <glyph glyph-name="guillemotright" unicode="&#xbb;" horiz-adv-x="450" 
d="M232 247l-128 -220l-54 31l108 188l-108 188l54 31l128 -219v1zM398 248v-1v0l-128 -220l-54 31l108 188l-108 188l54 31l128 -219v2z" />
    <glyph glyph-name="onequarter" unicode="&#xbc;" horiz-adv-x="772" 
d="M258 266l-178 0.000976562v49h62v273c-12 -9.33301 -24 -17.333 -36 -24c-12.667 -6.66699 -26 -13.334 -40 -20.001l-18 37l110 86h47v-352h54v-49h-1zM223 -105.999h-54l418 836h57zM751 75.001l0.000976562 -1v0h-37l-7 1l1 -9v-70l-62 -18v82v7v9h-7h-5h-148v41
l128 286h68l-114 -250c-2.66699 -4.66699 -5.33398 -9.66699 -8.00098 -15l-9 -14h10h10h74v11c0 24 1.33301 48 4 72s5.66699 47.333 9 70l49 16v-130c0 -8 -0.333008 -15.333 -1 -22s-1 -12 -1 -16h4h4h37v-49z" />
    <glyph glyph-name="onehalf" unicode="&#xbd;" horiz-adv-x="772" 
d="M258 266l-178 0.000976562v49h62v273c-12 -9.33301 -24 -17.333 -36 -24c-12.667 -6.66699 -26 -13.334 -40 -20.001l-18 37l110 86h47v-352h54v-49h-1zM623 730.001l-420 -836h-54l418 836h57h-1zM736 54.001v-0.998047v0l-13 -54h-222v41
c12 9.33301 24.667 20.666 38 33.999s28.666 30.333 45.999 51c19.333 24 35 44.667 47 62s20.667 33.333 26 48s8 29.667 8 45c0 26.667 -4.66699 45.334 -14 56.001s-21.333 16 -36 16c-17.333 -0.666992 -33.666 -5.33398 -48.999 -14.001s-29.666 -17.667 -42.999 -27
l-26 32c23.333 22 45.333 38 66 48c20.667 10.667 41.334 16 62.001 16c32 0 58 -10.667 78 -32s30.333 -50 31 -86c-1.33301 -32.667 -10 -63 -26 -91c-16 -28.667 -35 -55 -57 -79c-10.667 -12.667 -22.334 -25.334 -35.001 -38.001c-12.667 -12 -24.334 -22 -35.001 -30
c4 0 9 0.666992 15 2c6 0.666992 10.667 1 14 1h127h-2z" />
    <glyph glyph-name="threequarters" unicode="&#xbe;" horiz-adv-x="772" 
d="M275 393c0 -24 -6 -45.999 -18 -65.999s-27.333 -36 -46 -48c-20 -12 -40.667 -20.667 -62 -26s-42.666 -8 -63.999 -8c-2.66699 0 -7 0.333008 -13 1c-5.33301 0 -12 0.666992 -20 2l-16 46c12 -1.33301 22 -2.33301 30 -3h17c31.333 0 56.333 5.33301 75 16
s32 24 40 40s12 31.667 12 47c0 12 -2 22 -6 30c-4 8.66699 -8.33301 15 -13 19c-8 6 -16.667 10.333 -26 13s-21 4 -35 4h-35v46h16c14.667 0 28.667 0.666992 42 2c13.333 2 24.666 7 33.999 15s14 21.667 14 41c0 20 -4 34.667 -12 44s-22 14 -42 14c-16 0 -30 -3 -42 -9
c-12.667 -6 -27.667 -15.667 -45 -29l-30 34c8.66699 8 19 16.333 31 25c12 9.33301 26 17 42 23c16 6.66699 34 10 54 10c36 -0.666992 63.333 -10.334 82 -29.001c19.333 -19.333 29 -44.333 29 -75c0 -18.667 -5.33301 -35.334 -16 -50.001s-24 -26.667 -40 -36
c18.667 -8.66699 34 -21 46 -37c12 -15.333 18 -33.666 18 -54.999zM223 -105.999h-54l418 836h57zM751 75.001l0.000976562 -1v0h-37l-7 1l1 -9v-70l-62 -18v82v7v9h-7h-5h-148v41l128 286h68l-114 -250c-2.66699 -4.66699 -5.33398 -9.66699 -8.00098 -15l-9 -14h10h10h74
v11c0 24 1.33301 48 4 72s5.66699 47.333 9 70l49 16v-130c0 -8 -0.333008 -15.333 -1 -22s-1 -12 -1 -16h4h4h37v-49z" />
    <glyph glyph-name="questiondown" unicode="&#xbf;" horiz-adv-x="383" 
d="M355 -137c-21.333 -18.667 -46.667 -33.3359 -76 -44.0029s-58.666 -16 -87.999 -16c-41.333 0.666992 -74.333 14.334 -99 41.001s-37.334 63 -38.001 109c0 25.333 4 47.333 12 66s17.333 34.334 28 47.001c10.667 13.333 20.667 24 30 32l20 17
c17.333 15.333 29.333 32 36 50c7.33301 18.667 11 38.667 11 60c0 10.667 -0.666992 21.667 -2 33s-3.33301 23 -6 35h60c2.66699 -11.333 4.66699 -22.666 6 -33.999c1.33301 -12 2 -23.667 2 -35c0 -28 -4 -54 -12 -78s-20.333 -44.667 -37 -62l-38 -33
c-12 -10 -22 -21.667 -30 -35c-8 -14 -12 -33 -12 -57c0 -25.333 7.33301 -46 22 -62s34 -24 58 -24c21.333 0 42 4.33301 62 13c20 8 39.333 19.333 58 34l30 -52zM261.999 468.998v-1v0v0c-0.666992 -16 -6.33398 -29.333 -17.001 -40s-24 -16 -40 -16
s-29.333 5.33301 -40 16s-16 24 -16 40s5.33301 29.333 16 40s24 16 40 16s29.333 -5.33301 40 -16s16.334 -24 17.001 -40v1z" />
    <glyph glyph-name="Agrave" unicode="&#xc0;" horiz-adv-x="502" 
d="M501 0h-83l-56 216h-228l-59 -216h-75l200 702h104l198 -702h-1zM346 282l-76 285l-20 72l-1 4l-20 -76l-76 -285h192h1zM326 799v-1v0l-22 -42l-200 100l38 70l184 -128v1z" />
    <glyph glyph-name="Aacute" unicode="&#xc1;" horiz-adv-x="502" 
d="M501 0h-83l-56 216h-228l-59 -216h-75l200 702h104l198 -702h-1zM346 282l-76 285l-20 72l-1 4l-20 -76l-76 -285h192h1zM400 857v-1v0l-200 -100l-22 42l184 128l38 -70v1z" />
    <glyph glyph-name="Acircumflex" unicode="&#xc2;" horiz-adv-x="502" 
d="M501 0h-83l-56 216h-228l-59 -216h-75l200 702h104l198 -702h-1zM346 282l-76 285l-20 72l-1 4l-20 -76l-76 -285h192h1zM405 795v-1v0l-35 -37l-120 84l-118 -84l-30 37l152 138l152 -138z" />
    <glyph glyph-name="Atilde" unicode="&#xc3;" horiz-adv-x="502" 
d="M501 0h-83l-56 216h-228l-59 -216h-75l200 702h104l198 -702h-1zM346 282l-76 285l-20 72l-1 4l-20 -76l-76 -285h192h1zM408 825l0.000976562 -1.00098v0v0c-14.667 -21.333 -30 -36.666 -46 -45.999s-36.667 -14 -62 -14c-17.333 0 -31.333 2.66699 -42 8l-31 16
c-10.667 5.33301 -24 8.33301 -40 9c-14 0 -25.667 -3.33301 -35 -10s-18.333 -15.667 -27 -27l-26 40c14 20.667 29 35.667 45 45s36.667 14 62 14c17.333 -0.666992 31.333 -3.66699 42 -9l31 -16c10 -5.33301 23.333 -8 40 -8c14 0 25.667 3.33301 35 10
s18.666 16 27.999 28l24 -40z" />
    <glyph glyph-name="Adieresis" unicode="&#xc4;" horiz-adv-x="502" 
d="M501 0h-83l-56 216h-228l-59 -216h-75l200 702h104l198 -702h-1zM346 282l-76 285l-20 72l-1 4l-20 -76l-76 -285h192h1zM209 810c0 -14 -4.66699 -25.667 -14 -35s-20.666 -14 -33.999 -14c-14 0 -25.667 4.66699 -35 14s-14 21 -14 35
c0 13.333 4.66699 24.666 14 33.999s20.666 14 33.999 14c14 0 25.667 -4.66699 35 -14s14 -20.666 14 -33.999zM393 811v-1v0v0c0 -14 -4.66699 -25.667 -14 -35s-20.666 -14 -33.999 -14s-24.666 4.66699 -33.999 14s-14 21 -14 35c0 13.333 4.66699 24.666 14 33.999
s20.666 14 33.999 14s24.666 -4.66699 33.999 -14s14 -20.666 14 -33.999v1z" />
    <glyph glyph-name="Aring" unicode="&#xc5;" horiz-adv-x="502" 
d="M501 0h-83l-56 216h-228l-59 -216h-75l200 702h104l198 -702h-1zM346 282l-76 285l-20 72l-1 4l-20 -76l-76 -285h192h1zM348 838c-0.666992 -26.667 -9.66602 -48.667 -26.999 -66c-17.333 -18 -39.333 -27.333 -66 -28c-26.667 0.666992 -49.334 10 -68.001 28
c-18 17.333 -27.667 39.333 -29 66c0.666992 26.667 9.66699 48.667 27 66c17.333 18 39.333 27.333 66 28c26.667 -0.666992 48.667 -10 66 -28c18 -17.333 27.333 -39.333 28 -66h3zM305.001 839l-0.00195312 -1v0v0c0 14.667 -5.33301 27 -16 37
c-10.667 10.667 -24 16 -40 16c-14.667 0 -26.667 -5.33301 -36 -16c-9.33301 -10 -14.333 -22.333 -15 -37c0.666992 -14.667 6.33398 -27 17.001 -37c10.667 -10.667 23.334 -16 38.001 -16s27 5.33301 37 16c10 10 15 22.333 15 37v1z" />
    <glyph glyph-name="AE" unicode="&#xc6;" horiz-adv-x="748" 
d="M384 0v220h-210l-116 -220h-78l377 702h362l-14 -66h-246v-236h209v-68h-209v-264h268v-68h-343zM384 285v-1v0v348l-2 -4l-175 -344h177v1z" />
    <glyph glyph-name="Ccedilla" unicode="&#xc7;" horiz-adv-x="499" 
d="M470 35l-0.00390625 -0.998047v0v0c-24.667 -18 -51 -30.333 -79 -37s-57.333 -10 -88 -10h-6l-8 -36c22.667 -4 38.667 -12 48 -24s14 -28 14 -48c0 -22.667 -8 -42.334 -24 -59.001c-15.333 -16 -38.333 -24.667 -69 -26c-13.333 0 -26.666 2.66699 -39.999 8
s-24.666 11 -33.999 17l18 46c11.333 -6 21 -10.333 29 -13s16.667 -4 26 -4s17.666 2.66699 24.999 8c6.66699 5.33301 10.334 14 11.001 26c-0.666992 10.667 -5 18.667 -13 24s-16.667 8 -26 8h-14c-4 0 -7 -0.333008 -9 -1l-8 10l18 76
c-22.667 6.66699 -44.667 16.667 -66 30s-38.666 30 -51.999 50c-16 22.667 -29.333 46 -40 70s-18.667 51.667 -24 83c-5.33301 32 -8 70.667 -8 116c0 70.667 11 133.334 33 188.001s52.333 97.667 91 129c38.667 30.667 83 46.334 133 47.001
c29.333 0 57.333 -5.33301 84 -16s50.667 -25.334 72 -44.001l-42 -49c-18.667 15.333 -36.667 27 -54 35s-37.333 12 -60 12c-34 0 -62.333 -9 -85 -27c-22.667 -17.333 -40.667 -41.333 -54 -72s-23 -65.334 -29 -104.001c-6 -38 -9 -77.667 -9 -119
c0 -44 5.33301 -84 16 -120s26 -66.667 46 -92c16 -20.667 34.333 -36.334 55 -47.001c21.333 -11.333 44 -17 68 -17c22 0 42.333 2.66699 61 8s37.334 15.333 56.001 30l35 -52z" />
    <glyph glyph-name="Egrave" unicode="&#xc8;" horiz-adv-x="445" 
d="M424 0h-343v702h334l-12 -64h-248v-240h210v-64h-210v-268h270v-66h-1zM335 799v-1v0l-22 -42l-200 100l38 70l184 -128v1z" />
    <glyph glyph-name="Eacute" unicode="&#xc9;" horiz-adv-x="445" 
d="M424 0h-343v702h334l-12 -64h-248v-240h210v-64h-210v-268h270v-66h-1zM356 857v-1v0l-200 -100l-22 42l184 128l38 -70v1z" />
    <glyph glyph-name="Ecircumflex" unicode="&#xca;" horiz-adv-x="445" 
d="M424 0h-343v702h334l-12 -64h-248v-240h210v-64h-210v-268h270v-66h-1zM396 795v-1v0l-35 -37l-121 84l-118 -84l-31 37l152 138l153 -138v1z" />
    <glyph glyph-name="Edieresis" unicode="&#xcb;" horiz-adv-x="445" 
d="M424 0h-343v702h334l-12 -64h-248v-240h210v-64h-210v-268h270v-66h-1zM200 810c0 -14 -4.66699 -25.667 -14 -35s-20.666 -14 -33.999 -14s-24.666 4.66699 -33.999 14s-14 21 -14 35c0 13.333 4.66699 24.666 14 33.999s20.666 14 33.999 14
s24.666 -4.66699 33.999 -14s14 -20.666 14 -33.999zM385 811v-1v0v0c0 -14 -4.66699 -25.667 -14 -35s-20.666 -14 -33.999 -14s-24.666 4.66699 -33.999 14s-14.333 21 -15 35c0.666992 13.333 5.66699 24.666 15 33.999s20.666 14 33.999 14s24.666 -4.66699 33.999 -14
s14 -20.666 14 -33.999v1z" />
    <glyph glyph-name="Igrave" unicode="&#xcc;" horiz-adv-x="236" 
d="M82 0v702h72v-702h-72zM176 799v-1v0l-22 -42l-200 100l38 70l184 -128v1z" />
    <glyph glyph-name="Iacute" unicode="&#xcd;" horiz-adv-x="236" 
d="M82 0v702h72v-702h-72zM282 857v-1v0l-200 -100l-22 42l184 128l38 -70v1z" />
    <glyph glyph-name="Icircumflex" unicode="&#xce;" horiz-adv-x="236" 
d="M82 0v702h72v-702h-72zM271 795v-1v0l-35 -37l-121 84l-118 -84l-31 37l152 138l152 -138z" />
    <glyph glyph-name="Idieresis" unicode="&#xcf;" horiz-adv-x="236" 
d="M82 0v702h72v-702h-72zM74 810c0 -14 -4.66699 -25.667 -14 -35s-20.666 -14 -33.999 -14s-24.666 4.66699 -33.999 14s-14 21 -14 35c0 13.333 4.66699 24.666 14 33.999s20.666 14 33.999 14s24.666 -4.66699 33.999 -14s14 -20.666 14 -33.999zM258 811v-1v0v0
c0 -14 -4.66699 -25.667 -14 -35s-20.666 -14 -33.999 -14s-24.666 4.66699 -33.999 14s-14 21 -14 35c0 13.333 4.66699 24.666 14 33.999s20.666 14 33.999 14s24.666 -4.66699 33.999 -14s14 -20.666 14 -33.999v1z" />
    <glyph glyph-name="Eth" unicode="&#xd0;" horiz-adv-x="555" 
d="M505 349c0 -51.333 -6.00098 -100.999 -18.001 -148.999c-12.667 -48 -33.667 -89.333 -63 -124c-20 -24 -45 -42.667 -75 -56c-29.333 -13.333 -64.666 -20 -105.999 -20h-160v324h-64v64h64v314h116c50 0 93 -6 129 -18s66 -30 90 -54
c30.667 -30.667 52.667 -69.334 66 -116.001c13.333 -47.333 20 -102 20 -164zM423.999 339.001v-1.00195v0v0c0 52.667 -4 98.334 -12 137.001c-8.66699 38.667 -21 70 -37 94c-11.333 15.333 -25.333 28.333 -42 39c-17.333 10.667 -35.333 18.667 -54 24
c-18 5.33301 -35 8 -51 8h-74v-250h169l-10 -64h-159v-261h82c38.667 0 70.334 8 95.001 24s43.667 37.333 57 64s22.666 56.334 27.999 89.001c5.33301 32 8 64.667 8 98v-1z" />
    <glyph glyph-name="Ntilde" unicode="&#xd1;" horiz-adv-x="570" 
d="M489 -1h-78l-192 432l-38 90l-35 88c2 -20 3.66699 -42 5 -66s2.33301 -48 3 -72c1.33301 -23.333 2 -44.333 2 -63v-408h-74v702h87l203 -458c10.667 -25.333 20.667 -51.333 30 -78c10 -26.667 18.333 -50 25 -70c-2.66699 34.667 -4.66699 65 -6 91
s-2.33301 49.667 -3 71v62v382h70v-702zM439 825l-0.000976562 -1.00098v0v0c-14 -21.333 -29 -36.666 -45 -45.999s-36.667 -14 -62 -14c-17.333 0 -31.333 2.66699 -42 8l-31 16c-10 5.33301 -23.333 8.33301 -40 9c-14 0 -25.667 -3.33301 -35 -10
s-18.666 -15.667 -27.999 -27l-26 40c14.667 20.667 30 35.667 46 45s36.667 14 62 14c17.333 -0.666992 31.333 -3.66699 42 -9l32 -16c10 -5.33301 23 -8 39 -8c14 0 25.667 3.33301 35 10s18.333 16 27 28l24 -40z" />
    <glyph glyph-name="Ograve" unicode="&#xd2;" horiz-adv-x="593" 
d="M542 340c0 -66.667 -6.99805 -122.666 -20.998 -167.999c-14.667 -45.333 -37.334 -84 -68.001 -116c-22.667 -23.333 -46.334 -40.333 -71.001 -51s-52.667 -16 -84 -16c-37.333 0 -70.666 8 -99.999 24s-54 37.667 -74 65c-24 32 -42 71.333 -54 118s-18 100 -18 160
c0 74.667 9.66699 138.667 29 192s47 94.666 83 123.999s79.333 44 130 44c35.333 -0.666992 65.666 -7 90.999 -19s46 -26.667 62 -44c16.667 -17.333 29.667 -34.666 39 -51.999c18.667 -32.667 32.667 -70.334 42 -113.001s14 -92 14 -148zM463.002 327.001
c0 52 -2.33105 97.334 -6.99805 136.001c-5.33301 38.667 -13 70.667 -23 96c-10.667 26.667 -27.334 48.667 -50.001 66s-51.667 26.333 -87 27c-29.333 0 -55.333 -6.66699 -78 -20c-22.667 -14 -40 -33.667 -52 -59c-10.667 -22.667 -18.667 -51 -24 -85
c-4.66699 -34 -7 -72.667 -7 -116c0 -36 1.33301 -70.333 4 -103c2.66699 -32 7 -61 13 -87c5.33301 -26.667 12 -48 20 -64c12 -22.667 30 -40.667 54 -54s49 -20 75 -20c25.333 0 47.333 4.66699 66 14c18.667 10 34.667 25 48 45
c15.333 21.333 26.666 49.666 33.999 84.999c7.33301 36 11 82.667 11 140zM376.004 799.002v-1v0l-22 -42l-200 100l38 70l184 -128v1z" />
    <glyph glyph-name="Oacute" unicode="&#xd3;" horiz-adv-x="593" 
d="M542 340c0 -66.667 -6.99805 -122.666 -20.998 -167.999c-14.667 -45.333 -37.334 -84 -68.001 -116c-22.667 -23.333 -46.334 -40.333 -71.001 -51s-52.667 -16 -84 -16c-37.333 0 -70.666 8 -99.999 24s-54 37.667 -74 65c-24 32 -42 71.333 -54 118s-18 100 -18 160
c0 74.667 9.66699 138.667 29 192s47 94.666 83 123.999s79.333 44 130 44c35.333 -0.666992 65.666 -7 90.999 -19s46 -26.667 62 -44c16.667 -17.333 29.667 -34.666 39 -51.999c18.667 -32.667 32.667 -70.334 42 -113.001s14 -92 14 -148zM463.002 327.001
c0 52 -2.33105 97.334 -6.99805 136.001c-5.33301 38.667 -13 70.667 -23 96c-10.667 26.667 -27.334 48.667 -50.001 66s-51.667 26.333 -87 27c-29.333 0 -55.333 -6.66699 -78 -20c-22.667 -14 -40 -33.667 -52 -59c-10.667 -22.667 -18.667 -51 -24 -85
c-4.66699 -34 -7 -72.667 -7 -116c0 -36 1.33301 -70.333 4 -103c2.66699 -32 7 -61 13 -87c5.33301 -26.667 12 -48 20 -64c12 -22.667 30 -40.667 54 -54s49 -20 75 -20c25.333 0 47.333 4.66699 66 14c18.667 10 34.667 25 48 45
c15.333 21.333 26.666 49.666 33.999 84.999c7.33301 36 11 82.667 11 140zM417.004 857.002v-1v0l-200 -100l-22 42l184 128l38 -70v1z" />
    <glyph glyph-name="Ocircumflex" unicode="&#xd4;" horiz-adv-x="593" 
d="M542 340c0 -66.667 -6.99805 -122.666 -20.998 -167.999c-14.667 -45.333 -37.334 -84 -68.001 -116c-22.667 -23.333 -46.334 -40.333 -71.001 -51s-52.667 -16 -84 -16c-37.333 0 -70.666 8 -99.999 24s-54 37.667 -74 65c-24 32 -42 71.333 -54 118s-18 100 -18 160
c0 74.667 9.66699 138.667 29 192s47 94.666 83 123.999s79.333 44 130 44c35.333 -0.666992 65.666 -7 90.999 -19s46 -26.667 62 -44c16.667 -17.333 29.667 -34.666 39 -51.999c18.667 -32.667 32.667 -70.334 42 -113.001s14 -92 14 -148zM463.002 327.001
c0 52 -2.33105 97.334 -6.99805 136.001c-5.33301 38.667 -13 70.667 -23 96c-10.667 26.667 -27.334 48.667 -50.001 66s-51.667 26.333 -87 27c-29.333 0 -55.333 -6.66699 -78 -20c-22.667 -14 -40 -33.667 -52 -59c-10.667 -22.667 -18.667 -51 -24 -85
c-4.66699 -34 -7 -72.667 -7 -116c0 -36 1.33301 -70.333 4 -103c2.66699 -32 7 -61 13 -87c5.33301 -26.667 12 -48 20 -64c12 -22.667 30 -40.667 54 -54s49 -20 75 -20c25.333 0 47.333 4.66699 66 14c18.667 10 34.667 25 48 45
c15.333 21.333 26.666 49.666 33.999 84.999c7.33301 36 11 82.667 11 140zM447.004 795.002v-1v0l-35 -37l-120 84l-118 -84l-30 37l152 138l152 -138z" />
    <glyph glyph-name="Otilde" unicode="&#xd5;" horiz-adv-x="593" 
d="M542 340c0 -66.667 -6.99805 -122.666 -20.998 -167.999c-14.667 -45.333 -37.334 -84 -68.001 -116c-22.667 -23.333 -46.334 -40.333 -71.001 -51s-52.667 -16 -84 -16c-37.333 0 -70.666 8 -99.999 24s-54 37.667 -74 65c-24 32 -42 71.333 -54 118s-18 100 -18 160
c0 74.667 9.66699 138.667 29 192s47 94.666 83 123.999s79.333 44 130 44c35.333 -0.666992 65.666 -7 90.999 -19s46 -26.667 62 -44c16.667 -17.333 29.667 -34.666 39 -51.999c18.667 -32.667 32.667 -70.334 42 -113.001s14 -92 14 -148zM463.002 327.001
c0 52 -2.33105 97.334 -6.99805 136.001c-5.33301 38.667 -13 70.667 -23 96c-10.667 26.667 -27.334 48.667 -50.001 66s-51.667 26.333 -87 27c-29.333 0 -55.333 -6.66699 -78 -20c-22.667 -14 -40 -33.667 -52 -59c-10.667 -22.667 -18.667 -51 -24 -85
c-4.66699 -34 -7 -72.667 -7 -116c0 -36 1.33301 -70.333 4 -103c2.66699 -32 7 -61 13 -87c5.33301 -26.667 12 -48 20 -64c12 -22.667 30 -40.667 54 -54s49 -20 75 -20c25.333 0 47.333 4.66699 66 14c18.667 10 34.667 25 48 45
c15.333 21.333 26.666 49.666 33.999 84.999c7.33301 36 11 82.667 11 140zM450.004 825.002l0.000976562 -1.00098v0v0c-14.667 -21.333 -30 -36.666 -46 -45.999s-36.667 -14 -62 -14c-17.333 0 -31.333 2.66699 -42 8l-32 16c-10 5.33301 -23 8.33301 -39 9
c-14 0 -25.667 -3.33301 -35 -10s-18.333 -15.667 -27 -27l-26 40c14 20.667 29 35.667 45 45s36.667 14 62 14c17.333 -0.666992 31.333 -3.66699 42 -9l31 -16c10 -5.33301 23.333 -8 40 -8c14 0 25.667 3.33301 35 10s18.666 16 27.999 28l24 -40z" />
    <glyph glyph-name="Odieresis" unicode="&#xd6;" horiz-adv-x="593" 
d="M542 340c0 -66.667 -6.99805 -122.666 -20.998 -167.999c-14.667 -45.333 -37.334 -84 -68.001 -116c-22.667 -23.333 -46.334 -40.333 -71.001 -51s-52.667 -16 -84 -16c-37.333 0 -70.666 8 -99.999 24s-54 37.667 -74 65c-24 32 -42 71.333 -54 118s-18 100 -18 160
c0 74.667 9.66699 138.667 29 192s47 94.666 83 123.999s79.333 44 130 44c35.333 -0.666992 65.666 -7 90.999 -19s46 -26.667 62 -44c16.667 -17.333 29.667 -34.666 39 -51.999c18.667 -32.667 32.667 -70.334 42 -113.001s14 -92 14 -148zM463.002 327.001
c0 52 -2.33105 97.334 -6.99805 136.001c-5.33301 38.667 -13 70.667 -23 96c-10.667 26.667 -27.334 48.667 -50.001 66s-51.667 26.333 -87 27c-29.333 0 -55.333 -6.66699 -78 -20c-22.667 -14 -40 -33.667 -52 -59c-10.667 -22.667 -18.667 -51 -24 -85
c-4.66699 -34 -7 -72.667 -7 -116c0 -36 1.33301 -70.333 4 -103c2.66699 -32 7 -61 13 -87c5.33301 -26.667 12 -48 20 -64c12 -22.667 30 -40.667 54 -54s49 -20 75 -20c25.333 0 47.333 4.66699 66 14c18.667 10 34.667 25 48 45
c15.333 21.333 26.666 49.666 33.999 84.999c7.33301 36 11 82.667 11 140zM246.004 810.002c-0.666992 -14 -5.66699 -25.667 -15 -35s-20.666 -14 -33.999 -14s-24.666 4.66699 -33.999 14s-14 21 -14 35c0 13.333 4.66699 24.666 14 33.999s20.666 14 33.999 14
s24.666 -4.66699 33.999 -14s14.333 -20.666 15 -33.999zM429.004 811.002v-1v0v0c0 -14 -4.66699 -25.667 -14 -35s-20.666 -14 -33.999 -14s-24.666 4.66699 -33.999 14s-14 21 -14 35c0 13.333 4.66699 24.666 14 33.999s20.666 14 33.999 14s24.666 -4.66699 33.999 -14
s14 -20.666 14 -33.999v1z" />
    <glyph glyph-name="multiply" unicode="&#xd7;" horiz-adv-x="547" 
d="M454 128v-1v0l-52 -52l-129 129l-129 -129l-52 52l129 129l-129 129l52 52l129 -129l129 129l52 -52l-129 -129l129 -129v1z" />
    <glyph glyph-name="Oslash" unicode="&#xd8;" horiz-adv-x="593" 
d="M545 337c0 -39.333 -3.99902 -79.668 -11.999 -121.001s-21.333 -79.333 -40 -114c-18.667 -35.333 -43.667 -63.666 -75 -84.999s-70.333 -32.333 -117 -33c-26.667 0 -51.334 3.66699 -74.001 11c-22.667 6.66699 -43 17.334 -61 32.001l-60 -112l-46 30l66 126
c-24 32 -42 72 -54 120s-18 102 -18 162c0 117.333 20.667 206.666 62 267.999s101.333 92 180 92c30.667 0 57.334 -4 80.001 -12s42 -18.667 58 -32l56 104l48 -30l-64 -118c23.333 -33.333 40.666 -73.333 51.999 -120c10.667 -47.333 16 -102.333 16 -165z
M396.001 606.998c-12 13.333 -26.667 23.999 -44 31.999s-37.333 12 -60 12c-29.333 0 -55.333 -7.66699 -78 -23s-40 -35.666 -52 -60.999c-10.667 -22.667 -18.667 -50 -24 -82c-4.66699 -32 -7 -69.333 -7 -112c0 -46.667 2.66699 -89.667 8 -129s12.333 -72 21 -98
l238 460zM458.001 329.997l-0.00195312 -0.999023v0v0c0 49.333 -2 92 -6 128c-4.66699 36.667 -11.334 67 -20.001 91l-236 -458c14 -13.333 30.333 -24 49 -32s37.334 -12 56.001 -12c25.333 0 47.333 5.33301 66 16s34.667 26 48 46
c10.667 14.667 19.334 31.667 26.001 51s11.334 42.666 14.001 69.999c3.33301 27.333 5 60.333 5 99z" />
    <glyph glyph-name="Ugrave" unicode="&#xd9;" horiz-adv-x="559" 
d="M484 697l0.000976562 -507.998c0 -28 -1.33301 -51.333 -4 -70s-7.33398 -34.667 -14.001 -48s-16 -26 -28 -38c-18.667 -18 -41 -31 -67 -39c-25.333 -8 -56.333 -12 -93 -12c-46.667 0 -84.667 8 -114 24s-52 41.333 -68 76c-8 17.333 -13 35.333 -15 54s-3 36 -3 52
v512h72v-482c0 -18 0.666992 -36.333 2 -55s4 -34 8 -46c4 -10.667 10.667 -21.334 20 -32.001s22 -19.334 38 -26.001s36.333 -10 61 -10c25.333 0 47.333 3.66699 66 11c18.667 8 32.667 19.333 42 34c10 16 16.333 32.667 19 50s4 37.333 4 60v498h72zM366.001 799.002
v-1v0l-22 -42l-200 100l38 70l184 -128v1z" />
    <glyph glyph-name="Uacute" unicode="&#xda;" horiz-adv-x="559" 
d="M484 697l0.000976562 -507.998c0 -28 -1.33301 -51.333 -4 -70s-7.33398 -34.667 -14.001 -48s-16 -26 -28 -38c-18.667 -18 -41 -31 -67 -39c-25.333 -8 -56.333 -12 -93 -12c-46.667 0 -84.667 8 -114 24s-52 41.333 -68 76c-8 17.333 -13 35.333 -15 54s-3 36 -3 52
v512h72v-482c0 -18 0.666992 -36.333 2 -55s4 -34 8 -46c4 -10.667 10.667 -21.334 20 -32.001s22 -19.334 38 -26.001s36.333 -10 61 -10c25.333 0 47.333 3.66699 66 11c18.667 8 32.667 19.333 42 34c10 16 16.333 32.667 19 50s4 37.333 4 60v498h72zM406.001 857.002
v-1v0l-200 -100l-22 42l184 128l38 -70v1z" />
    <glyph glyph-name="Ucircumflex" unicode="&#xdb;" horiz-adv-x="559" 
d="M484 697l0.000976562 -507.998c0 -28 -1.33301 -51.333 -4 -70s-7.33398 -34.667 -14.001 -48s-16 -26 -28 -38c-18.667 -18 -41 -31 -67 -39c-25.333 -8 -56.333 -12 -93 -12c-46.667 0 -84.667 8 -114 24s-52 41.333 -68 76c-8 17.333 -13 35.333 -15 54s-3 36 -3 52
v512h72v-482c0 -18 0.666992 -36.333 2 -55s4 -34 8 -46c4 -10.667 10.667 -21.334 20 -32.001s22 -19.334 38 -26.001s36.333 -10 61 -10c25.333 0 47.333 3.66699 66 11c18.667 8 32.667 19.333 42 34c10 16 16.333 32.667 19 50s4 37.333 4 60v498h72zM431.001 785.002
v-1v0l-34 -37l-121 84l-118 -84l-30 37l152 138l152 -138z" />
    <glyph glyph-name="Udieresis" unicode="&#xdc;" horiz-adv-x="559" 
d="M484 697l0.000976562 -507.998c0 -28 -1.33301 -51.333 -4 -70s-7.33398 -34.667 -14.001 -48s-16 -26 -28 -38c-18.667 -18 -41 -31 -67 -39c-25.333 -8 -56.333 -12 -93 -12c-46.667 0 -84.667 8 -114 24s-52 41.333 -68 76c-8 17.333 -13 35.333 -15 54s-3 36 -3 52
v512h72v-482c0 -18 0.666992 -36.333 2 -55s4 -34 8 -46c4 -10.667 10.667 -21.334 20 -32.001s22 -19.334 38 -26.001s36.333 -10 61 -10c25.333 0 47.333 3.66699 66 11c18.667 8 32.667 19.333 42 34c10 16 16.333 32.667 19 50s4 37.333 4 60v498h72zM236.001 810.002
c0 -14 -4.66699 -25.667 -14 -35s-20.666 -14 -33.999 -14s-24.666 4.66699 -33.999 14s-14.333 21 -15 35c0.666992 13.333 5.66699 24.666 15 33.999s20.666 14 33.999 14s24.666 -4.66699 33.999 -14s14 -20.666 14 -33.999zM420.001 811.002v-1v0v0
c0 -14 -4.66699 -25.667 -14 -35s-20.666 -14 -33.999 -14s-24.666 4.66699 -33.999 14s-14 21 -14 35c0 13.333 4.66699 24.666 14 33.999s20.666 14 33.999 14s24.666 -4.66699 33.999 -14s14 -20.666 14 -33.999v1z" />
    <glyph glyph-name="Yacute" unicode="&#xdd;" horiz-adv-x="452" 
d="M264 273l0.000976562 -273.999h-76v278l-198 424h88l116 -268c6.66699 -14.667 12.667 -29.334 18 -44.001s10.666 -30.334 15.999 -47.001l17 48c5.33301 14.667 11 29.334 17 44.001l116 268h84zM379.001 857.001v-1v0l-200 -100l-22 42l184 128l38 -70v1z" />
    <glyph glyph-name="Thorn" unicode="&#xde;" horiz-adv-x="483" 
d="M461 367c0 -35.333 -4.00098 -66.332 -12.001 -92.999c-8.66699 -26.667 -23 -50.334 -43 -71.001s-42.333 -35 -67 -43c-25.333 -8 -53.333 -12 -84 -12h-102v-148h-72v702h72v-135h72c33.333 0 64 -2.33301 92 -7c28 -5.33301 50.333 -14 67 -26
c26.667 -19.333 46.334 -43.333 59.001 -72c13.333 -28 20 -60 20 -96zM382.999 355.001l-0.000976562 -0.998047v0v0c0 26 -3 49 -9 69c-6.66699 20 -16 36 -28 48s-28 20.667 -48 26s-44.667 8 -74 8h-70v-293h82c26 0 49 2.66699 69 8s35.333 14.666 46 27.999
s18.334 28.666 23.001 45.999c5.33301 17.333 8 36 8 56z" />
    <glyph glyph-name="germandbls" unicode="&#xdf;" horiz-adv-x="508" 
d="M472 186l-0.000976562 -1.00098v0v0c0 -38 -6.66699 -71 -20 -99c-13.333 -28.667 -32.666 -51 -57.999 -67s-56 -24 -92 -24c-17.333 0 -34 1.66699 -50 5c-15.333 3.33301 -28 7.66602 -38 12.999l22 47c8 -4 16.667 -7.33301 26 -10s20 -4 32 -4c22 0 40.667 6 56 18
s27 28.333 35 49c8 20 12 42 12 66c0 25.333 -3.33301 46 -10 62s-16.667 29.333 -30 40s-29.333 20.667 -48 30c-21.333 10.667 -39 20.334 -53 29.001s-24.333 17.667 -31 27s-10 21 -10 35s4 26.333 12 37s18 20 30 28s24 15.333 36 22
c13.333 6.66699 24.666 17 33.999 31c10 14 15 33.333 15 58c0 28 -7.33301 51.333 -22 70s-37.334 28.334 -68.001 29.001c-31.333 0 -54.666 -12.667 -69.999 -38c-14.667 -25.333 -22 -63.333 -22 -114v-418c0 -21.333 -0.666992 -40.666 -2 -57.999
s-3.66602 -32.333 -6.99902 -45h-68c2.66699 14.667 4.66699 32.334 6 53.001c0.666992 20.667 1 43 1 67v333h-66v54h66c0 34.667 2 64 6 88c4 24.667 13.333 47 28 67s33 35.333 55 46c21.333 10.667 46.333 16 75 16c33.333 0 62 -6.66699 86 -20s42.333 -32 55 -56
s19 -51.333 19 -82c0 -22 -3.66699 -41 -11 -57c-8 -16 -17.667 -29.333 -29 -40s-23 -19 -35 -25c-17.333 -8 -32 -14.333 -44 -19s-18 -12.334 -18 -23.001c0 -6.66699 6 -13.334 18 -20.001s27.333 -14.667 46 -24c19.333 -9.33301 40.333 -21.333 63 -36
c20 -13.333 35.667 -32 47 -56c10.667 -24 16 -54.667 16 -92z" />
    <glyph glyph-name="agrave" unicode="&#xe0;" horiz-adv-x="461" 
d="M414 29l-34.001 -53.0039c-15.333 5.33301 -28.333 14.666 -39 27.999s-18 29 -22 47c-21.333 -24 -42 -41.333 -62 -52s-42.667 -16 -68 -16c-36 0.666992 -64.333 8.33398 -85 23.001c-21.333 14.667 -36.333 33.334 -45 56.001c-8.66699 22 -13 44.667 -13 68
c0.666992 58 21 102.333 61 133c40.667 30.667 98.334 46 173.001 46h16h15v36c0 22.667 -1 41.334 -3 56.001s-5.66699 26 -11 34c-7.33301 9.33301 -15.666 16.333 -24.999 21s-20.666 7 -33.999 7c-17.333 0 -35 -2.66699 -53 -8s-34.667 -12.333 -50 -21
c-16 -8.66699 -28.667 -18 -38 -28l-37 52c29.333 22.667 59.666 39.334 90.999 50.001s63 16 95 16c30.667 0 56.334 -6.66699 77.001 -20c21.333 -13.333 36.666 -33.333 45.999 -60c4 -10.667 6.66699 -24.667 8 -42s2 -40.666 2 -69.999v-39c0 -20 -0.333008 -42 -1 -66
s-1 -45.333 -1 -64v-31c0 -20 1 -36 3 -48s5.66699 -22 11 -30c5.33301 -7.33301 12.666 -14 21.999 -20zM307.999 122.996l2.00098 138.999c-5.33301 0.666992 -11.333 1 -18 1h-17c-50.667 0 -88.667 -10.667 -114 -32s-38 -51.666 -38 -90.999
c0 -30.667 6.33301 -54.667 19 -72c13.333 -17.333 32.666 -26 57.999 -26c22.667 0 43.667 7.33301 63 22c19.333 14 34.333 33.333 45 58v1zM324 624.995v-1v0l-22 -42l-200 100l38 70l184 -128v1z" />
    <glyph glyph-name="aacute" unicode="&#xe1;" horiz-adv-x="461" 
d="M414 29l-34.001 -53.0039c-15.333 5.33301 -28.333 14.666 -39 27.999s-18 29 -22 47c-21.333 -24 -42 -41.333 -62 -52s-42.667 -16 -68 -16c-36 0.666992 -64.333 8.33398 -85 23.001c-21.333 14.667 -36.333 33.334 -45 56.001c-8.66699 22 -13 44.667 -13 68
c0.666992 58 21 102.333 61 133c40.667 30.667 98.334 46 173.001 46h16h15v36c0 22.667 -1 41.334 -3 56.001s-5.66699 26 -11 34c-7.33301 9.33301 -15.666 16.333 -24.999 21s-20.666 7 -33.999 7c-17.333 0 -35 -2.66699 -53 -8s-34.667 -12.333 -50 -21
c-16 -8.66699 -28.667 -18 -38 -28l-37 52c29.333 22.667 59.666 39.334 90.999 50.001s63 16 95 16c30.667 0 56.334 -6.66699 77.001 -20c21.333 -13.333 36.666 -33.333 45.999 -60c4 -10.667 6.66699 -24.667 8 -42s2 -40.666 2 -69.999v-39c0 -20 -0.333008 -42 -1 -66
s-1 -45.333 -1 -64v-31c0 -20 1 -36 3 -48s5.66699 -22 11 -30c5.33301 -7.33301 12.666 -14 21.999 -20zM307.999 122.996l2.00098 138.999c-5.33301 0.666992 -11.333 1 -18 1h-17c-50.667 0 -88.667 -10.667 -114 -32s-38 -51.666 -38 -90.999
c0 -30.667 6.33301 -54.667 19 -72c13.333 -17.333 32.666 -26 57.999 -26c22.667 0 43.667 7.33301 63 22c19.333 14 34.333 33.333 45 58v1zM345 682.995v-1v0l-200 -100l-22 42l184 128l38 -70v1z" />
    <glyph glyph-name="acircumflex" unicode="&#xe2;" horiz-adv-x="461" 
d="M414 29l-34.001 -53.0039c-15.333 5.33301 -28.333 14.666 -39 27.999s-18 29 -22 47c-21.333 -24 -42 -41.333 -62 -52s-42.667 -16 -68 -16c-36 0.666992 -64.333 8.33398 -85 23.001c-21.333 14.667 -36.333 33.334 -45 56.001c-8.66699 22 -13 44.667 -13 68
c0.666992 58 21 102.333 61 133c40.667 30.667 98.334 46 173.001 46h16h15v36c0 22.667 -1 41.334 -3 56.001s-5.66699 26 -11 34c-7.33301 9.33301 -15.666 16.333 -24.999 21s-20.666 7 -33.999 7c-17.333 0 -35 -2.66699 -53 -8s-34.667 -12.333 -50 -21
c-16 -8.66699 -28.667 -18 -38 -28l-37 52c29.333 22.667 59.666 39.334 90.999 50.001s63 16 95 16c30.667 0 56.334 -6.66699 77.001 -20c21.333 -13.333 36.666 -33.333 45.999 -60c4 -10.667 6.66699 -24.667 8 -42s2 -40.666 2 -69.999v-39c0 -20 -0.333008 -42 -1 -66
s-1 -45.333 -1 -64v-31c0 -20 1 -36 3 -48s5.66699 -22 11 -30c5.33301 -7.33301 12.666 -14 21.999 -20zM307.999 122.996l2.00098 138.999c-5.33301 0.666992 -11.333 1 -18 1h-17c-50.667 0 -88.667 -10.667 -114 -32s-38 -51.666 -38 -90.999
c0 -30.667 6.33301 -54.667 19 -72c13.333 -17.333 32.666 -26 57.999 -26c22.667 0 43.667 7.33301 63 22c19.333 14 34.333 33.333 45 58v1zM372 620.995v-1v0l-34 -37l-121 84l-118 -84l-31 37l152 138l152 -138v1z" />
    <glyph glyph-name="atilde" unicode="&#xe3;" horiz-adv-x="461" 
d="M414 29l-34.001 -53.0039c-15.333 5.33301 -28.333 14.666 -39 27.999s-18 29 -22 47c-21.333 -24 -42 -41.333 -62 -52s-42.667 -16 -68 -16c-36 0.666992 -64.333 8.33398 -85 23.001c-21.333 14.667 -36.333 33.334 -45 56.001c-8.66699 22 -13 44.667 -13 68
c0.666992 58 21 102.333 61 133c40.667 30.667 98.334 46 173.001 46h16h15v36c0 22.667 -1 41.334 -3 56.001s-5.66699 26 -11 34c-7.33301 9.33301 -15.666 16.333 -24.999 21s-20.666 7 -33.999 7c-17.333 0 -35 -2.66699 -53 -8s-34.667 -12.333 -50 -21
c-16 -8.66699 -28.667 -18 -38 -28l-37 52c29.333 22.667 59.666 39.334 90.999 50.001s63 16 95 16c30.667 0 56.334 -6.66699 77.001 -20c21.333 -13.333 36.666 -33.333 45.999 -60c4 -10.667 6.66699 -24.667 8 -42s2 -40.666 2 -69.999v-39c0 -20 -0.333008 -42 -1 -66
s-1 -45.333 -1 -64v-31c0 -20 1 -36 3 -48s5.66699 -22 11 -30c5.33301 -7.33301 12.666 -14 21.999 -20zM307.999 122.996l2.00098 138.999c-5.33301 0.666992 -11.333 1 -18 1h-17c-50.667 0 -88.667 -10.667 -114 -32s-38 -51.666 -38 -90.999
c0 -30.667 6.33301 -54.667 19 -72c13.333 -17.333 32.666 -26 57.999 -26c22.667 0 43.667 7.33301 63 22c19.333 14 34.333 33.333 45 58v1zM372 670.995l-0.000976562 -1.00098v0v0c-14 -21.333 -29 -36.666 -45 -45.999s-36.667 -14 -62 -14
c-17.333 0 -31.333 2.66699 -42 8l-31 16c-10 5.33301 -23.333 8.33301 -40 9c-14 0 -25.667 -3.33301 -35 -10s-18.666 -15.667 -27.999 -27l-26 40c14.667 20.667 30 35.667 46 45s36.667 14 62 14c17.333 -0.666992 31.333 -3.66699 42 -9l31 -16
c10.667 -5.33301 24 -8 40 -8c14 0 25.667 3.33301 35 10s18.333 16 27 28l24 -40z" />
    <glyph glyph-name="adieresis" unicode="&#xe4;" horiz-adv-x="461" 
d="M414 29l-34.001 -53.0039c-15.333 5.33301 -28.333 14.666 -39 27.999s-18 29 -22 47c-21.333 -24 -42 -41.333 -62 -52s-42.667 -16 -68 -16c-36 0.666992 -64.333 8.33398 -85 23.001c-21.333 14.667 -36.333 33.334 -45 56.001c-8.66699 22 -13 44.667 -13 68
c0.666992 58 21 102.333 61 133c40.667 30.667 98.334 46 173.001 46h16h15v36c0 22.667 -1 41.334 -3 56.001s-5.66699 26 -11 34c-7.33301 9.33301 -15.666 16.333 -24.999 21s-20.666 7 -33.999 7c-17.333 0 -35 -2.66699 -53 -8s-34.667 -12.333 -50 -21
c-16 -8.66699 -28.667 -18 -38 -28l-37 52c29.333 22.667 59.666 39.334 90.999 50.001s63 16 95 16c30.667 0 56.334 -6.66699 77.001 -20c21.333 -13.333 36.666 -33.333 45.999 -60c4 -10.667 6.66699 -24.667 8 -42s2 -40.666 2 -69.999v-39c0 -20 -0.333008 -42 -1 -66
s-1 -45.333 -1 -64v-31c0 -20 1 -36 3 -48s5.66699 -22 11 -30c5.33301 -7.33301 12.666 -14 21.999 -20zM307.999 122.996l2.00098 138.999c-5.33301 0.666992 -11.333 1 -18 1h-17c-50.667 0 -88.667 -10.667 -114 -32s-38 -51.666 -38 -90.999
c0 -30.667 6.33301 -54.667 19 -72c13.333 -17.333 32.666 -26 57.999 -26c22.667 0 43.667 7.33301 63 22c19.333 14 34.333 33.333 45 58v1zM177 635.995c0 -14 -4.66699 -25.667 -14 -35s-20.666 -14 -33.999 -14s-24.666 4.66699 -33.999 14s-14 21 -14 35
c0 13.333 4.66699 24.666 14 33.999s20.666 14 33.999 14s24.666 -4.66699 33.999 -14s14 -20.666 14 -33.999zM360 636.995v-1v0v0c0 -14 -4.66699 -25.667 -14 -35s-20.666 -14 -33.999 -14s-24.666 4.66699 -33.999 14s-14 21 -14 35c0 13.333 4.66699 24.666 14 33.999
s20.666 14 33.999 14s24.666 -4.66699 33.999 -14s14 -20.666 14 -33.999v1z" />
    <glyph glyph-name="aring" unicode="&#xe5;" horiz-adv-x="461" 
d="M414 29l-34.001 -53.0039c-15.333 5.33301 -28.333 14.666 -39 27.999s-18 29 -22 47c-21.333 -24 -42 -41.333 -62 -52s-42.667 -16 -68 -16c-36 0.666992 -64.333 8.33398 -85 23.001c-21.333 14.667 -36.333 33.334 -45 56.001c-8.66699 22 -13 44.667 -13 68
c0.666992 58 21 102.333 61 133c40.667 30.667 98.334 46 173.001 46h16h15v36c0 22.667 -1 41.334 -3 56.001s-5.66699 26 -11 34c-7.33301 9.33301 -15.666 16.333 -24.999 21s-20.666 7 -33.999 7c-17.333 0 -35 -2.66699 -53 -8s-34.667 -12.333 -50 -21
c-16 -8.66699 -28.667 -18 -38 -28l-37 52c29.333 22.667 59.666 39.334 90.999 50.001s63 16 95 16c30.667 0 56.334 -6.66699 77.001 -20c21.333 -13.333 36.666 -33.333 45.999 -60c4 -10.667 6.66699 -24.667 8 -42s2 -40.666 2 -69.999v-39c0 -20 -0.333008 -42 -1 -66
s-1 -45.333 -1 -64v-31c0 -20 1 -36 3 -48s5.66699 -22 11 -30c5.33301 -7.33301 12.666 -14 21.999 -20zM307.999 122.996l2.00098 138.999c-5.33301 0.666992 -11.333 1 -18 1h-17c-50.667 0 -88.667 -10.667 -114 -32s-38 -51.666 -38 -90.999
c0 -30.667 6.33301 -54.667 19 -72c13.333 -17.333 32.666 -26 57.999 -26c22.667 0 43.667 7.33301 63 22c19.333 14 34.333 33.333 45 58v1zM327 674.995c-0.666992 -26.667 -9.66602 -48.667 -26.999 -66c-17.333 -18 -39.333 -27.333 -66 -28
c-26.667 0.666992 -49.334 10 -68.001 28c-18 17.333 -27.667 39.333 -29 66c0.666992 26.667 9.66699 48.667 27 66c17.333 18 39.333 27.333 66 28c26.667 -0.666992 48.667 -10 66 -28c18 -17.333 27.333 -39.333 28 -66h3zM284.001 675.995l-0.00195312 -1v0v0
c0 14.667 -5.33301 27 -16 37c-10.667 10.667 -24 16 -40 16c-14.667 0 -26.667 -5.33301 -36 -16c-9.33301 -10 -14.333 -22.333 -15 -37c0.666992 -14.667 6.33398 -27 17.001 -37c10.667 -10.667 23.334 -16 38.001 -16s27 5.33301 37 16c10 10 15 22.333 15 37v1z" />
    <glyph glyph-name="ae" unicode="&#xe6;" horiz-adv-x="694" 
d="M657 242l-276.999 0.000976562v-16c0 -34 4.66699 -64.333 14 -91s23.666 -47.667 42.999 -63s44.333 -23 75 -23c21.333 0 40.666 4 57.999 12c18 8 34.333 20 49 36l28 -49c-20 -20 -43 -35.333 -69 -46c-25.333 -10.667 -52.666 -16 -81.999 -16
c-36 0.666992 -67 9.66699 -93 27c-26 16.667 -45.667 37 -59 61c-20 -27.333 -43.333 -49 -70 -65c-27.333 -16 -54.333 -24 -81 -24c-37.333 0.666992 -66.666 8.33398 -87.999 23.001s-36.333 33 -45 55c-8.66699 21.333 -13 43 -13 65
c0.666992 58.667 21.667 104 63 136s99.333 48.333 174 49h13c5.33301 0 11.333 -0.333008 18 -1v38c0 22.667 -1 40 -3 52s-6 22 -12 30c-6.66699 9.33301 -14.667 16.666 -24 21.999c-9.33301 6 -21 9 -35 9c-23.333 0 -47.333 -5.33301 -72 -16
s-47.667 -25.334 -69 -44.001l-35 52c29.333 22.667 59.666 40 90.999 52s63 18 95 18c26 0 47.667 -6 65 -18s31.333 -28.333 42 -49c17.333 20.667 36.333 37 57 49s43.334 18 68.001 18c24 0 46 -4.66699 66 -14c20 -10 37.667 -24 53 -42c12 -14.667 22 -30.667 30 -48
c7.33301 -17.333 12.666 -39 15.999 -65c3.33301 -26.667 5 -60 5 -100v-12zM311.001 128.001l0.000976562 133.001c-6.66699 0.666992 -12.667 1 -18 1h-17c-54.667 0 -94 -10.667 -118 -32s-35.667 -52 -35 -92c0 -30.667 6.33301 -54.334 19 -71.001
c13.333 -16 32.666 -24 57.999 -24c22.667 0 44 8 64 24s36 36.333 48 61h-1zM579.002 301.002l-0.000976562 -1v0v0c0 53.333 -8 94 -24 122s-41.667 42 -77 42c-32 0 -56.667 -14 -74 -42s-26.666 -68.667 -27.999 -122h204z" />
    <glyph glyph-name="ccedilla" unicode="&#xe7;" horiz-adv-x="397" 
d="M379 48l-0.000976562 -1.00098v0v0c-18.667 -22.667 -38 -38.667 -58 -48c-20.667 -9.33301 -43.667 -14 -69 -14l-8 -32c22.667 -4 38.667 -12 48 -24s14 -28 14 -48c0 -22.667 -8 -42.334 -24 -59.001c-16 -16 -39 -24.667 -69 -26
c-13.333 0 -26.666 2.66699 -39.999 8s-24.666 11 -33.999 17l18 46c11.333 -6 21 -10.333 29 -13c7.33301 -2.66699 16 -4 26 -4c9.33301 0 17.666 2.66699 24.999 8s11 14 11 26c0 10.667 -4 18.667 -12 24s-16.667 8 -26 8h-14c-4 0 -7.33301 -0.333008 -10 -1l-8 10
l16 67c-20.667 4.66699 -39 13 -55 25c-16 11.333 -29.667 26.333 -41 45c-14.667 24 -25.334 51.333 -32.001 82s-10 65 -10 103c0 54.667 6 99.334 18 134.001c12 34 27.667 61.667 47 83c17.333 20 36 35 56 45c20 9.33301 42 14 66 14c28 0 51.667 -4.66699 71 -14
s36 -21.333 50 -36l-36 -48c-14 13.333 -27.667 22.666 -41 27.999s-28.666 8 -45.999 8s-33.333 -4.66699 -48 -14s-27 -24.666 -37 -45.999c-8 -17.333 -14 -34.666 -18 -51.999s-6.66699 -35.666 -8 -54.999c-1.33301 -18.667 -2 -40.334 -2 -65.001
c0 -34.667 4 -66 12 -94s20.333 -50.333 37 -67c16 -16 36.333 -24 61 -24c18 0 35 4 51 12s30.333 20.667 43 38l40 -43z" />
    <glyph glyph-name="egrave" unicode="&#xe8;" horiz-adv-x="450" 
d="M410 242h-278c0 -32 1.33301 -58.333 4 -79c2.66699 -21.333 8.66699 -40 18 -56c12.667 -22 28.667 -38 48 -48s40.333 -15 63 -15c21.333 0 40.666 4.33301 57.999 13c17.333 8 33.333 19.333 48 34l28 -42c-20 -20.667 -42.667 -36.334 -68 -47.001
s-52.666 -16 -81.999 -16c-62 0.666992 -110.333 25 -145 73s-52.334 114.667 -53.001 200c0 42.667 4 79.334 12 110.001c8 31.333 21.333 59.666 40 84.999c18 24 38.333 41.333 61 52s47.334 16 74.001 16c24 0 46.667 -4.66699 68 -14c21.333 -10 39.333 -24 54 -42
c12 -14.667 21.333 -30.667 28 -48c7.33301 -17.333 12.333 -38.666 15 -63.999c3.33301 -25.333 5 -58 5 -98v-11zM333 298c0 28 -1.33203 52.668 -3.99902 74.001c-2.66699 22 -7.33398 39.333 -14.001 52c-8 14 -18.667 25.333 -32 34c-13.333 8 -30 12 -50 12
c-34.667 -0.666992 -60 -16.334 -76 -47.001s-24.667 -72.667 -26 -126h204zM324.001 625.001v-1v0l-22 -42l-200 100l38 70l184 -128v1z" />
    <glyph glyph-name="eacute" unicode="&#xe9;" horiz-adv-x="450" 
d="M410 242h-278c0 -32 1.33301 -58.333 4 -79c2.66699 -21.333 8.66699 -40 18 -56c12.667 -22 28.667 -38 48 -48s40.333 -15 63 -15c21.333 0 40.666 4.33301 57.999 13c17.333 8 33.333 19.333 48 34l28 -42c-20 -20.667 -42.667 -36.334 -68 -47.001
s-52.666 -16 -81.999 -16c-62 0.666992 -110.333 25 -145 73s-52.334 114.667 -53.001 200c0 42.667 4 79.334 12 110.001c8 31.333 21.333 59.666 40 84.999c18 24 38.333 41.333 61 52s47.334 16 74.001 16c24 0 46.667 -4.66699 68 -14c21.333 -10 39.333 -24 54 -42
c12 -14.667 21.333 -30.667 28 -48c7.33301 -17.333 12.333 -38.666 15 -63.999c3.33301 -25.333 5 -58 5 -98v-11zM333 298c0 28 -1.33203 52.668 -3.99902 74.001c-2.66699 22 -7.33398 39.333 -14.001 52c-8 14 -18.667 25.333 -32 34c-13.333 8 -30 12 -50 12
c-34.667 -0.666992 -60 -16.334 -76 -47.001s-24.667 -72.667 -26 -126h204zM345.001 683.001v-1v0l-200 -100l-22 42l184 128l38 -70v1z" />
    <glyph glyph-name="ecircumflex" unicode="&#xea;" horiz-adv-x="450" 
d="M410 242h-278c0 -32 1.33301 -58.333 4 -79c2.66699 -21.333 8.66699 -40 18 -56c12.667 -22 28.667 -38 48 -48s40.333 -15 63 -15c21.333 0 40.666 4.33301 57.999 13c17.333 8 33.333 19.333 48 34l28 -42c-20 -20.667 -42.667 -36.334 -68 -47.001
s-52.666 -16 -81.999 -16c-62 0.666992 -110.333 25 -145 73s-52.334 114.667 -53.001 200c0 42.667 4 79.334 12 110.001c8 31.333 21.333 59.666 40 84.999c18 24 38.333 41.333 61 52s47.334 16 74.001 16c24 0 46.667 -4.66699 68 -14c21.333 -10 39.333 -24 54 -42
c12 -14.667 21.333 -30.667 28 -48c7.33301 -17.333 12.333 -38.666 15 -63.999c3.33301 -25.333 5 -58 5 -98v-11zM333 298c0 28 -1.33203 52.668 -3.99902 74.001c-2.66699 22 -7.33398 39.333 -14.001 52c-8 14 -18.667 25.333 -32 34c-13.333 8 -30 12 -50 12
c-34.667 -0.666992 -60 -16.334 -76 -47.001s-24.667 -72.667 -26 -126h204zM385.001 621.001v-1v0l-35 -37l-120 84l-118 -84l-30 37l152 138l152 -138z" />
    <glyph glyph-name="edieresis" unicode="&#xeb;" horiz-adv-x="450" 
d="M410 242h-278c0 -32 1.33301 -58.333 4 -79c2.66699 -21.333 8.66699 -40 18 -56c12.667 -22 28.667 -38 48 -48s40.333 -15 63 -15c21.333 0 40.666 4.33301 57.999 13c17.333 8 33.333 19.333 48 34l28 -42c-20 -20.667 -42.667 -36.334 -68 -47.001
s-52.666 -16 -81.999 -16c-62 0.666992 -110.333 25 -145 73s-52.334 114.667 -53.001 200c0 42.667 4 79.334 12 110.001c8 31.333 21.333 59.666 40 84.999c18 24 38.333 41.333 61 52s47.334 16 74.001 16c24 0 46.667 -4.66699 68 -14c21.333 -10 39.333 -24 54 -42
c12 -14.667 21.333 -30.667 28 -48c7.33301 -17.333 12.333 -38.666 15 -63.999c3.33301 -25.333 5 -58 5 -98v-11zM333 298c0 28 -1.33203 52.668 -3.99902 74.001c-2.66699 22 -7.33398 39.333 -14.001 52c-8 14 -18.667 25.333 -32 34c-13.333 8 -30 12 -50 12
c-34.667 -0.666992 -60 -16.334 -76 -47.001s-24.667 -72.667 -26 -126h204zM188.001 636.001c0 -14 -4.66699 -25.667 -14 -35s-20.666 -14 -33.999 -14c-14 0 -25.667 4.66699 -35 14s-14 21 -14 35c0 13.333 4.66699 24.666 14 33.999s20.666 14 33.999 14
c14 0 25.667 -4.66699 35 -14s14 -20.666 14 -33.999zM370.001 637.001v-1v0v0c0 -14 -4.66699 -25.667 -14 -35s-20.666 -14 -33.999 -14s-24.666 4.66699 -33.999 14s-14 21 -14 35c0 13.333 4.66699 24.666 14 33.999s20.666 14 33.999 14s24.666 -4.66699 33.999 -14
s14 -20.666 14 -33.999v1z" />
    <glyph glyph-name="igrave" unicode="&#xec;" horiz-adv-x="237" 
d="M154 1h-72v511l72 10v-522v1zM177 625v-1v0l-22 -42l-200 100l38 70l184 -128v1z" />
    <glyph glyph-name="iacute" unicode="&#xed;" horiz-adv-x="237" 
d="M154 1h-72v511l72 10v-522v1zM282 683v-1v0l-200 -100l-22 42l184 128l38 -70v1z" />
    <glyph glyph-name="icircumflex" unicode="&#xee;" horiz-adv-x="237" 
d="M154 1h-72v511l72 10v-522v1zM271 621v-1v0l-35 -37l-121 84l-118 -84l-31 37l152 138l152 -138z" />
    <glyph glyph-name="idieresis" unicode="&#xef;" horiz-adv-x="237" 
d="M154 1h-72v511l72 10v-522v1zM75 636c-0.666992 -14 -5.66699 -25.667 -15 -35s-20.666 -14 -33.999 -14s-24.666 4.66699 -33.999 14s-14 21 -14 35c0 13.333 4.66699 24.666 14 33.999s20.666 14 33.999 14s24.666 -4.66699 33.999 -14s14.333 -20.666 15 -33.999z
M258 637v-1v0v0c0 -14 -4.66699 -25.667 -14 -35s-20.666 -14 -33.999 -14s-24.666 4.66699 -33.999 14s-14 21 -14 35c0 13.333 4.66699 24.666 14 33.999s20.666 14 33.999 14s24.666 -4.66699 33.999 -14s14 -20.666 14 -33.999v1z" />
    <glyph glyph-name="eth" unicode="&#xf0;" horiz-adv-x="480" 
d="M429 243c-0.666992 -84.667 -18.335 -149.003 -53.002 -193.003s-81.334 -66 -140.001 -66c-37.333 0 -70.333 10 -99 30c-28 20 -50 47.333 -66 82s-24 74 -24 118c0 42 7.66699 78.333 23 109s36.333 54.334 63 71.001s57.334 25 92.001 25c21.333 0 41.333 -2 60 -6
s34 -10 46 -18c-8 24 -19.333 49 -34 75s-32 50 -52 72l-40 -48l-52 37l47 54c-26.667 22.667 -55 42 -85 58c-29.333 16 -57.666 26 -84.999 30l40 44c24.667 -3.33301 52.334 -11.666 83.001 -24.999c30.667 -14 61 -33 91 -57l49 56l52 -37l-54 -62
c5.33301 -5.33301 10.666 -11 15.999 -17s10.333 -12.333 15 -19c34.667 -45.333 61.334 -93.666 80.001 -144.999c18 -51.333 27 -106.333 27 -165v-3zM352.999 232.997h-0.000976562c0 11.333 -0.666992 23.666 -2 36.999s-2.66602 25.333 -3.99902 36s-2.33301 18 -3 22
c-9.33301 8 -24 15.333 -44 22s-42 10 -66 10c-37.333 0 -65 -13.333 -83 -40s-27 -64.667 -27 -114s10 -88.666 30 -117.999c20.667 -29.333 49.667 -44.333 87 -45c38.667 0.666992 67 18 85 52c18 34.667 27 81 27 139v-1z" />
    <glyph glyph-name="ntilde" unicode="&#xf1;" horiz-adv-x="489" 
d="M410 -2l-69.999 -0.000976562v350c0 26.667 -1.33301 46.667 -4 60c-2.66699 12.667 -7 23 -13 31c-4.66699 6.66699 -11.334 12 -20.001 16c-9.33301 4 -19.333 6 -30 6c-18.667 0 -39.334 -6 -62.001 -18s-43 -28 -61 -48v-394h-68v394
c0 24.667 -1.33301 46.334 -4 65.001c-3.33301 18.667 -7.33301 34 -12 46l68 18c4.66699 -9.33301 8.33398 -19.333 11.001 -30s4 -23 4 -37c25.333 25.333 49.333 43 72 53c22.667 9.33301 45.667 14 69 14c18 0 35 -4 51 -12c15.333 -8 28.333 -18.667 39 -32
s18 -28 22 -44s6 -32 6 -48v-388zM389.001 670.999l0.000976562 -1.00098v0v0c-14 -21.333 -29 -36.666 -45 -45.999s-36.667 -14 -62 -14c-17.333 0 -31.333 2.66699 -42 8l-31 16c-10.667 5.33301 -24 8.33301 -40 9c-14 0 -25.667 -3.33301 -35 -10
s-18.333 -15.667 -27 -27l-26 40c14 20.667 29 35.667 45 45s36.667 14 62 14c17.333 -0.666992 31.333 -3.66699 42 -9l31 -16c10.667 -5.33301 24 -8 40 -8c14 0 25.667 3.33301 35 10s18.666 16 27.999 28l24 -40z" />
    <glyph glyph-name="ograve" unicode="&#xf2;" horiz-adv-x="465" 
d="M427 244c0 -34.667 -3.33301 -65.999 -10 -93.999s-15.667 -52.667 -27 -74c-17.333 -30.667 -39.333 -53.667 -66 -69c-26.667 -14.667 -56.667 -22 -90 -22c-32 0 -60 6.33301 -84 19s-44.333 31.667 -61 57c-15.333 24 -27 52.667 -35 86s-12 70.333 -12 111
c0 41.333 4.33301 78.666 13 111.999c8 33.333 20 61.333 36 84c16 24 36 42 60 54s50.667 18 80 18c36.667 -0.666992 67.667 -9 93 -25c24.667 -16 44.667 -36.667 60 -62c13.333 -22.667 23.333 -50 30 -82s10 -68.667 10 -110zM343 238.001
c0 36 -1.66895 68.0029 -5.00195 96.0029c-2.66699 28 -7.66699 50.667 -15 68c-9.33301 22.667 -22.666 39 -39.999 49c-17.333 10.667 -35.333 16 -54 16c-20 0 -38 -4.66699 -54 -14s-28 -22.666 -36 -39.999c-7.33301 -16 -12.666 -36 -15.999 -60
c-4 -24.667 -6 -52.334 -6 -83.001c0 -24 1.33301 -47.333 4 -70s6 -43.334 10 -62.001s8.66699 -33.334 14 -44.001c8.66699 -15.333 21 -27.333 37 -36s33.667 -13 53 -13c23.333 0 43 6.33301 59 19c16.667 12.667 29 31 37 55c5.33301 16 9 34 11 54
c1.33301 19.333 2 41.666 2 66.999zM313.998 625.004v-1v0l-22 -42l-200 100l38 70l184 -128v1z" />
    <glyph glyph-name="oacute" unicode="&#xf3;" horiz-adv-x="465" 
d="M427 244c0 -34.667 -3.33301 -65.999 -10 -93.999s-15.667 -52.667 -27 -74c-17.333 -30.667 -39.333 -53.667 -66 -69c-26.667 -14.667 -56.667 -22 -90 -22c-32 0 -60 6.33301 -84 19s-44.333 31.667 -61 57c-15.333 24 -27 52.667 -35 86s-12 70.333 -12 111
c0 41.333 4.33301 78.666 13 111.999c8 33.333 20 61.333 36 84c16 24 36 42 60 54s50.667 18 80 18c36.667 -0.666992 67.667 -9 93 -25c24.667 -16 44.667 -36.667 60 -62c13.333 -22.667 23.333 -50 30 -82s10 -68.667 10 -110zM343 238.001
c0 36 -1.66895 68.0029 -5.00195 96.0029c-2.66699 28 -7.66699 50.667 -15 68c-9.33301 22.667 -22.666 39 -39.999 49c-17.333 10.667 -35.333 16 -54 16c-20 0 -38 -4.66699 -54 -14s-28 -22.666 -36 -39.999c-7.33301 -16 -12.666 -36 -15.999 -60
c-4 -24.667 -6 -52.334 -6 -83.001c0 -24 1.33301 -47.333 4 -70s6 -43.334 10 -62.001s8.66699 -33.334 14 -44.001c8.66699 -15.333 21 -27.333 37 -36s33.667 -13 53 -13c23.333 0 43 6.33301 59 19c16.667 12.667 29 31 37 55c5.33301 16 9 34 11 54
c1.33301 19.333 2 41.666 2 66.999zM344.998 683.004v-1v0l-200 -100l-22 42l184 128l38 -70v1z" />
    <glyph glyph-name="ocircumflex" unicode="&#xf4;" horiz-adv-x="465" 
d="M427 244c0 -34.667 -3.33301 -65.999 -10 -93.999s-15.667 -52.667 -27 -74c-17.333 -30.667 -39.333 -53.667 -66 -69c-26.667 -14.667 -56.667 -22 -90 -22c-32 0 -60 6.33301 -84 19s-44.333 31.667 -61 57c-15.333 24 -27 52.667 -35 86s-12 70.333 -12 111
c0 41.333 4.33301 78.666 13 111.999c8 33.333 20 61.333 36 84c16 24 36 42 60 54s50.667 18 80 18c36.667 -0.666992 67.667 -9 93 -25c24.667 -16 44.667 -36.667 60 -62c13.333 -22.667 23.333 -50 30 -82s10 -68.667 10 -110zM343 238.001
c0 36 -1.66895 68.0029 -5.00195 96.0029c-2.66699 28 -7.66699 50.667 -15 68c-9.33301 22.667 -22.666 39 -39.999 49c-17.333 10.667 -35.333 16 -54 16c-20 0 -38 -4.66699 -54 -14s-28 -22.666 -36 -39.999c-7.33301 -16 -12.666 -36 -15.999 -60
c-4 -24.667 -6 -52.334 -6 -83.001c0 -24 1.33301 -47.333 4 -70s6 -43.334 10 -62.001s8.66699 -33.334 14 -44.001c8.66699 -15.333 21 -27.333 37 -36s33.667 -13 53 -13c23.333 0 43 6.33301 59 19c16.667 12.667 29 31 37 55c5.33301 16 9 34 11 54
c1.33301 19.333 2 41.666 2 66.999zM381.998 621.004v-1v0l-35 -37l-120 84l-118 -84l-30 37l152 138l152 -138z" />
    <glyph glyph-name="otilde" unicode="&#xf5;" horiz-adv-x="465" 
d="M427 244c0 -34.667 -3.33301 -65.999 -10 -93.999s-15.667 -52.667 -27 -74c-17.333 -30.667 -39.333 -53.667 -66 -69c-26.667 -14.667 -56.667 -22 -90 -22c-32 0 -60 6.33301 -84 19s-44.333 31.667 -61 57c-15.333 24 -27 52.667 -35 86s-12 70.333 -12 111
c0 41.333 4.33301 78.666 13 111.999c8 33.333 20 61.333 36 84c16 24 36 42 60 54s50.667 18 80 18c36.667 -0.666992 67.667 -9 93 -25c24.667 -16 44.667 -36.667 60 -62c13.333 -22.667 23.333 -50 30 -82s10 -68.667 10 -110zM343 238.001
c0 36 -1.66895 68.0029 -5.00195 96.0029c-2.66699 28 -7.66699 50.667 -15 68c-9.33301 22.667 -22.666 39 -39.999 49c-17.333 10.667 -35.333 16 -54 16c-20 0 -38 -4.66699 -54 -14s-28 -22.666 -36 -39.999c-7.33301 -16 -12.666 -36 -15.999 -60
c-4 -24.667 -6 -52.334 -6 -83.001c0 -24 1.33301 -47.333 4 -70s6 -43.334 10 -62.001s8.66699 -33.334 14 -44.001c8.66699 -15.333 21 -27.333 37 -36s33.667 -13 53 -13c23.333 0 43 6.33301 59 19c16.667 12.667 29 31 37 55c5.33301 16 9 34 11 54
c1.33301 19.333 2 41.666 2 66.999zM378.998 671.004v-1.00098v0v0c-14.667 -21.333 -30 -36.666 -46 -45.999s-36.667 -14 -62 -14c-17.333 0 -31.333 2.66699 -42 8l-31 16c-10 5.33301 -23.333 8.33301 -40 9c-14 0 -25.667 -3.33301 -35 -10
s-18.666 -15.667 -27.999 -27l-26 40c14.667 20.667 30 35.667 46 45s36.667 14 62 14c17.333 -0.666992 31.333 -3.66699 42 -9l31 -16c10 -5.33301 23.333 -8 40 -8c14 0 25.667 3.33301 35 10s18.666 16 27.999 28l24 -40z" />
    <glyph glyph-name="odieresis" unicode="&#xf6;" horiz-adv-x="465" 
d="M427 244c0 -34.667 -3.33301 -65.999 -10 -93.999s-15.667 -52.667 -27 -74c-17.333 -30.667 -39.333 -53.667 -66 -69c-26.667 -14.667 -56.667 -22 -90 -22c-32 0 -60 6.33301 -84 19s-44.333 31.667 -61 57c-15.333 24 -27 52.667 -35 86s-12 70.333 -12 111
c0 41.333 4.33301 78.666 13 111.999c8 33.333 20 61.333 36 84c16 24 36 42 60 54s50.667 18 80 18c36.667 -0.666992 67.667 -9 93 -25c24.667 -16 44.667 -36.667 60 -62c13.333 -22.667 23.333 -50 30 -82s10 -68.667 10 -110zM343 238.001
c0 36 -1.66895 68.0029 -5.00195 96.0029c-2.66699 28 -7.66699 50.667 -15 68c-9.33301 22.667 -22.666 39 -39.999 49c-17.333 10.667 -35.333 16 -54 16c-20 0 -38 -4.66699 -54 -14s-28 -22.666 -36 -39.999c-7.33301 -16 -12.666 -36 -15.999 -60
c-4 -24.667 -6 -52.334 -6 -83.001c0 -24 1.33301 -47.333 4 -70s6 -43.334 10 -62.001s8.66699 -33.334 14 -44.001c8.66699 -15.333 21 -27.333 37 -36s33.667 -13 53 -13c23.333 0 43 6.33301 59 19c16.667 12.667 29 31 37 55c5.33301 16 9 34 11 54
c1.33301 19.333 2 41.666 2 66.999zM184.998 636.004c0 -14 -4.66797 -25.667 -14.001 -35s-20.666 -14 -33.999 -14s-24.666 4.66699 -33.999 14s-14 21 -14 35c0 13.333 4.66699 24.666 14 33.999s20.666 14 33.999 14c14 0 25.667 -4.66699 35 -14s14 -20.666 14 -33.999
h-1zM369.997 637.004v-1v0v0c0 -14 -4.66699 -25.667 -14 -35s-20.666 -14 -33.999 -14s-24.666 4.66699 -33.999 14s-14 21 -14 35c0 13.333 4.66699 24.666 14 33.999s20.666 14 33.999 14s24.666 -4.66699 33.999 -14s14 -20.666 14 -33.999v1z" />
    <glyph glyph-name="divide" unicode="&#xf7;" horiz-adv-x="567" 
d="M52 278v68h464v-68h-464zM338 128c0 -16 -5.33301 -29.333 -16 -40c-10.667 -11.333 -24 -17 -40 -17s-29.667 5.66699 -41 17c-11.333 10.667 -17.333 24 -18 40c0 17.333 5.66699 31.333 17 42c10.667 10.667 24 16 40 16s29.333 -5.33301 40 -16
c11.333 -10.667 17 -24.667 17 -42h1zM338 496v-1v0v0c0 -16 -5.33301 -29.333 -16 -40c-10.667 -11.333 -24 -17 -40 -17s-29.667 5.66699 -41 17c-11.333 10.667 -17.333 24 -18 40c0 16.667 5.66699 30.334 17 41.001c10.667 10.667 24 16 40 16s29.333 -5.33301 40 -16
c11.333 -10.667 17 -24.334 17 -41.001z" />
    <glyph glyph-name="oslash" unicode="&#xf8;" horiz-adv-x="465" 
d="M428 244c0 -34.667 -3.33398 -65.999 -10.001 -93.999s-15.667 -52.667 -27 -74c-17.333 -30.667 -39.333 -53.667 -66 -69c-26.667 -14.667 -56.667 -22 -90 -22c-18.667 0 -36 2.33301 -52 7c-16 4 -30.667 10.333 -44 19l-43 -80l-40 30l44 85l-10 14
c-15.333 24 -27 52.667 -35 86s-12 70.333 -12 111c0 41.333 4.33301 78.666 13 111.999c8 33.333 20 61.333 36 84c16 24 36 42 60 54s50.667 18 80 18c20 0 38.333 -2.66699 55 -8s31.667 -13 45 -23l44 84l40 -30l-47 -89c2.66699 -2.66699 5.33398 -5.66699 8.00098 -9
c2 -3.33301 4.33301 -7 7 -11c13.333 -22.667 23.333 -50 30 -82s10 -68.667 10 -110zM117.999 272.001c0 -29.333 1.33301 -57.332 4 -83.999s6.66699 -49.334 12 -68.001l168 319c-10.667 10 -22.334 17.667 -35.001 23c-12 4.66699 -24.667 7 -38 7
c-20 0 -38 -4.66699 -54 -14s-28 -22.666 -36 -39.999c-7.33301 -16 -12.666 -36 -15.999 -60c-4 -24.667 -6 -52.334 -6 -83.001h1zM343.999 241.002v-0.999023v0v0c0 30 -1.33301 57 -4 81c-2 24.667 -5.66699 45.667 -11 63l-164 -316c9.33301 -7.33301 20 -13 32 -17
s24.667 -6 38 -6c23.333 0 43 6.33301 59 19c16.667 12.667 29 31 37 55c5.33301 16 9 34 11 54c1.33301 19.333 2 41.666 2 66.999v1z" />
    <glyph glyph-name="ugrave" unicode="&#xf9;" horiz-adv-x="490" 
d="M442 35l-45.998 -54.0039c-14.667 13.333 -25.334 25.333 -32.001 36c-6.66699 11.333 -11.334 25 -14.001 41c-17.333 -25.333 -37.333 -44 -60 -56s-50 -18 -82 -18c-18.667 0 -35.334 2.33301 -50.001 7c-14 4 -26.333 10.333 -37 19c-18 16 -29.667 34.667 -35 56
c-5.33301 20.667 -8 42.334 -8 65.001v381l68 12v-381c0 -24 2 -42.667 6 -56s11 -24 21 -32c6.66699 -5.33301 14.667 -9.33301 24 -12c8.66699 -2.66699 19 -4 31 -4c24.667 0 46.334 8 65.001 24c18 16 34 37.333 48 64v382l68 10v-375c0 -21.333 1 -38.666 3 -51.999
s5 -24.666 9 -33.999c4.66699 -9.33301 10.667 -17.666 18 -24.999zM356.002 624.996v-1v0l-22 -42l-200 100l38 70l184 -128v1z" />
    <glyph glyph-name="uacute" unicode="&#xfa;" horiz-adv-x="490" 
d="M442 35l-45.998 -54.0039c-14.667 13.333 -25.334 25.333 -32.001 36c-6.66699 11.333 -11.334 25 -14.001 41c-17.333 -25.333 -37.333 -44 -60 -56s-50 -18 -82 -18c-18.667 0 -35.334 2.33301 -50.001 7c-14 4 -26.333 10.333 -37 19c-18 16 -29.667 34.667 -35 56
c-5.33301 20.667 -8 42.334 -8 65.001v381l68 12v-381c0 -24 2 -42.667 6 -56s11 -24 21 -32c6.66699 -5.33301 14.667 -9.33301 24 -12c8.66699 -2.66699 19 -4 31 -4c24.667 0 46.334 8 65.001 24c18 16 34 37.333 48 64v382l68 10v-375c0 -21.333 1 -38.666 3 -51.999
s5 -24.666 9 -33.999c4.66699 -9.33301 10.667 -17.666 18 -24.999zM356.002 682.996v-1v0l-200 -100l-22 42l184 128l38 -70v1z" />
    <glyph glyph-name="ucircumflex" unicode="&#xfb;" horiz-adv-x="490" 
d="M442 35l-45.998 -54.0039c-14.667 13.333 -25.334 25.333 -32.001 36c-6.66699 11.333 -11.334 25 -14.001 41c-17.333 -25.333 -37.333 -44 -60 -56s-50 -18 -82 -18c-18.667 0 -35.334 2.33301 -50.001 7c-14 4 -26.333 10.333 -37 19c-18 16 -29.667 34.667 -35 56
c-5.33301 20.667 -8 42.334 -8 65.001v381l68 12v-381c0 -24 2 -42.667 6 -56s11 -24 21 -32c6.66699 -5.33301 14.667 -9.33301 24 -12c8.66699 -2.66699 19 -4 31 -4c24.667 0 46.334 8 65.001 24c18 16 34 37.333 48 64v382l68 10v-375c0 -21.333 1 -38.666 3 -51.999
s5 -24.666 9 -33.999c4.66699 -9.33301 10.667 -17.666 18 -24.999zM396.002 620.996v-1v0l-35 -37l-121 84l-118 -84l-31 37l152 138l153 -138v1z" />
    <glyph glyph-name="udieresis" unicode="&#xfc;" horiz-adv-x="490" 
d="M442 35l-45.998 -54.0039c-14.667 13.333 -25.334 25.333 -32.001 36c-6.66699 11.333 -11.334 25 -14.001 41c-17.333 -25.333 -37.333 -44 -60 -56s-50 -18 -82 -18c-18.667 0 -35.334 2.33301 -50.001 7c-14 4 -26.333 10.333 -37 19c-18 16 -29.667 34.667 -35 56
c-5.33301 20.667 -8 42.334 -8 65.001v381l68 12v-381c0 -24 2 -42.667 6 -56s11 -24 21 -32c6.66699 -5.33301 14.667 -9.33301 24 -12c8.66699 -2.66699 19 -4 31 -4c24.667 0 46.334 8 65.001 24c18 16 34 37.333 48 64v382l68 10v-375c0 -21.333 1 -38.666 3 -51.999
s5 -24.666 9 -33.999c4.66699 -9.33301 10.667 -17.666 18 -24.999zM200.002 635.996c0 -14 -4.66699 -25.667 -14 -35s-20.666 -14 -33.999 -14s-24.666 4.66699 -33.999 14s-14 21 -14 35c0 13.333 4.66699 24.666 14 33.999s20.666 14 33.999 14
s24.666 -4.66699 33.999 -14s14 -20.666 14 -33.999zM385.002 636.996v-1v0v0c0 -14 -4.66699 -25.667 -14 -35s-20.666 -14 -33.999 -14s-24.666 4.66699 -33.999 14s-14.333 21 -15 35c0 13.333 4.66699 24.666 14 33.999s20.666 14 33.999 14s24.666 -4.66699 33.999 -14
s14 -20.666 14 -33.999z" />
    <glyph glyph-name="yacute" unicode="&#xfd;" horiz-adv-x="382" 
d="M381 509l-152.001 -527.999c-14 -51.333 -31.667 -92.333 -53 -123s-51 -51.334 -89 -62.001l-20 48c18.667 6.66699 34 15.334 46 26.001c12.667 11.333 23.334 27 32.001 47s17 47.333 25 82l-28 -4c-2.66699 13.333 -6.66699 31 -12 53l-16 70
c-6 24 -11.667 44.667 -17 62l-98 320l66 26l94 -331c4 -13.333 8 -29.333 12 -48s7.33301 -36.334 10 -53.001l6 -38l1 4l30 116l88 334h76zM347.999 683.001v-1v0l-200 -100l-22 42l184 128l38 -70v1z" />
    <glyph glyph-name="thorn" unicode="&#xfe;" horiz-adv-x="498" 
d="M440 261c0 -24 -2.00195 -49.666 -6.00195 -76.999s-11 -54 -21 -80c-10 -25.333 -23.333 -48 -40 -68c-13.333 -14.667 -29 -26.334 -47 -35.001c-17.333 -8.66699 -37.666 -13 -60.999 -13c-26 0 -49 5.33301 -69 16s-37 26.667 -51 48v-250l-70 -14v841
c0 16.667 -0.666992 34.334 -2 53.001s-4 36 -8 52l69 16c4 -14.667 7 -33.334 9 -56.001s3 -44.334 3 -65.001v-119v-28c-0.666992 -9.33301 -1 -18.666 -1 -27.999c17.333 20.667 36 37 56 49s44 18 72 18c34.667 -0.666992 63.334 -9 86.001 -25s40 -37 52 -63
c12.667 -26 21.667 -54 27 -84s8 -59 8 -87zM370.998 270.001v-1.00098v0v0c0 20 -1 40.667 -3 62s-6.33301 41.333 -13 60s-17.334 34 -32.001 46s-34.667 18 -60 18c-22.667 0 -44 -6 -64 -18s-36 -27.667 -48 -47v-275c12 -17.333 28 -32 48 -44
c19.333 -11.333 40 -17 62 -17c26.667 0 47.334 7.33301 62.001 22c15.333 14.667 26.333 33.334 33 56.001s10.667 46 12 70s2 46 2 66z" />
    <glyph glyph-name="ydieresis" unicode="&#xff;" horiz-adv-x="382" 
d="M381 509l-152.001 -527.999c-14 -51.333 -31.667 -92.333 -53 -123s-51 -51.334 -89 -62.001l-20 48c18.667 6.66699 34 15.334 46 26.001c12.667 11.333 23.334 27 32.001 47s17 47.333 25 82l-28 -4c-2.66699 13.333 -6.66699 31 -12 53l-16 70
c-6 24 -11.667 44.667 -17 62l-98 320l66 26l94 -331c4 -13.333 8 -29.333 12 -48s7.33301 -36.334 10 -53.001l6 -38l1 4l30 116l88 334h76zM146.999 636.001c0 -14 -4.66602 -25.667 -13.999 -35s-20.666 -14 -33.999 -14c-14 0 -25.667 4.66699 -35 14s-14 21 -14 35
c0 13.333 4.66699 24.666 14 33.999s20.666 14 33.999 14s24.666 -4.66699 33.999 -14s14 -20.666 14 -33.999h1zM328 637.001v-1v0v0c0 -14 -4.66699 -25.667 -14 -35s-20.666 -14 -33.999 -14s-24.666 4.66699 -33.999 14s-14 21 -14 35
c0 13.333 4.66699 24.666 14 33.999s20.666 14 33.999 14s24.666 -4.66699 33.999 -14s14 -20.666 14 -33.999v1z" />
    <glyph glyph-name="Amacron" unicode="&#x100;" horiz-adv-x="502" 
d="M501 0h-83l-56 216h-228l-59 -216h-75l200 702h104l198 -702h-1zM346 282l-76 285l-20 72l-1 4l-20 -76l-76 -285h192h1zM375 761v-1v0h-245v56h245v-56v1z" />
    <glyph glyph-name="amacron" unicode="&#x101;" horiz-adv-x="461" 
d="M414 29l-34.001 -53.0039c-15.333 5.33301 -28.333 14.666 -39 27.999s-18 29 -22 47c-21.333 -24 -42 -41.333 -62 -52s-42.667 -16 -68 -16c-36 0.666992 -64.333 8.33398 -85 23.001c-21.333 14.667 -36.333 33.334 -45 56.001c-8.66699 22 -13 44.667 -13 68
c0.666992 58 21 102.333 61 133c40.667 30.667 98.334 46 173.001 46h16h15v36c0 22.667 -1 41.334 -3 56.001s-5.66699 26 -11 34c-7.33301 9.33301 -15.666 16.333 -24.999 21s-20.666 7 -33.999 7c-17.333 0 -35 -2.66699 -53 -8s-34.667 -12.333 -50 -21
c-16 -8.66699 -28.667 -18 -38 -28l-37 52c29.333 22.667 59.666 39.334 90.999 50.001s63 16 95 16c30.667 0 56.334 -6.66699 77.001 -20c21.333 -13.333 36.666 -33.333 45.999 -60c4 -10.667 6.66699 -24.667 8 -42s2 -40.666 2 -69.999v-39c0 -20 -0.333008 -42 -1 -66
s-1 -45.333 -1 -64v-31c0 -20 1 -36 3 -48s5.66699 -22 11 -30c5.33301 -7.33301 12.666 -14 21.999 -20zM307.999 122.996l2.00098 138.999c-5.33301 0.666992 -11.333 1 -18 1h-17c-50.667 0 -88.667 -10.667 -114 -32s-38 -51.666 -38 -90.999
c0 -30.667 6.33301 -54.667 19 -72c13.333 -17.333 32.666 -26 57.999 -26c22.667 0 43.667 7.33301 63 22c19.333 14 34.333 33.333 45 58v1zM345 586.995v-1v0h-244v56h244v-56v1z" />
    <glyph glyph-name="Abreve" unicode="&#x102;" horiz-adv-x="502" 
d="M501 0h-83l-56 216h-228l-59 -216h-75l200 702h104l198 -702h-1zM346 282l-76 285l-20 72l-1 4l-20 -76l-76 -285h192h1zM403 893v-1v0v0c-2.66699 -5.33301 -8.66699 -14 -18 -26s-21.333 -24.667 -36 -38c-14 -13.333 -29.333 -24.666 -46 -33.999s-33.667 -14 -51 -14
s-34.333 4.66699 -51 14s-32.334 20.666 -47.001 33.999c-14 13.333 -25.667 26 -35 38s-15.333 20.667 -18 26l32 41c5.33301 -6.66699 14 -14.667 26 -24c12 -10 26.333 -19 43 -27s34.334 -12 53.001 -12c16 0.666992 32.333 5 49 13s31.667 17 45 27
c12.667 10 21.667 17.667 27 23l28 -41z" />
    <glyph glyph-name="abreve" unicode="&#x103;" horiz-adv-x="461" 
d="M414 29l-34.001 -53.0039c-15.333 5.33301 -28.333 14.666 -39 27.999s-18 29 -22 47c-21.333 -24 -42 -41.333 -62 -52s-42.667 -16 -68 -16c-36 0.666992 -64.333 8.33398 -85 23.001c-21.333 14.667 -36.333 33.334 -45 56.001c-8.66699 22 -13 44.667 -13 68
c0.666992 58 21 102.333 61 133c40.667 30.667 98.334 46 173.001 46h16h15v36c0 22.667 -1 41.334 -3 56.001s-5.66699 26 -11 34c-7.33301 9.33301 -15.666 16.333 -24.999 21s-20.666 7 -33.999 7c-17.333 0 -35 -2.66699 -53 -8s-34.667 -12.333 -50 -21
c-16 -8.66699 -28.667 -18 -38 -28l-37 52c29.333 22.667 59.666 39.334 90.999 50.001s63 16 95 16c30.667 0 56.334 -6.66699 77.001 -20c21.333 -13.333 36.666 -33.333 45.999 -60c4 -10.667 6.66699 -24.667 8 -42s2 -40.666 2 -69.999v-39c0 -20 -0.333008 -42 -1 -66
s-1 -45.333 -1 -64v-31c0 -20 1 -36 3 -48s5.66699 -22 11 -30c5.33301 -7.33301 12.666 -14 21.999 -20zM307.999 122.996l2.00098 138.999c-5.33301 0.666992 -11.333 1 -18 1h-17c-50.667 0 -88.667 -10.667 -114 -32s-38 -51.666 -38 -90.999
c0 -30.667 6.33301 -54.667 19 -72c13.333 -17.333 32.666 -26 57.999 -26c22.667 0 43.667 7.33301 63 22c19.333 14 34.333 33.333 45 58v1zM381 708.995v-1v0v0c-2.66699 -5.33301 -8.66699 -14 -18 -26s-21.333 -24.667 -36 -38
c-14 -13.333 -29.333 -24.666 -46 -33.999s-33.667 -14 -51 -14s-34.333 4.66699 -51 14s-32.334 20.666 -47.001 33.999c-14 13.333 -25.667 26 -35 38s-15.333 20.667 -18 26l32 42c5.33301 -6.66699 14 -15 26 -25s26.333 -19 43 -27s34.334 -12 53.001 -12
c16 0.666992 32.333 5 49 13c16.667 8.66699 31.667 18 45 28c12.667 10 21.667 17.667 27 23l28 -42z" />
    <glyph glyph-name="Aogonek" unicode="&#x104;" horiz-adv-x="502" 
d="M502 -1c-9.33301 -4 -20.002 -10.667 -32.002 -20s-22.333 -21.333 -31 -36s-13 -32 -13 -52c0 -10 2.66699 -18.333 8 -25s12.666 -10 21.999 -10s18 1 26 3s17.667 5.66699 29 11l18 -45c-9.33301 -6 -20.666 -11.667 -33.999 -17s-26.666 -8 -39.999 -8
c-28.667 0.666992 -50.667 9.66699 -66 27c-14.667 17.333 -22 38 -22 62c0.666992 24 6.33398 45.333 17.001 64c10.667 19.333 22 35 34 47l-56 216h-228l-59 -216h-75l200 702h104l198 -702v-1zM344.998 283v-1v0l-76 285l-20 76l-20 -76l-76 -285h192v1z" />
    <glyph glyph-name="aogonek" unicode="&#x105;" horiz-adv-x="461" 
d="M446 -184c-9.33301 -6 -20.6689 -11.6699 -34.002 -17.0029s-26.666 -8 -39.999 -8c-29.333 0.666992 -51.333 9.66699 -66 27c-15.333 17.333 -23 38 -23 62c0 18 3 34.667 9 50c6.66699 15.333 14.667 29 24 41c8.66699 12 17 22 25 30c-5.33301 6.66699 -10 14 -14 22
s-7.33301 16.667 -10 26c-21.333 -24 -42 -41.333 -62 -52s-42.667 -16 -68 -16c-36 0.666992 -64.333 8.33398 -85 23.001c-21.333 14.667 -36.333 33.334 -45 56.001c-8.66699 22 -13 44.667 -13 68c0.666992 58 21 102.333 61 133c40.667 30.667 98.334 46 173.001 46h19
h12v36c0 22.667 -1 41.334 -3 56.001s-5.66699 26 -11 34c-7.33301 9.33301 -15.666 16.333 -24.999 21s-20.666 7 -33.999 7c-17.333 0 -35 -2.66699 -53 -8s-34.667 -12.333 -50 -21c-16 -8.66699 -28.667 -18 -38 -28l-37 52c29.333 22.667 59.666 39.334 90.999 50.001
s63 16 95 16c30.667 0 56.334 -6.66699 77.001 -20c21.333 -13.333 36.666 -33.333 45.999 -60c4 -10.667 6.66699 -24.667 8 -42s2 -40.666 2 -69.999v-39c0 -20 -0.333008 -42 -1 -66s-1 -45.333 -1 -64v-31c0 -29.333 3 -51.333 9 -66c6 -14 16.333 -25.333 31 -34
c-12 -12 -24 -25.333 -36 -40c-11.333 -14.667 -21 -30.334 -29 -47.001c-8 -16 -12 -32 -12 -48c0 -10.667 2.66699 -20.334 8 -29.001c5.33301 -8 13.666 -12 24.999 -12c9.33301 0 18 1 26 3s17.667 5.66699 29 11l18 -45zM306.997 123.997v-1.00098v0l2 139
c-5.33301 0.666992 -10.666 1 -15.999 1h-18c-50.667 0 -88.667 -10.667 -114 -32s-38 -51.666 -38 -90.999c0 -30.667 6.33301 -54.667 19 -72c13.333 -17.333 32.666 -26 57.999 -26c22.667 0 43.667 7.33301 63 22c19.333 14 34.333 33.333 45 58z" />
    <glyph glyph-name="Cacute" unicode="&#x106;" horiz-adv-x="499" 
d="M467 38c-24.667 -18 -50.999 -30.332 -78.999 -36.999s-57.333 -10 -88 -10c-18.667 0 -39.334 3.33301 -62.001 10s-44.334 16.667 -65.001 30c-20 13.333 -36.667 29.333 -50 48c-16 22.667 -29.333 46 -40 70s-18.667 51.667 -24 83c-5.33301 32 -8 70.667 -8 116
c0 70.667 11 133.334 33 188.001s52.333 97.667 91 129c38.667 30.667 83 46.334 133 47.001c29.333 0 57.333 -5.33301 84 -16s50.667 -25.334 72 -44.001l-42 -49c-18.667 15.333 -36.667 27 -54 35s-37.333 12 -60 12c-34 0 -62.333 -9 -85 -27
c-22.667 -17.333 -40.667 -41.333 -54 -72s-23 -65.334 -29 -104.001c-6 -38 -9 -77.667 -9 -119c0 -44 5.33301 -84 16 -120s26 -66.667 46 -92c16 -20.667 34.333 -36.334 55 -47.001c21.333 -11.333 44 -17 68 -17c22 0 42.333 2.66699 61 8s37.334 15.333 56.001 30
l35 -52h-1zM431.001 857.001v-1v0l-200 -100l-22 42l184 128l38 -70v1z" />
    <glyph glyph-name="cacute" unicode="&#x107;" horiz-adv-x="397" 
d="M376 52c-20 -24 -40.668 -40.6689 -62.001 -50.002s-45.666 -14 -72.999 -14c-32 0 -60 6 -84 18s-43.667 30.667 -59 56c-14.667 24 -25.334 51.333 -32.001 82s-10 65 -10 103c0 54.667 6 99.334 18 134.001c12 34 27.667 61.667 47 83c17.333 20 36 35 56 45
c20 9.33301 42 14 66 14c28 0 51.667 -4.66699 71 -14s36 -21.333 50 -36l-36 -48c-14 13.333 -27.667 22.666 -41 27.999s-28.666 8 -45.999 8s-33.333 -4.66699 -48 -14s-27 -24.666 -37 -45.999c-8 -17.333 -14 -34.666 -18 -51.999s-6.66699 -35.666 -8 -54.999
c-1.33301 -18.667 -2 -40.334 -2 -65.001c0 -34.667 4 -66 12 -94s20.333 -50.333 37 -67c16 -16 36.333 -24 61 -24c18 0 35 4 51 12s30.333 20.667 43 38l40 -43zM353.999 682.998v-1v0l-200 -100l-22 42l184 128l38 -70v1z" />
    <glyph glyph-name="Ccircumflex" unicode="&#x108;" horiz-adv-x="499" 
d="M467 38c-24.667 -18 -50.999 -30.332 -78.999 -36.999s-57.333 -10 -88 -10c-18.667 0 -39.334 3.33301 -62.001 10s-44.334 16.667 -65.001 30c-20 13.333 -36.667 29.333 -50 48c-16 22.667 -29.333 46 -40 70s-18.667 51.667 -24 83c-5.33301 32 -8 70.667 -8 116
c0 70.667 11 133.334 33 188.001s52.333 97.667 91 129c38.667 30.667 83 46.334 133 47.001c29.333 0 57.333 -5.33301 84 -16s50.667 -25.334 72 -44.001l-42 -49c-18.667 15.333 -36.667 27 -54 35s-37.333 12 -60 12c-34 0 -62.333 -9 -85 -27
c-22.667 -17.333 -40.667 -41.333 -54 -72s-23 -65.334 -29 -104.001c-6 -38 -9 -77.667 -9 -119c0 -44 5.33301 -84 16 -120s26 -66.667 46 -92c16 -20.667 34.333 -36.334 55 -47.001c21.333 -11.333 44 -17 68 -17c22 0 42.333 2.66699 61 8s37.334 15.333 56.001 30
l35 -52h-1zM464.001 795.001v-1v0l-35 -37l-121 84l-118 -84l-31 37l152 138l152 -138z" />
    <glyph glyph-name="ccircumflex" unicode="&#x109;" horiz-adv-x="397" 
d="M376 52c-20 -24 -40.668 -40.6689 -62.001 -50.002s-45.666 -14 -72.999 -14c-32 0 -60 6 -84 18s-43.667 30.667 -59 56c-14.667 24 -25.334 51.333 -32.001 82s-10 65 -10 103c0 54.667 6 99.334 18 134.001c12 34 27.667 61.667 47 83c17.333 20 36 35 56 45
c20 9.33301 42 14 66 14c28 0 51.667 -4.66699 71 -14s36 -21.333 50 -36l-36 -48c-14 13.333 -27.667 22.666 -41 27.999s-28.666 8 -45.999 8s-33.333 -4.66699 -48 -14s-27 -24.666 -37 -45.999c-8 -17.333 -14 -34.666 -18 -51.999s-6.66699 -35.666 -8 -54.999
c-1.33301 -18.667 -2 -40.334 -2 -65.001c0 -34.667 4 -66 12 -94s20.333 -50.333 37 -67c16 -16 36.333 -24 61 -24c18 0 35 4 51 12s30.333 20.667 43 38l40 -43zM390.999 620.998v-1v0l-34 -37l-121 84l-118 -84l-31 37l152 138l152 -138v1z" />
    <glyph glyph-name="Cdotaccent" unicode="&#x10a;" horiz-adv-x="499" 
d="M467 38c-24.667 -18 -50.999 -30.332 -78.999 -36.999s-57.333 -10 -88 -10c-18.667 0 -39.334 3.33301 -62.001 10s-44.334 16.667 -65.001 30c-20 13.333 -36.667 29.333 -50 48c-16 22.667 -29.333 46 -40 70s-18.667 51.667 -24 83c-5.33301 32 -8 70.667 -8 116
c0 70.667 11 133.334 33 188.001s52.333 97.667 91 129c38.667 30.667 83 46.334 133 47.001c29.333 0 57.333 -5.33301 84 -16s50.667 -25.334 72 -44.001l-42 -49c-18.667 15.333 -36.667 27 -54 35s-37.333 12 -60 12c-34 0 -62.333 -9 -85 -27
c-22.667 -17.333 -40.667 -41.333 -54 -72s-23 -65.334 -29 -104.001c-6 -38 -9 -77.667 -9 -119c0 -44 5.33301 -84 16 -120s26 -66.667 46 -92c16 -20.667 34.333 -36.334 55 -47.001c21.333 -11.333 44 -17 68 -17c22 0 42.333 2.66699 61 8s37.334 15.333 56.001 30
l35 -52h-1zM370.001 823.001v-1v0v0c0 -18 -6 -33 -18 -45s-27 -18 -45 -18c-17.333 0 -32 6 -44 18s-18 27 -18 45s6 33 18 45s26.667 18 44 18c18 0 33 -6 45 -18s18 -27 18 -45v1z" />
    <glyph glyph-name="cdotaccent" unicode="&#x10b;" horiz-adv-x="397" 
d="M376 52c-20 -24 -40.668 -40.6689 -62.001 -50.002s-45.666 -14 -72.999 -14c-32 0 -60 6 -84 18s-43.667 30.667 -59 56c-14.667 24 -25.334 51.333 -32.001 82s-10 65 -10 103c0 54.667 6 99.334 18 134.001c12 34 27.667 61.667 47 83c17.333 20 36 35 56 45
c20 9.33301 42 14 66 14c28 0 51.667 -4.66699 71 -14s36 -21.333 50 -36l-36 -48c-14 13.333 -27.667 22.666 -41 27.999s-28.666 8 -45.999 8s-33.333 -4.66699 -48 -14s-27 -24.666 -37 -45.999c-8 -17.333 -14 -34.666 -18 -51.999s-6.66699 -35.666 -8 -54.999
c-1.33301 -18.667 -2 -40.334 -2 -65.001c0 -34.667 4 -66 12 -94s20.333 -50.333 37 -67c16 -16 36.333 -24 61 -24c18 0 35 4 51 12s30.333 20.667 43 38l40 -43zM300.999 658.998v-1v0v0c0 -18 -6 -33 -18 -45s-27 -18 -45 -18c-17.333 0 -32 6 -44 18s-18.333 27 -19 45
c0.666992 18 7 33 19 45s26.667 18 44 18c18 0 33 -6 45 -18s18 -27 18 -45v1z" />
    <glyph glyph-name="Ccaron" unicode="&#x10c;" horiz-adv-x="499" 
d="M467 38c-24.667 -18 -50.999 -30.332 -78.999 -36.999s-57.333 -10 -88 -10c-18.667 0 -39.334 3.33301 -62.001 10s-44.334 16.667 -65.001 30c-20 13.333 -36.667 29.333 -50 48c-16 22.667 -29.333 46 -40 70s-18.667 51.667 -24 83c-5.33301 32 -8 70.667 -8 116
c0 70.667 11 133.334 33 188.001s52.333 97.667 91 129c38.667 30.667 83 46.334 133 47.001c29.333 0 57.333 -5.33301 84 -16s50.667 -25.334 72 -44.001l-42 -49c-18.667 15.333 -36.667 27 -54 35s-37.333 12 -60 12c-34 0 -62.333 -9 -85 -27
c-22.667 -17.333 -40.667 -41.333 -54 -72s-23 -65.334 -29 -104.001c-6 -38 -9 -77.667 -9 -119c0 -44 5.33301 -84 16 -120s26 -66.667 46 -92c16 -20.667 34.333 -36.334 55 -47.001c21.333 -11.333 44 -17 68 -17c22 0 42.333 2.66699 61 8s37.334 15.333 56.001 30
l35 -52h-1zM440.001 895.001v-1v0l-152 -132l-153 132l34 39l122 -85l118 83l31 -37v1z" />
    <glyph glyph-name="ccaron" unicode="&#x10d;" horiz-adv-x="397" 
d="M376 52c-20 -24 -40.668 -40.6689 -62.001 -50.002s-45.666 -14 -72.999 -14c-32 0 -60 6 -84 18s-43.667 30.667 -59 56c-14.667 24 -25.334 51.333 -32.001 82s-10 65 -10 103c0 54.667 6 99.334 18 134.001c12 34 27.667 61.667 47 83c17.333 20 36 35 56 45
c20 9.33301 42 14 66 14c28 0 51.667 -4.66699 71 -14s36 -21.333 50 -36l-36 -48c-14 13.333 -27.667 22.666 -41 27.999s-28.666 8 -45.999 8s-33.333 -4.66699 -48 -14s-27 -24.666 -37 -45.999c-8 -17.333 -14 -34.666 -18 -51.999s-6.66699 -35.666 -8 -54.999
c-1.33301 -18.667 -2 -40.334 -2 -65.001c0 -34.667 4 -66 12 -94s20.333 -50.333 37 -67c16 -16 36.333 -24 61 -24c18 0 35 4 51 12s30.333 20.667 43 38l40 -43zM391.999 710.998v-1v0l-152 -132l-152 132l34 39l122 -85l118 83l30 -37v1z" />
    <glyph glyph-name="Dcaron" unicode="&#x10e;" horiz-adv-x="555" 
d="M505 349c0 -51.333 -6.00098 -100.998 -18.001 -148.998c-12.667 -48 -33.667 -89.333 -63 -124c-20 -24 -45 -42.667 -75 -56c-29.333 -13.333 -64.666 -20 -105.999 -20h-160v702h116c50 0 93 -6 129 -18s66 -30 90 -54c30.667 -30.667 52.667 -69.334 66 -116.001
s20 -101.334 20 -164.001zM423.999 339.002c0 52.667 -4 98.333 -12 137c-8.66699 38.667 -21 70 -37 94c-11.333 15.333 -25.333 28.333 -42 39c-17.333 10.667 -35.333 18.667 -54 24c-18 5.33301 -35 8 -51 8h-74v-576h82c38.667 0 70.334 8 95.001 24
s43.667 37.333 57 64s22.666 56 27.999 88c5.33301 32.667 8 65.667 8 99v-1zM409.999 895.001v-1v0l-152 -132l-152 132l34 39l122 -85l118 83l30 -37v1z" />
    <glyph glyph-name="dcaron" unicode="&#x10f;" horiz-adv-x="559" 
d="M429 -5l-71.998 0.00195312c-2.66699 6 -5 13.667 -7 23s-3.33301 19.333 -4 30c-14 -18.667 -30.333 -33.334 -49 -44.001s-41.334 -16 -68.001 -16c-57.333 0.666992 -102 23.334 -134 68.001c-31.333 45.333 -47 109 -47 191c0 54.667 8 101.667 24 141
s39.333 71 70 95c14 11.333 28.333 19.666 43 24.999s30 8 46 8c24.667 0 47 -5.33301 67 -16s36.667 -25.334 50 -44.001v38v40v214l70 -12v-570c0 -44 1 -79 3 -105c1.33301 -26 4.66602 -46.333 9.99902 -61zM348.002 121.002v287.998
c-10.667 16.667 -24.667 29.334 -42 38.001s-39 13 -65 13c-17.333 0 -33 -4.66699 -47 -14c-14.667 -9.33301 -26.667 -22.666 -36 -39.999c-10.667 -18.667 -18 -40 -22 -64s-6 -53.667 -6 -89c0 -30 1 -57.667 3 -83c2 -24.667 7 -44.334 15 -59.001
c11.333 -21.333 24 -36.666 38 -45.999c13.333 -9.33301 30 -14 50 -14c15.333 0 30.333 2.66699 45 8s28 13 40 23s20.667 22.667 26 38zM589.002 667v-1.00098v0v0c0 -13.333 -2.66699 -26.666 -8 -39.999s-13 -26.333 -23 -39c-8 -10.667 -18.333 -20.667 -31 -30
c-12 -9.33301 -24.667 -17.333 -38 -24l-24 34c16 7.33301 28.667 17 38 29s15 25.333 17 40c-2 -0.666992 -3.66699 -1 -5 -1h-4c-13.333 0 -24 4.66699 -32 14s-12 21 -12 35c0 16 5.33301 29.333 16 40s24.667 16 42 16c18.667 0 34 -6.66699 46 -20s18 -31.333 18 -54v1
z" />
    <glyph glyph-name="Dcroat" unicode="&#x110;" horiz-adv-x="555" 
d="M505 349c0 -51.333 -6.00098 -100.999 -18.001 -148.999c-12.667 -48 -33.667 -89.333 -63 -124c-20 -24 -45 -42.667 -75 -56c-29.333 -13.333 -64.666 -20 -105.999 -20h-160v324h-64v64h64v314h116c50 0 93 -6 129 -18s66 -30 90 -54
c30.667 -30.667 52.667 -69.334 66 -116.001c13.333 -47.333 20 -102 20 -164zM423.999 339.001v-1.00195v0v0c0 52.667 -4 98.334 -12 137.001c-8.66699 38.667 -21 70 -37 94c-11.333 15.333 -25.333 28.333 -42 39c-17.333 10.667 -35.333 18.667 -54 24
c-18 5.33301 -35 8 -51 8h-74v-250h169l-10 -64h-159v-261h82c38.667 0 70.334 8 95.001 24s43.667 37.333 57 64s22.666 56.334 27.999 89.001c5.33301 32 8 64.667 8 98v-1z" />
    <glyph glyph-name="dcroat" unicode="&#x111;" horiz-adv-x="500" 
d="M429 -5l-71.998 0.00195312c-2.66699 6 -5 13.667 -7 23s-3.33301 19.333 -4 30c-14 -18.667 -30.333 -33.334 -49 -44.001s-41.334 -16 -68.001 -16c-57.333 0.666992 -102 23.334 -134 68.001c-31.333 45.333 -47 109 -47 191c0 54.667 8 101.667 24 141
s39.333 71 70 95c14 11.333 28.333 19.666 43 24.999s30 8 46 8c24.667 0 47 -5.33301 67 -16s36.667 -25.334 50 -44.001v38v40v52h-102v56h102v106l70 -12v-94h72v-56h-72v-420c0 -44 1 -79 3 -105c1.33301 -26 4.66602 -46.333 9.99902 -61zM348.002 122.002v-1.00195v0
v288c-10.667 16.667 -24.667 29.334 -42 38.001s-39 13 -65 13c-17.333 0 -33 -4.66699 -47 -14c-14.667 -9.33301 -26.667 -22.666 -36 -39.999c-10.667 -18.667 -18 -40 -22 -64s-6 -53.667 -6 -89c0 -30 1 -57.667 3 -83c2 -24.667 7 -44.334 15 -59.001
c11.333 -21.333 24 -36.666 38 -45.999c13.333 -9.33301 30 -14 50 -14c15.333 0 30.333 2.66699 45 8s28 13 40 23s20.667 22.667 26 38z" />
    <glyph glyph-name="Emacron" unicode="&#x112;" horiz-adv-x="445" 
d="M424 0h-343v702h334l-12 -64h-248v-240h210v-64h-210v-268h270v-66h-1zM372 761v-1v0h-244v56h244v-56v1z" />
    <glyph glyph-name="emacron" unicode="&#x113;" horiz-adv-x="450" 
d="M410 242h-278c0 -32 1.33301 -58.333 4 -79c2.66699 -21.333 8.66699 -40 18 -56c12.667 -22 28.667 -38 48 -48s40.333 -15 63 -15c21.333 0 40.666 4.33301 57.999 13c17.333 8 33.333 19.333 48 34l28 -42c-20 -20.667 -42.667 -36.334 -68 -47.001
s-52.666 -16 -81.999 -16c-62 0.666992 -110.333 25 -145 73s-52.334 114.667 -53.001 200c0 42.667 4 79.334 12 110.001c8 31.333 21.333 59.666 40 84.999c18 24 38.333 41.333 61 52s47.334 16 74.001 16c24 0 46.667 -4.66699 68 -14c21.333 -10 39.333 -24 54 -42
c12 -14.667 21.333 -30.667 28 -48c7.33301 -17.333 12.333 -38.666 15 -63.999c3.33301 -25.333 5 -58 5 -98v-11zM333 298c0 28 -1.33203 52.668 -3.99902 74.001c-2.66699 22 -7.33398 39.333 -14.001 52c-8 14 -18.667 25.333 -32 34c-13.333 8 -30 12 -50 12
c-34.667 -0.666992 -60 -16.334 -76 -47.001s-24.667 -72.667 -26 -126h204zM360.001 587.001v-1v0h-245v56h245v-56v1z" />
    <glyph glyph-name="Ebreve" unicode="&#x114;" horiz-adv-x="445" 
d="M424 0h-343v702h334l-12 -64h-248v-240h210v-64h-210v-268h270v-66h-1zM381 893v-1v0v0c-2.66699 -5.33301 -8.66699 -14 -18 -26s-21.333 -24.667 -36 -38c-14 -13.333 -29.333 -24.666 -46 -33.999s-33.667 -14 -51 -14s-34.333 4.66699 -51 14
s-32.334 20.666 -47.001 33.999c-14 13.333 -25.667 26 -35 38s-15.333 20.667 -18 26l32 41c5.33301 -6.66699 14 -14.667 26 -24c12 -10 26.333 -19 43 -27s34.334 -12 53.001 -12c16 0.666992 32.333 5 49 13s31.667 17 45 27c12.667 10 21.667 17.667 27 23l28 -41z" />
    <glyph glyph-name="ebreve" unicode="&#x115;" horiz-adv-x="450" 
d="M410 242h-278c0 -32 1.33301 -58.333 4 -79c2.66699 -21.333 8.66699 -40 18 -56c12.667 -22 28.667 -38 48 -48s40.333 -15 63 -15c21.333 0 40.666 4.33301 57.999 13c17.333 8 33.333 19.333 48 34l28 -42c-20 -20.667 -42.667 -36.334 -68 -47.001
s-52.666 -16 -81.999 -16c-62 0.666992 -110.333 25 -145 73s-52.334 114.667 -53.001 200c0 42.667 4 79.334 12 110.001c8 31.333 21.333 59.666 40 84.999c18 24 38.333 41.333 61 52s47.334 16 74.001 16c24 0 46.667 -4.66699 68 -14c21.333 -10 39.333 -24 54 -42
c12 -14.667 21.333 -30.667 28 -48c7.33301 -17.333 12.333 -38.666 15 -63.999c3.33301 -25.333 5 -58 5 -98v-11zM333 298c0 28 -1.33203 52.668 -3.99902 74.001c-2.66699 22 -7.33398 39.333 -14.001 52c-8 14 -18.667 25.333 -32 34c-13.333 8 -30 12 -50 12
c-34.667 -0.666992 -60 -16.334 -76 -47.001s-24.667 -72.667 -26 -126h204zM391.001 709.001v-1v0v0c-2.66699 -5.33301 -8.66699 -14 -18 -26s-21 -24.667 -35 -38c-14.667 -13.333 -30.334 -24.666 -47.001 -33.999s-33.667 -14 -51 -14s-34.666 4.66699 -51.999 14
c-16.667 9.33301 -32 20.666 -46 33.999c-14.667 13.333 -26.667 26 -36 38s-15.666 20.667 -18.999 26l32 42c5.33301 -6.66699 14 -15 26 -25s26.333 -19 43 -27c17.333 -8 35.333 -12 54 -12c16.667 0.666992 33 5 49 13c16.667 8.66699 31.667 18 45 28
s22.666 17.667 27.999 23l28 -42z" />
    <glyph glyph-name="Edotaccent" unicode="&#x116;" horiz-adv-x="445" 
d="M424 0h-343v702h334l-12 -64h-248v-240h210v-64h-210v-268h270v-66h-1zM312 823v-1v0v0c-0.666992 -18 -7 -33 -19 -45s-26.667 -18 -44 -18c-18 0 -33 6 -45 18s-18 27 -18 45s6 33 18 45s27 18 45 18c17.333 0 32 -6 44 -18s18.333 -27 19 -45v1z" />
    <glyph glyph-name="edotaccent" unicode="&#x117;" horiz-adv-x="450" 
d="M410 242h-278c0 -32 1.33301 -58.333 4 -79c2.66699 -21.333 8.66699 -40 18 -56c12.667 -22 28.667 -38 48 -48s40.333 -15 63 -15c21.333 0 40.666 4.33301 57.999 13c17.333 8 33.333 19.333 48 34l28 -42c-20 -20.667 -42.667 -36.334 -68 -47.001
s-52.666 -16 -81.999 -16c-62 0.666992 -110.333 25 -145 73s-52.334 114.667 -53.001 200c0 42.667 4 79.334 12 110.001c8 31.333 21.333 59.666 40 84.999c18 24 38.333 41.333 61 52s47.334 16 74.001 16c24 0 46.667 -4.66699 68 -14c21.333 -10 39.333 -24 54 -42
c12 -14.667 21.333 -30.667 28 -48c7.33301 -17.333 12.333 -38.666 15 -63.999c3.33301 -25.333 5 -58 5 -98v-11zM333 298c0 28 -1.33203 52.668 -3.99902 74.001c-2.66699 22 -7.33398 39.333 -14.001 52c-8 14 -18.667 25.333 -32 34c-13.333 8 -30 12 -50 12
c-34.667 -0.666992 -60 -16.334 -76 -47.001s-24.667 -72.667 -26 -126h204zM300.001 659.001v-1v0v0c0 -18 -6 -33 -18 -45s-27 -18 -45 -18c-17.333 0 -32 6 -44 18s-18 27 -18 45s6 33 18 45s26.667 18 44 18c18 0 33 -6 45 -18s18 -27 18 -45v1z" />
    <glyph glyph-name="Eogonek" unicode="&#x118;" horiz-adv-x="445" 
d="M425 -1h-0.00195312c-9.33301 -4 -20 -10.667 -32 -20s-22.333 -21.333 -31 -36s-13 -32 -13 -52c0 -10 2.66699 -18.333 8 -25s12.666 -10 21.999 -10s18 1 26 3s17.667 5.66699 29 11l18 -45c-9.33301 -6 -20.666 -11.667 -33.999 -17s-26.666 -8 -39.999 -8
c-28.667 0.666992 -50.667 9.66699 -66 27c-14.667 17.333 -22 38 -22 62c0.666992 24 6.33398 45.333 17.001 64c10.667 19.333 22 35 34 47h-260v702h334l-12 -64h-248v-240h210v-64h-210v-268h270v-66v-1z" />
    <glyph glyph-name="eogonek" unicode="&#x119;" horiz-adv-x="450" 
d="M55 257c0 42.667 4 79.334 12 110.001c8 31.333 21.333 59.666 40 84.999c18 24 38.333 41.333 61 52s47.334 16 74.001 16c24 0 46.667 -4.66699 68 -14c21.333 -10 39.333 -24 54 -42c12 -14.667 21.333 -30.667 28 -48c7.33301 -17.333 12.333 -38.666 15 -63.999
c3.33301 -25.333 5 -58 5 -98v-11h-278v-12c0 -24 1.33301 -46.333 4 -67c2.66699 -20 8.66699 -38.667 18 -56c12.667 -22 28.667 -38 48 -48s40.333 -15 63 -15c21.333 0 40.666 4.33301 57.999 13c17.333 8 33.333 19.333 48 34l28 -42
c-9.33301 -9.33301 -21.333 -19.333 -36 -30s-29.334 -22.667 -44.001 -36c-14.667 -12.667 -26.667 -27 -36 -43s-14 -34 -14 -54c0 -10 2.66699 -18.333 8 -25s12.666 -10 21.999 -10s18 1 26 3s17.667 5.66699 29 11l18 -45c-9.33301 -6 -20.666 -11.667 -33.999 -17
s-26.666 -8 -39.999 -8c-28.667 0.666992 -50.667 9.66699 -66 27s-23 38 -23 62c0 21.333 4 40.666 12 57.999s17.333 32 28 44c-64 0.666992 -113.333 25 -148 73s-52 114.667 -52 200zM333 299l0.000976562 -0.999023v0v0c0 28 -1.33301 52.667 -4 74
c-2.66699 22 -7.33398 39.333 -14.001 52c-8 14 -18.667 25.333 -32 34c-13.333 8 -30 12 -50 12c-34.667 -0.666992 -60 -16.334 -76 -47.001s-24.667 -72.667 -26 -126h204z" />
    <glyph glyph-name="Ecaron" unicode="&#x11a;" horiz-adv-x="445" 
d="M424 0h-343v702h334l-12 -64h-248v-240h210v-64h-210v-268h270v-66h-1zM380 895v-1v0l-152 -132l-152 132l34 39l122 -85l118 83l31 -37z" />
    <glyph glyph-name="ecaron" unicode="&#x11b;" horiz-adv-x="450" 
d="M410 242h-278c0 -32 1.33301 -58.333 4 -79c2.66699 -21.333 8.66699 -40 18 -56c12.667 -22 28.667 -38 48 -48s40.333 -15 63 -15c21.333 0 40.666 4.33301 57.999 13c17.333 8 33.333 19.333 48 34l28 -42c-20 -20.667 -42.667 -36.334 -68 -47.001
s-52.666 -16 -81.999 -16c-62 0.666992 -110.333 25 -145 73s-52.334 114.667 -53.001 200c0 42.667 4 79.334 12 110.001c8 31.333 21.333 59.666 40 84.999c18 24 38.333 41.333 61 52s47.334 16 74.001 16c24 0 46.667 -4.66699 68 -14c21.333 -10 39.333 -24 54 -42
c12 -14.667 21.333 -30.667 28 -48c7.33301 -17.333 12.333 -38.666 15 -63.999c3.33301 -25.333 5 -58 5 -98v-11zM333 298c0 28 -1.33203 52.668 -3.99902 74.001c-2.66699 22 -7.33398 39.333 -14.001 52c-8 14 -18.667 25.333 -32 34c-13.333 8 -30 12 -50 12
c-34.667 -0.666992 -60 -16.334 -76 -47.001s-24.667 -72.667 -26 -126h204zM391.001 711.001v-1v0l-152 -132l-152 132l34 39l122 -85l118 83l30 -37v1z" />
    <glyph glyph-name="Gcircumflex" unicode="&#x11c;" horiz-adv-x="558" 
d="M481 631l-36.9971 -43.002c-22.667 20 -45.334 34.667 -68.001 44s-45.667 14 -69 14c-40 0 -73.333 -12.667 -100 -38s-46.334 -60.666 -59.001 -105.999s-19 -98 -19 -158c0 -57.333 6 -108 18 -152s32.667 -78.667 62 -104s69.333 -38 120 -38
c17.333 0 33.666 3.33301 48.999 10c14.667 6 27.334 12.333 38.001 19v222h-123l-14 64h206v-318c-22 -17.333 -47.667 -31.333 -77 -42c-29.333 -11.333 -61.333 -17 -96 -17c-41.333 0 -77.333 7.33301 -108 22s-57.334 36.667 -80.001 66c-24 29.333 -42.333 66 -55 110
c-13.333 44 -20 100 -20 168c0 66.667 8 123.667 24 171s39.667 87 71 119c22 22.667 46.333 39.334 73 50.001s56 16 88 16c33.333 0 65.333 -6.66699 96 -20s57 -31.333 79 -54zM460.003 794.998v-1v0l-35 -37l-121 84l-118 -84l-31 37l152 138l153 -138v1z" />
    <glyph glyph-name="gcircumflex" unicode="&#x11d;" horiz-adv-x="439" 
d="M451 463c-12 -9.33301 -23.9941 -15.998 -35.9941 -19.998c-11.333 -4 -24.333 -6 -39 -6c-5.33301 0 -10.666 0.666992 -15.999 2s-10.333 3 -15 5c8.66699 -12.667 15 -26.334 19 -41.001c4.66699 -14.667 7 -30 7 -46c0 -26.667 -5.33301 -53.334 -16 -80.001
s-27 -48.334 -49 -65.001c-12 -8.66699 -25.333 -14.334 -40 -17.001c-14.667 -3.33301 -29.334 -5 -44.001 -5c-23.333 -9.33301 -41 -17.666 -53 -24.999s-20 -13.666 -24 -18.999s-6 -10 -6 -14c0.666992 -10.667 5 -18 13 -22c7.33301 -4 15.666 -6 24.999 -6h66
c28 0 50.667 -2 68 -6s32.666 -11.333 45.999 -22c17.333 -14 29.666 -29.667 36.999 -47c8 -17.333 12 -36.666 12 -57.999c0 -36 -7.33301 -66 -22 -90s-35.334 -42 -62.001 -54s-57.334 -18 -92.001 -18c-20.667 0 -42.334 2 -65.001 6c-22 4 -42.667 10.667 -62 20
s-35 22.333 -47 39c-12 17.333 -18 38.666 -18 63.999c0 9.33301 0.666992 18.666 2 27.999s3.33301 18.333 6 27l73 7c-4 -6.66699 -7.33301 -14 -10 -22s-4 -16 -4 -24c0 -23.333 5.33301 -41.666 16 -54.999s24.667 -22.666 42 -27.999s36 -8 56 -8c32 0 58 8 78 24
s30.333 40.333 31 73c0 24 -4.66699 42 -14 54s-22 20 -38 24s-34.333 6 -55 6h-27h-41c-13.333 0 -26.666 2 -39.999 6s-24.333 11 -33 21s-13 23.667 -13 41c0 16 4 29.667 12 41c8 10.667 18.333 20 31 28c12.667 7.33301 26 13.333 40 18
c-31.333 12 -56.333 31.333 -75 58s-28.334 56.667 -29.001 90c0 33.333 6.66699 62.666 20 87.999c13.333 26 32 46.333 56 61s53 22 87 22c18.667 0 35.334 -2.33301 50.001 -7l41 -14c13.333 -4 28 -6 44 -6c12 0 22.667 2 32 6s18.666 10 27.999 18l46 -50z
M291.006 356.002c0 20 -2 37.999 -6 53.999s-12 28.667 -24 38s-29.333 14 -52 14s-40 -5 -52 -15c-12 -10.667 -20.333 -24.667 -25 -42c-4.66699 -16.667 -7 -35 -7 -55c-0.666992 -30.667 5 -55.667 17 -75c12 -20 34.667 -30 68 -30c21.333 0 38 5 50 15s20 23 24 39
c4 16.667 6 34.334 6 53.001zM361.006 621.001v-1v0l-35 -37l-120 84l-118 -84l-30 37l152 138l152 -138z" />
    <glyph glyph-name="Gbreve" unicode="&#x11e;" horiz-adv-x="558" 
d="M481 631l-36.9971 -43.002c-22.667 20 -45.334 34.667 -68.001 44s-45.667 14 -69 14c-40 0 -73.333 -12.667 -100 -38s-46.334 -60.666 -59.001 -105.999s-19 -98 -19 -158c0 -57.333 6 -108 18 -152s32.667 -78.667 62 -104s69.333 -38 120 -38
c17.333 0 33.666 3.33301 48.999 10c14.667 6 27.334 12.333 38.001 19v222h-123l-14 64h206v-318c-22 -17.333 -47.667 -31.333 -77 -42c-29.333 -11.333 -61.333 -17 -96 -17c-41.333 0 -77.333 7.33301 -108 22s-57.334 36.667 -80.001 66c-24 29.333 -42.333 66 -55 110
c-13.333 44 -20 100 -20 168c0 66.667 8 123.667 24 171s39.667 87 71 119c22 22.667 46.333 39.334 73 50.001s56 16 88 16c33.333 0 65.333 -6.66699 96 -20s57 -31.333 79 -54zM455.003 892.998l-0.00195312 -1v0v0c-2.66699 -5.33301 -8.66699 -14 -18 -26
s-21 -24.667 -35 -38s-29.667 -24.666 -47 -33.999c-16.667 -9.33301 -33.667 -14 -51 -14s-34.666 4.66699 -51.999 14c-16.667 9.33301 -32 20.666 -46 33.999c-14.667 13.333 -26.667 26 -36 38s-15.666 20.667 -18.999 26l32 41c5.33301 -6.66699 14 -14.667 26 -24
c12 -10 26.333 -19 43 -27c17.333 -8 35.333 -12 54 -12c16.667 0.666992 33.334 5 50.001 13c16 8 30.667 17 44 27s22.666 17.667 27.999 23l28 -41z" />
    <glyph glyph-name="gbreve" unicode="&#x11f;" horiz-adv-x="439" 
d="M451 463c-12 -9.33301 -23.9941 -15.998 -35.9941 -19.998c-11.333 -4 -24.333 -6 -39 -6c-5.33301 0 -10.666 0.666992 -15.999 2s-10.333 3 -15 5c8.66699 -12.667 15 -26.334 19 -41.001c4.66699 -14.667 7 -30 7 -46c0 -26.667 -5.33301 -53.334 -16 -80.001
s-27 -48.334 -49 -65.001c-12 -8.66699 -25.333 -14.334 -40 -17.001c-14.667 -3.33301 -29.334 -5 -44.001 -5c-23.333 -9.33301 -41 -17.666 -53 -24.999s-20 -13.666 -24 -18.999s-6 -10 -6 -14c0.666992 -10.667 5 -18 13 -22c7.33301 -4 15.666 -6 24.999 -6h66
c28 0 50.667 -2 68 -6s32.666 -11.333 45.999 -22c17.333 -14 29.666 -29.667 36.999 -47c8 -17.333 12 -36.666 12 -57.999c0 -36 -7.33301 -66 -22 -90s-35.334 -42 -62.001 -54s-57.334 -18 -92.001 -18c-20.667 0 -42.334 2 -65.001 6c-22 4 -42.667 10.667 -62 20
s-35 22.333 -47 39c-12 17.333 -18 38.666 -18 63.999c0 9.33301 0.666992 18.666 2 27.999s3.33301 18.333 6 27l73 7c-4 -6.66699 -7.33301 -14 -10 -22s-4 -16 -4 -24c0 -23.333 5.33301 -41.666 16 -54.999s24.667 -22.666 42 -27.999s36 -8 56 -8c32 0 58 8 78 24
s30.333 40.333 31 73c0 24 -4.66699 42 -14 54s-22 20 -38 24s-34.333 6 -55 6h-27h-41c-13.333 0 -26.666 2 -39.999 6s-24.333 11 -33 21s-13 23.667 -13 41c0 16 4 29.667 12 41c8 10.667 18.333 20 31 28c12.667 7.33301 26 13.333 40 18
c-31.333 12 -56.333 31.333 -75 58s-28.334 56.667 -29.001 90c0 33.333 6.66699 62.666 20 87.999c13.333 26 32 46.333 56 61s53 22 87 22c18.667 0 35.334 -2.33301 50.001 -7l41 -14c13.333 -4 28 -6 44 -6c12 0 22.667 2 32 6s18.666 10 27.999 18l46 -50z
M291.006 356.002c0 20 -2 37.999 -6 53.999s-12 28.667 -24 38s-29.333 14 -52 14s-40 -5 -52 -15c-12 -10.667 -20.333 -24.667 -25 -42c-4.66699 -16.667 -7 -35 -7 -55c-0.666992 -30.667 5 -55.667 17 -75c12 -20 34.667 -30 68 -30c21.333 0 38 5 50 15s20 23 24 39
c4 16.667 6 34.334 6 53.001zM361.006 709.001v-1v0v0c-2.66699 -5.33301 -8.66699 -14 -18 -26s-21.333 -24.667 -36 -38c-14 -13.333 -29.333 -24.666 -46 -33.999s-33.667 -14 -51 -14s-34.333 4.66699 -51 14s-32.334 20.666 -47.001 33.999
c-14 13.333 -25.667 26 -35 38s-15.333 20.667 -18 26l32 42c5.33301 -6.66699 14 -15 26 -25s26.333 -19 43 -27s34.334 -12 53.001 -12c16 0.666992 32.333 5 49 13c16.667 8.66699 31.667 18 45 28c12.667 10 21.667 17.667 27 23l28 -42z" />
    <glyph glyph-name="Gdotaccent" unicode="&#x120;" horiz-adv-x="558" 
d="M481 631l-36.9971 -43.002c-22.667 20 -45.334 34.667 -68.001 44s-45.667 14 -69 14c-40 0 -73.333 -12.667 -100 -38s-46.334 -60.666 -59.001 -105.999s-19 -98 -19 -158c0 -57.333 6 -108 18 -152s32.667 -78.667 62 -104s69.333 -38 120 -38
c17.333 0 33.666 3.33301 48.999 10c14.667 6 27.334 12.333 38.001 19v222h-123l-14 64h206v-318c-22 -17.333 -47.667 -31.333 -77 -42c-29.333 -11.333 -61.333 -17 -96 -17c-41.333 0 -77.333 7.33301 -108 22s-57.334 36.667 -80.001 66c-24 29.333 -42.333 66 -55 110
c-13.333 44 -20 100 -20 168c0 66.667 8 123.667 24 171s39.667 87 71 119c22 22.667 46.333 39.334 73 50.001s56 16 88 16c33.333 0 65.333 -6.66699 96 -20s57 -31.333 79 -54zM368.003 822.998v-1v0v0c0 -18 -6 -33 -18 -45s-27 -18 -45 -18c-17.333 0 -32 6 -44 18
s-18.333 27 -19 45c0.666992 18 7 33 19 45s26.667 18 44 18c18 0 33 -6 45 -18s18 -27 18 -45v1z" />
    <glyph glyph-name="gdotaccent" unicode="&#x121;" horiz-adv-x="439" 
d="M451 463c-12 -9.33301 -23.9941 -15.998 -35.9941 -19.998c-11.333 -4 -24.333 -6 -39 -6c-5.33301 0 -10.666 0.666992 -15.999 2s-10.333 3 -15 5c8.66699 -12.667 15 -26.334 19 -41.001c4.66699 -14.667 7 -30 7 -46c0 -26.667 -5.33301 -53.334 -16 -80.001
s-27 -48.334 -49 -65.001c-12 -8.66699 -25.333 -14.334 -40 -17.001c-14.667 -3.33301 -29.334 -5 -44.001 -5c-23.333 -9.33301 -41 -17.666 -53 -24.999s-20 -13.666 -24 -18.999s-6 -10 -6 -14c0.666992 -10.667 5 -18 13 -22c7.33301 -4 15.666 -6 24.999 -6h66
c28 0 50.667 -2 68 -6s32.666 -11.333 45.999 -22c17.333 -14 29.666 -29.667 36.999 -47c8 -17.333 12 -36.666 12 -57.999c0 -36 -7.33301 -66 -22 -90s-35.334 -42 -62.001 -54s-57.334 -18 -92.001 -18c-20.667 0 -42.334 2 -65.001 6c-22 4 -42.667 10.667 -62 20
s-35 22.333 -47 39c-12 17.333 -18 38.666 -18 63.999c0 9.33301 0.666992 18.666 2 27.999s3.33301 18.333 6 27l73 7c-4 -6.66699 -7.33301 -14 -10 -22s-4 -16 -4 -24c0 -23.333 5.33301 -41.666 16 -54.999s24.667 -22.666 42 -27.999s36 -8 56 -8c32 0 58 8 78 24
s30.333 40.333 31 73c0 24 -4.66699 42 -14 54s-22 20 -38 24s-34.333 6 -55 6h-27h-41c-13.333 0 -26.666 2 -39.999 6s-24.333 11 -33 21s-13 23.667 -13 41c0 16 4 29.667 12 41c8 10.667 18.333 20 31 28c12.667 7.33301 26 13.333 40 18
c-31.333 12 -56.333 31.333 -75 58s-28.334 56.667 -29.001 90c0 33.333 6.66699 62.666 20 87.999c13.333 26 32 46.333 56 61s53 22 87 22c18.667 0 35.334 -2.33301 50.001 -7l41 -14c13.333 -4 28 -6 44 -6c12 0 22.667 2 32 6s18.666 10 27.999 18l46 -50z
M291.006 356.002c0 20 -2 37.999 -6 53.999s-12 28.667 -24 38s-29.333 14 -52 14s-40 -5 -52 -15c-12 -10.667 -20.333 -24.667 -25 -42c-4.66699 -16.667 -7 -35 -7 -55c-0.666992 -30.667 5 -55.667 17 -75c12 -20 34.667 -30 68 -30c21.333 0 38 5 50 15s20 23 24 39
c4 16.667 6 34.334 6 53.001zM272.006 659.001v-1v0v0c-0.666992 -18 -7 -33 -19 -45s-26.667 -18 -44 -18c-18 0 -33 6 -45 18s-18 27 -18 45s6 33 18 45s27 18 45 18c17.333 0 32 -6 44 -18s18.333 -27 19 -45v1z" />
    <glyph glyph-name="Gcommaaccent" unicode="&#x122;" horiz-adv-x="558" 
d="M481 631l-36.9971 -43.002c-22.667 20 -45.334 34.667 -68.001 44s-45.667 14 -69 14c-40 0 -73.333 -12.667 -100 -38s-46.334 -60.666 -59.001 -105.999s-19 -98 -19 -158c0 -57.333 6 -108 18 -152s32.667 -78.667 62 -104s69.333 -38 120 -38
c17.333 0 33.666 3.33301 48.999 10c14.667 6 27.334 12.333 38.001 19v222h-123l-14 64h206v-318c-22 -17.333 -47.667 -31.333 -77 -42c-29.333 -11.333 -61.333 -17 -96 -17c-41.333 0 -77.333 7.33301 -108 22s-57.334 36.667 -80.001 66c-24 29.333 -42.333 66 -55 110
c-13.333 44 -20 100 -20 168c0 66.667 8 123.667 24 171s39.667 87 71 119c22 22.667 46.333 39.334 73 50.001s56 16 88 16c33.333 0 65.333 -6.66699 96 -20s57 -31.333 79 -54zM366.003 -120.002l-0.00292969 -1.00098v0v0c0 -13.333 -2.66699 -26.666 -8 -39.999
s-12.666 -26.333 -21.999 -39c-8.66699 -10.667 -19 -20.667 -31 -30s-24.667 -17.333 -38 -24l-24 34c16 6.66699 28.667 16 38 28s15 25.333 17 40c-2 -0.666992 -3.66699 -1 -5 -1h-4c-13.333 0 -24 4.66699 -32 14s-12 21 -12 35c0.666992 16 6.33398 29.333 17.001 40
s24.334 16 41.001 16c19.333 0 35 -6.66699 47 -20s18 -31.333 18 -54z" />
    <glyph glyph-name="gcommaaccent" unicode="&#x123;" horiz-adv-x="439" 
d="M451 463c-12 -9.33301 -23.9941 -15.998 -35.9941 -19.998c-11.333 -4 -24.333 -6 -39 -6c-5.33301 0 -10.666 0.666992 -15.999 2s-10.333 3 -15 5c8.66699 -12.667 15 -26.334 19 -41.001c4.66699 -14.667 7 -30 7 -46c0 -26.667 -5.33301 -53.334 -16 -80.001
s-27 -48.334 -49 -65.001c-12 -8.66699 -25.333 -14.334 -40 -17.001c-14.667 -3.33301 -29.334 -5 -44.001 -5c-23.333 -9.33301 -41 -17.666 -53 -24.999s-20 -13.666 -24 -18.999s-6 -10 -6 -14c0.666992 -10.667 5 -18 13 -22c7.33301 -4 15.666 -6 24.999 -6h66
c28 0 50.667 -2 68 -6s32.666 -11.333 45.999 -22c17.333 -14 29.666 -29.667 36.999 -47c8 -17.333 12 -36.666 12 -57.999c0 -36 -7.33301 -66 -22 -90s-35.334 -42 -62.001 -54s-57.334 -18 -92.001 -18c-20.667 0 -42.334 2 -65.001 6c-22 4 -42.667 10.667 -62 20
s-35 22.333 -47 39c-12 17.333 -18 38.666 -18 63.999c0 9.33301 0.666992 18.666 2 27.999s3.33301 18.333 6 27l73 7c-4 -6.66699 -7.33301 -14 -10 -22s-4 -16 -4 -24c0 -23.333 5.33301 -41.666 16 -54.999s24.667 -22.666 42 -27.999s36 -8 56 -8c32 0 58 8 78 24
s30.333 40.333 31 73c0 24 -4.66699 42 -14 54s-22 20 -38 24s-34.333 6 -55 6h-27h-41c-13.333 0 -26.666 2 -39.999 6s-24.333 11 -33 21s-13 23.667 -13 41c0 16 4 29.667 12 41c8 10.667 18.333 20 31 28c12.667 7.33301 26 13.333 40 18
c-31.333 12 -56.333 31.333 -75 58s-28.334 56.667 -29.001 90c0 33.333 6.66699 62.666 20 87.999c13.333 26 32 46.333 56 61s53 22 87 22c18.667 0 35.334 -2.33301 50.001 -7l41 -14c13.333 -4 28 -6 44 -6c12 0 22.667 2 32 6s18.666 10 27.999 18l46 -50z
M291.006 356.002c0 20 -2 37.999 -6 53.999s-12 28.667 -24 38s-29.333 14 -52 14s-40 -5 -52 -15c-12 -10.667 -20.333 -24.667 -25 -42c-4.66699 -16.667 -7 -35 -7 -55c-0.666992 -30.667 5 -55.667 17 -75c12 -20 34.667 -30 68 -30c21.333 0 38 5 50 15s20 23 24 39
c4 16.667 6 34.334 6 53.001zM146.006 672.001l0.00292969 -0.999023v0v0c0 13.333 2.66699 26.666 8 39.999s12.666 26.333 21.999 39c8.66699 10.667 19 20.667 31 30s24.667 17.333 38 24l24 -34c-16 -7.33301 -28.667 -17 -38 -29s-15 -25.333 -17 -40h5h4
c13.333 0 24 -4.66699 32 -14s12 -21 12 -35c-0.666992 -16 -6.33398 -29.333 -17.001 -40s-24.334 -16 -41.001 -16c-19.333 0 -35 6.66699 -47 20s-18 31.333 -18 54z" />
    <glyph glyph-name="Hcircumflex" unicode="&#x124;" horiz-adv-x="565" 
d="M411 0v344h-257v-344h-72v702h72v-298h257v298h72v-702h-72zM437 795v-1v0l-34 -37l-121 84l-118 -84l-31 37l152 138l152 -138v1z" />
    <glyph glyph-name="hcircumflex" unicode="&#x125;" horiz-adv-x="500" 
d="M417 2h-68.002v350c0 18.667 -1.33301 34 -4 46s-7 21.333 -13 28c-5.33301 6.66699 -12.666 12 -21.999 16s-19.666 6 -30.999 6c-22 0 -44.333 -6 -67 -18s-43.667 -31.333 -63 -58v-373h-70v630c0 23.333 -1.33301 43.666 -4 60.999c-2 17.333 -4.33301 32 -7 44
l69 14c3.33301 -13.333 6 -30 8 -50c2.66699 -20 4 -43.667 4 -71v-117c0 -12.667 -0.333008 -24 -1 -34c0 -10.667 -0.666992 -21 -2 -31c20 21.333 42.667 38 68 50s52.666 18 81.999 18c20 0 38 -3.66699 54 -11c16.667 -7.33301 30.334 -17.666 41.001 -30.999
c10.667 -14.667 17.667 -31.667 21 -51c4 -18.667 6 -36.667 6 -54v-366zM267.998 798v-1v0l-35 -37l-121 84l-118 -84l-31 37l152 138l153 -138v1z" />
    <glyph glyph-name="Hbar" unicode="&#x126;" horiz-adv-x="565" 
d="M411 0v344h-257v-344h-72v526h-64v64h64v112h72v-112h257v112h72v-112h64v-64h-64v-526h-72zM154 405v-1v0h257v121h-257v-121v1z" />
    <glyph glyph-name="hbar" unicode="&#x127;" horiz-adv-x="500" 
d="M418 3l-0.00195312 -1v0h-68v350c0 18.667 -1.33301 34 -4 46s-7 21.333 -13 28c-5.33301 6.66699 -12.666 12 -21.999 16s-19.666 6 -30.999 6c-22 0 -44.333 -6 -67 -18s-43.667 -31.333 -63 -58v-373h-70v586h-72v56h72c-0.666992 22.667 -2 41.667 -4 57
c-2.66699 14.667 -5.33398 26.667 -8.00098 36l69 14c2.66699 -10.667 5.33398 -24.667 8.00098 -42c2 -18 3.33301 -40 4 -66h154v-56h-154v-74c0 -10.667 -0.333008 -21.667 -1 -33c0 -10.667 -0.666992 -21.334 -2 -32.001c20 21.333 42.667 38 68 50
s52.666 18 81.999 18c20 0 38 -3.66699 54 -11c16.667 -7.33301 30.334 -17.666 41.001 -30.999c10.667 -14.667 17.667 -31.667 21 -51c4 -18.667 6 -36.667 6 -54v-366v3z" />
    <glyph glyph-name="Itilde" unicode="&#x128;" horiz-adv-x="236" 
d="M82 0v702h72v-702h-72zM271 825l-0.000976562 -1.00098v0v0c-14.667 -21.333 -30 -36.666 -46 -45.999s-36.667 -14 -62 -14c-17.333 0 -31.333 2.66699 -42 8l-31 16c-10 5.33301 -23.333 8.33301 -40 9c-14 0 -25.667 -3.33301 -35 -10s-18.666 -15.667 -27.999 -27
l-26 40c14.667 20.667 30 35.667 46 45s36.667 14 62 14c17.333 -0.666992 31.333 -3.66699 42 -9l32 -16c10 -5.33301 23.333 -8 40 -8c14 0 25.667 3.33301 35 10s18.333 16 27 28l25 -40z" />
    <glyph glyph-name="itilde" unicode="&#x129;" horiz-adv-x="237" 
d="M154 1h-72v511l72 10v-522v1zM270 671l-0.000976562 -1.00098v0v0c-14.667 -21.333 -30 -36.666 -46 -45.999s-36.667 -14 -62 -14c-17.333 0 -31.333 2.66699 -42 8l-31 16c-10 5.33301 -23.333 8.33301 -40 9c-14 0 -25.667 -3.33301 -35 -10
s-18.666 -15.667 -27.999 -27l-26 40c14.667 20.667 30 35.667 46 45s36.667 14 62 14c17.333 -0.666992 31.333 -3.66699 42 -9l32 -16c10 -5.33301 23 -8 39 -8c14 0 25.667 3.33301 35 10s18.333 16 27 28l25 -40z" />
    <glyph glyph-name="Imacron" unicode="&#x12a;" horiz-adv-x="236" 
d="M82 0v702h72v-702h-72zM240 761v-1v0h-244v56h244v-56v1z" />
    <glyph glyph-name="imacron" unicode="&#x12b;" horiz-adv-x="237" 
d="M-4 586v56h244v-56h-244zM154 2v-1v0h-72v511l72 10v-522v2z" />
    <glyph glyph-name="Ibreve" unicode="&#x12c;" horiz-adv-x="236" 
d="M82 0v702h72v-702h-72zM267 893l-0.00390625 -1v0v0c-2.66699 -5.33301 -8.66699 -14 -18 -26s-21 -24.667 -35 -38s-29.333 -24.666 -46 -33.999c-17.333 -9.33301 -34.666 -14 -51.999 -14s-34.666 4.66699 -51.999 14c-16.667 9.33301 -32 20.666 -46 33.999
s-25.667 26 -35 38s-15.666 20.667 -18.999 26l32 41c5.33301 -6.66699 14 -14.667 26 -24c12 -10 26.667 -19 44 -27c16.667 -8 34.334 -12 53.001 -12c16 0.666992 32.333 5 49 13s31.334 17 44.001 27c13.333 10 22.666 17.667 27.999 23l28 -41z" />
    <glyph glyph-name="ibreve" unicode="&#x12d;" horiz-adv-x="237" 
d="M154 1h-72v511l72 10v-522v1zM266 709l-0.00195312 -1v0v0c-2.66699 -5.33301 -8.66699 -14 -18 -26s-21 -24.667 -35 -38s-29.667 -24.666 -47 -33.999c-16.667 -9.33301 -33.667 -14 -51 -14s-34.666 4.66699 -51.999 14c-16.667 9.33301 -32 20.666 -46 33.999
c-14.667 13.333 -26.667 26 -36 38s-15.666 20.667 -18.999 26l32 42c5.33301 -6.66699 14 -15 26 -25s26.333 -19 43 -27c17.333 -8 35.333 -12 54 -12c16 0.666992 32.333 5 49 13c16.667 8.66699 31.334 18 44.001 28c13.333 10 22.666 17.667 27.999 23l28 -42v1z" />
    <glyph glyph-name="Iogonek" unicode="&#x12e;" horiz-adv-x="236" 
d="M195 -175l-0.00292969 -0.998047v0v0c-9.33301 -6 -20.666 -11.667 -33.999 -17s-26.666 -8 -39.999 -8c-29.333 0.666992 -51.333 9.66699 -66 27c-15.333 17.333 -23 38 -23 62c0.666992 24 6.33398 45.333 17.001 64c10.667 19.333 22 35 34 47v702h72v-702
c-6.66699 -4 -15 -11.333 -25 -22s-19 -23.334 -27 -38.001s-12.333 -31.334 -13 -50.001c0 -10 2.66699 -18.333 8 -25s13 -10 23 -10c9.33301 0 18 1 26 3s17.667 5.66699 29 11l18 -45z" />
    <glyph glyph-name="iogonek" unicode="&#x12f;" horiz-adv-x="237" 
d="M196 -175c-9.33301 -6 -20.6689 -11.666 -34.002 -16.999s-26.666 -8 -39.999 -8c-29.333 0.666992 -51.333 9.66699 -66 27c-15.333 17.333 -23 38 -23 62c0.666992 24 6.33398 45.333 17.001 64c10.667 19.333 22 35 34 47v511l72 10v-521
c-7.33301 -4 -16 -11.333 -26 -22s-19 -23.334 -27 -38.001c-8 -15.333 -12.333 -32.333 -13 -51c0 -10 2.66699 -18.333 8 -25s13 -10 23 -10c9.33301 0 18 1 26 3s17.667 5.66699 29 11l18 -45zM173.997 661.001v-1v0v0c0 -16.667 -5.66699 -30.667 -17 -42
c-10.667 -11.333 -24.667 -17 -42 -17c-16.667 0 -30.334 5.66699 -41.001 17c-11.333 11.333 -17 25.333 -17 42s5.66699 30.667 17 42c10.667 11.333 24.334 17 41.001 17c17.333 0 31.333 -5.66699 42 -17c11.333 -11.333 17 -25.333 17 -42v1z" />
    <glyph glyph-name="Idotaccent" unicode="&#x130;" horiz-adv-x="236" 
d="M82 0v702h72v-702h-72zM180 823v-1v0v0c0 -18 -6 -33 -18 -45s-26.667 -18 -44 -18c-18 0 -33 6 -45 18s-18 27 -18 45s6 33 18 45s27 18 45 18c17.333 0 32 -6 44 -18s18 -27 18 -45v1z" />
    <glyph glyph-name="dotlessi" unicode="&#x131;" horiz-adv-x="237" 
d="M154 2v-1v0h-72v511l72 10v-522v2z" />
    <glyph glyph-name="IJ" unicode="&#x132;" horiz-adv-x="478" 
d="M82 0v702h72v-702h-72zM395 701l-0.00195312 -1.00195v0v-582c0 -29.333 -0.666992 -53.666 -2 -72.999s-3.66602 -35.666 -6.99902 -48.999s-8 -26 -14 -38c-9.33301 -20 -22.666 -37 -39.999 -51s-38 -25.667 -62 -35l-35 46c16 7.33301 30 16 42 26
c11.333 10.667 22 26 32 46c6 10.667 9.66699 25.667 11 45c1.33301 20 2 47.667 2 83v584h74z" />
    <glyph glyph-name="ij" unicode="&#x133;" horiz-adv-x="472" 
d="M82 0v512l72 10v-522h-72zM174 660c0 -16.667 -5.66699 -30.667 -17 -42c-10.667 -11.333 -24.667 -17 -42 -17c-16.667 0 -30.334 5.66699 -41.001 17c-11.333 11.333 -17 25.333 -17 42s5.66699 30.667 17 42c10.667 11.333 24.334 17 41.001 17
c17.333 0 31.333 -5.66699 42 -17c11.333 -11.333 17 -25.333 17 -42zM392 524v-516c0 -22.667 -1 -43.667 -3 -63s-5.66699 -36 -11 -50c-8 -23.333 -19.333 -43 -34 -59c-14.667 -15.333 -32.667 -28.333 -54 -39l-38 46c20 10 34.667 21.667 44 35s15.333 30 18 50
s4 44.667 4 74v508l72 14h2zM408 661v-1v0v0c0 -16.667 -5.66699 -30.667 -17 -42c-10.667 -11.333 -24.667 -17 -42 -17c-16.667 0 -30.334 5.66699 -41.001 17c-11.333 11.333 -17 25.333 -17 42s5.66699 30.667 17 42c10.667 11.333 24.334 17 41.001 17
c17.333 0 31.333 -5.66699 42 -17c11.333 -11.333 17 -25.333 17 -42v1z" />
    <glyph glyph-name="Jcircumflex" unicode="&#x134;" horiz-adv-x="243" 
d="M159 700l-0.00195312 -582.002c0 -29.333 -0.666992 -53.666 -2 -72.999s-3.66602 -35.666 -6.99902 -48.999s-8 -26 -14 -38c-9.33301 -20 -22.666 -37 -39.999 -51s-38 -25.667 -62 -35l-35 46c16 7.33301 30 16 42 26c11.333 10.667 22 26 32 46
c6 10.667 9.66699 25.667 11 45c1.33301 20 2 47.667 2 83v584h74zM276.998 794.998v-1v0l-35 -37l-120 84l-118 -84l-30 37l152 138l152 -138z" />
    <glyph glyph-name="jcircumflex" unicode="&#x135;" horiz-adv-x="236" 
d="M156 524v-516c0 -22.667 -1 -43.667 -3 -63s-5.66699 -36 -11 -50c-8 -23.333 -19.333 -43 -34 -59c-14.667 -15.333 -32.667 -28.333 -54 -39l-38 46c20 10 34.667 21.667 44 35s15.333 30 18 50s4 44.667 4 74v508l72 14h2zM268 621v-1v0l-35 -37l-121 84l-118 -84
l-31 37l152 138l153 -138v1z" />
    <glyph glyph-name="Kcommaaccent" unicode="&#x136;" horiz-adv-x="488" 
d="M396 0l-234 372l236 331h90l-246 -330l244 -373h-90zM82 0v702h74v-702h-74zM320 -121l-0.00195312 -1.00098v0v0c0 -13.333 -2.66699 -26.666 -8 -39.999s-12.666 -26.333 -21.999 -39c-8.66699 -10.667 -19 -20.667 -31 -30s-24.667 -17.333 -38 -24l-24 34
c16 6.66699 28.667 16 38 28s15.333 25.333 18 40c-2 -0.666992 -3.66699 -1 -5 -1h-4c-13.333 0 -24 4.66699 -32 14s-12 21 -12 35c0 16 5.33301 29.333 16 40s24.334 16 41.001 16c19.333 0 35 -6.66699 47 -20s18 -31.333 18 -54z" />
    <glyph glyph-name="kcommaaccent" unicode="&#x137;" horiz-adv-x="451" 
d="M153 0l-70 -0.000976562v625c0 22.667 -1.33301 42.667 -4 60s-6 34 -10 50l70 14c3.33301 -13.333 6.33301 -30.666 9 -51.999s4 -45.333 4 -72v-625h1zM361 -0.000976562l-205 289l170 221h84l-175 -221l215 -289h-89zM309 -122.001l-0.000976562 -1.00098v0v0
c0 -13.333 -2.66699 -26.666 -8 -39.999s-13 -26.333 -23 -39c-8 -10.667 -18.333 -20.667 -31 -30c-12 -9.33301 -24.667 -17.333 -38 -24l-24 34c16 6.66699 28.667 16 38 28s15 25.333 17 40c-2 -0.666992 -3.66699 -1 -5 -1h-4c-13.333 0 -24 4.66699 -32 14
s-12 21 -12 35c0 16 5.33301 29.333 16 40s24.334 16 41.001 16c19.333 0 35 -6.66699 47 -20s18.333 -31.333 19 -54z" />
    <glyph glyph-name="kgreenlandic" unicode="&#x138;" horiz-adv-x="451" 
d="M361 0l-205 289l170 221h84l-175 -221l215 -289h-89zM151 0l-0.000976562 -1v0h-70v400c0 14 -1 30.333 -3 49c-1.33301 19.333 -4.66602 39.333 -9.99902 60l70 14c5.33301 -22.667 9 -44 11 -64s3 -39.333 3 -58v-400h-1z" />
    <glyph glyph-name="Lacute" unicode="&#x139;" horiz-adv-x="407" 
d="M386 0h-304v702h72v-636h242zM240 857v-1v0l-200 -100l-22 42l184 128l38 -70v1z" />
    <glyph glyph-name="lacute" unicode="&#x13a;" horiz-adv-x="234" 
d="M202 2c-8 -4.66699 -15.335 -7.66699 -22.002 -9s-14.667 -2 -24 -2c-21.333 0 -38.666 7.33301 -51.999 22c-6.66699 6.66699 -12 16 -16 28s-6 27.333 -6 46v540c0 22.667 -1.33301 42.667 -4 60s-6 32.333 -10 45l68 14c4.66699 -16 8.33398 -34 11.001 -54
s4 -42 4 -66v-526c0 -20 2 -33.667 6 -41s10.667 -11 20 -11h5c1.33301 0 3.33301 0.333008 6 1l14 -48v1zM260.998 857v-1v0l-200 -100l-22 42l184 128l38 -70v1z" />
    <glyph glyph-name="Lcommaaccent" unicode="&#x13b;" horiz-adv-x="407" 
d="M386 0h-304v702h72v-636h242zM298 -122l-0.00195312 -1.00098v0v0c0 -13.333 -2.66699 -26.666 -8 -39.999s-12.666 -26.333 -21.999 -39c-8.66699 -10.667 -19 -20.667 -31 -30c-12.667 -9.33301 -25.667 -17.333 -39 -24l-24 34c16 6.66699 28.667 16 38 28
s15.333 25.333 18 40c-2 -0.666992 -3.66699 -1 -5 -1h-4c-13.333 0 -24 4.66699 -32 14s-12 21 -12 35c0 16 5.33301 29.333 16 40s24.334 16 41.001 16c19.333 0 35 -6.66699 47 -20s18 -31.333 18 -54z" />
    <glyph glyph-name="lcommaaccent" unicode="&#x13c;" horiz-adv-x="234" 
d="M202 2c-8 -4.66699 -15.335 -7.66699 -22.002 -9s-14.667 -2 -24 -2c-21.333 0 -38.666 7.33301 -51.999 22c-6.66699 6.66699 -12 16 -16 28s-6 27.333 -6 46v540c0 22.667 -1.33301 42.667 -4 60s-6 32.333 -10 45l68 14c4.66699 -16 8.33398 -34 11.001 -54
s4 -42 4 -66v-526c0 -20 2 -33.667 6 -41s10.667 -11 20 -11h5c1.33301 0 3.33301 0.333008 6 1l14 -48v1zM207.998 -121v-1.00098v0v0c0 -13.333 -2.66699 -26.666 -8 -39.999s-13 -26.333 -23 -39c-8 -10.667 -18 -20.667 -30 -30
c-12.667 -9.33301 -25.667 -17.333 -39 -24l-24 34c16 6.66699 28.667 16 38 28s15.333 25.333 18 40c-2.66699 -0.666992 -4.66699 -1 -6 -1h-4c-13.333 0 -24 4.66699 -32 14s-12 21 -12 35c0 16 5.33301 29.333 16 40s24.667 16 42 16c19.333 0 35 -6.66699 47 -20
s18 -31.333 18 -54z" />
    <glyph glyph-name="Lcaron" unicode="&#x13d;" horiz-adv-x="407" 
d="M386 0h-304v702h72v-636h242zM359 629v-1.00098v0v0c0 -13.333 -2.66699 -26.666 -8 -39.999s-13 -26.333 -23 -39c-8 -10.667 -18 -20.667 -30 -30c-12.667 -9.33301 -25.667 -17.333 -39 -24l-24 34c16 7.33301 28.667 17 38 29s15.333 25.333 18 40
c-2.66699 -0.666992 -4.66699 -1 -6 -1h-4c-13.333 0 -24 4.66699 -32 14s-12 21 -12 35c0 16 5.33301 29.333 16 40s24.667 16 42 16c19.333 0 35 -6.66699 47 -20s18 -31.333 18 -54z" />
    <glyph glyph-name="lcaron" unicode="&#x13e;" horiz-adv-x="288" 
d="M202 2c-8 -4.66699 -15.335 -7.66699 -22.002 -9s-14.667 -2 -24 -2c-21.333 0 -38.666 7.33301 -51.999 22c-6.66699 6.66699 -12 16 -16 28s-6 27.333 -6 46v540c0 22.667 -1.33301 42.667 -4 60s-6 32.333 -10 45l68 14c4.66699 -16 8.33398 -34 11.001 -54
s4 -42 4 -66v-526c0 -20 2 -33.667 6 -41s10.667 -11 20 -11h5c1.33301 0 3.33301 0.333008 6 1l14 -48v1zM316.998 667l-0.000976562 -1.00098v0v0c0 -13.333 -2.66699 -26.666 -8 -39.999s-13 -26.333 -23 -39c-8 -10.667 -18 -20.667 -30 -30
c-12.667 -9.33301 -25.667 -17.333 -39 -24l-24 34c16 7.33301 28.667 17 38 29s15.333 25.333 18 40c-2 -0.666992 -3.66699 -1 -5 -1h-4c-13.333 0 -24 4.66699 -32 14s-12 21 -12 35c0 16 5.33301 29.333 16 40s24.334 16 41.001 16c19.333 0 35 -6.66699 47 -20
s18 -31.333 18 -54z" />
    <glyph glyph-name="Ldot" unicode="&#x13f;" horiz-adv-x="407" 
d="M386 0h-304v702h72v-636h242zM366 357v-1v0v0c0 -14 -4.66699 -25.667 -14 -35s-20.666 -14 -33.999 -14s-24.666 4.66699 -33.999 14s-14 21 -14 35c0 13.333 4.66699 24.666 14 33.999s20.666 14 33.999 14s24.666 -4.66699 33.999 -14s14 -20.666 14 -33.999v1z" />
    <glyph glyph-name="ldot" unicode="&#x140;" horiz-adv-x="289" 
d="M202 2c-8 -4.66699 -15.335 -7.66699 -22.002 -9s-14.667 -2 -24 -2c-21.333 0 -38.666 7.33301 -51.999 22c-6.66699 6.66699 -12 16 -16 28s-6 27.333 -6 46v540c0 22.667 -1.33301 42.667 -4 60s-6 32.333 -10 45l68 14c4.66699 -16 8.33398 -34 11.001 -54
s4 -42 4 -66v-526c0 -20 2 -33.667 6 -41s10.667 -11 20 -11h5c1.33301 0 3.33301 0.333008 6 1l14 -48v1zM308.998 382v-1v0v0c0 -14 -4.66699 -25.667 -14 -35s-20.666 -14 -33.999 -14s-24.666 4.66699 -33.999 14s-14 21 -14 35c0 13.333 4.66699 24.666 14 33.999
s20.666 14 33.999 14s24.666 -4.66699 33.999 -14s14.333 -20.666 15 -33.999z" />
    <glyph glyph-name="Lslash" unicode="&#x141;" horiz-adv-x="407" 
d="M396 65l-10 -66h-304v326l-68 -22v64l68 22v314h72v-291l91 30v-64l-91 -30v-282h242v-1z" />
    <glyph glyph-name="lslash" unicode="&#x142;" horiz-adv-x="234" 
d="M203 2l-0.000976562 -0.999023v0v0c-8 -4.66699 -15.333 -7.66699 -22 -9s-14.667 -2 -24 -2c-21.333 0 -38.666 7.33301 -51.999 22c-6.66699 6.66699 -12 16 -16 28s-6 27.333 -6 46v240l-62 -22v64l62 22v236c0 22.667 -1.33301 42.667 -4 60s-6 32.666 -10 45.999
l68 14c4 -13.333 7.33301 -30 10 -50s4 -43.333 4 -70v-211l62 22v-64l-62 -22v-251c0 -20 2 -33.667 6 -41s10.667 -11 20 -11h5c1.33301 0 3.33301 0.333008 6 1l14 -48z" />
    <glyph glyph-name="Nacute" unicode="&#x143;" horiz-adv-x="570" 
d="M489 -1h-78l-192 432l-38 90l-35 88c2 -20 3.66699 -42 5 -66s2.33301 -48 3 -72c1.33301 -23.333 2 -44.333 2 -63v-408h-74v702h87l203 -458c10.667 -25.333 20.667 -51.333 30 -78c10 -26.667 18.333 -50 25 -70c-2.66699 34.667 -4.66699 65 -6 91
s-2.33301 49.667 -3 71v62v382h70v-702zM408 857v-1v0l-200 -100l-22 42l184 128l38 -70v1z" />
    <glyph glyph-name="nacute" unicode="&#x144;" horiz-adv-x="489" 
d="M410 -2l-69.999 -0.000976562v350c0 26.667 -1.33301 46.667 -4 60c-2.66699 12.667 -7 23 -13 31c-4.66699 6.66699 -11.334 12 -20.001 16c-9.33301 4 -19.333 6 -30 6c-18.667 0 -39.334 -6 -62.001 -18s-43 -28 -61 -48v-394h-68v394
c0 24.667 -1.33301 46.334 -4 65.001c-3.33301 18.667 -7.33301 34 -12 46l68 18c4.66699 -9.33301 8.33398 -19.333 11.001 -30s4 -23 4 -37c25.333 25.333 49.333 43 72 53c22.667 9.33301 45.667 14 69 14c18 0 35 -4 51 -12c15.333 -8 28.333 -18.667 39 -32
s18 -28 22 -44s6 -32 6 -48v-388zM360.001 682.999v-1v0l-200 -100l-22 42l184 128l38 -70v1z" />
    <glyph glyph-name="Ncommaaccent" unicode="&#x145;" horiz-adv-x="570" 
d="M489 -1h-78l-192 432l-38 90l-35 88c2 -20 3.66699 -42 5 -66s2.33301 -48 3 -72c1.33301 -23.333 2 -44.333 2 -63v-408h-74v702h87l203 -458c10.667 -25.333 20.667 -51.333 30 -78c10 -26.667 18.333 -50 25 -70c-2.66699 34.667 -4.66699 65 -6 91
s-2.33301 49.667 -3 71v62v382h70v-702zM349 -121l-0.00195312 -1.00098v0v0c0 -13.333 -2.66699 -26.666 -8 -39.999s-12.666 -26.333 -21.999 -39c-8 -10.667 -18.333 -20.667 -31 -30c-12 -9.33301 -24.667 -17.333 -38 -24l-24 34c16 6.66699 28.667 16 38 28
s15 25.333 17 40c-2 -0.666992 -3.66699 -1 -5 -1h-4c-13.333 0 -24 4.66699 -32 14s-12 21 -12 35c0 16 5.33301 29.333 16 40s24.334 16 41.001 16c19.333 0 35 -6.66699 47 -20s18 -31.333 18 -54z" />
    <glyph glyph-name="ncommaaccent" unicode="&#x146;" horiz-adv-x="489" 
d="M410 -2l-69.999 -0.000976562v350c0 26.667 -1.33301 46.667 -4 60c-2.66699 12.667 -7 23 -13 31c-4.66699 6.66699 -11.334 12 -20.001 16c-9.33301 4 -19.333 6 -30 6c-18.667 0 -39.334 -6 -62.001 -18s-43 -28 -61 -48v-394h-68v394
c0 24.667 -1.33301 46.334 -4 65.001c-3.33301 18.667 -7.33301 34 -12 46l68 18c4.66699 -9.33301 8.33398 -19.333 11.001 -30s4 -23 4 -37c25.333 25.333 49.333 43 72 53c22.667 9.33301 45.667 14 69 14c18 0 35 -4 51 -12c15.333 -8 28.333 -18.667 39 -32
s18 -28 22 -44s6 -32 6 -48v-388zM309.001 -121.001l-0.000976562 -1.00098v0v0c0 -13.333 -2.66699 -26.666 -8 -39.999s-13 -26.333 -23 -39c-8 -10.667 -18.333 -20.667 -31 -30c-12 -9.33301 -24.667 -17.333 -38 -24l-24 34c16 6.66699 28.667 16 38 28
s15 25.333 17 40c-2 -0.666992 -3.66699 -1 -5 -1h-4c-13.333 0 -24 4.66699 -32 14s-12 21 -12 35c0 16 5.33301 29.333 16 40s24.334 16 41.001 16c19.333 0 35 -6.66699 47 -20s18.333 -31.333 19 -54z" />
    <glyph glyph-name="Ncaron" unicode="&#x147;" horiz-adv-x="570" 
d="M489 -1h-78l-192 432l-38 90l-35 88c2 -20 3.66699 -42 5 -66s2.33301 -48 3 -72c1.33301 -23.333 2 -44.333 2 -63v-408h-74v702h87l203 -458c10.667 -25.333 20.667 -51.333 30 -78c10 -26.667 18.333 -50 25 -70c-2.66699 34.667 -4.66699 65 -6 91
s-2.33301 49.667 -3 71v62v382h70v-702zM437 895v-1v0l-152 -132l-152 132l34 39l122 -85l118 83l31 -37z" />
    <glyph glyph-name="ncaron" unicode="&#x148;" horiz-adv-x="489" 
d="M410 -2l-69.999 -0.000976562v350c0 26.667 -1.33301 46.667 -4 60c-2.66699 12.667 -7 23 -13 31c-4.66699 6.66699 -11.334 12 -20.001 16c-9.33301 4 -19.333 6 -30 6c-18.667 0 -39.334 -6 -62.001 -18s-43 -28 -61 -48v-394h-68v394
c0 24.667 -1.33301 46.334 -4 65.001c-3.33301 18.667 -7.33301 34 -12 46l68 18c4.66699 -9.33301 8.33398 -19.333 11.001 -30s4 -23 4 -37c25.333 25.333 49.333 43 72 53c22.667 9.33301 45.667 14 69 14c18 0 35 -4 51 -12c15.333 -8 28.333 -18.667 39 -32
s18 -28 22 -44s6 -32 6 -48v-388zM398.001 710.999v-1v0l-152 -132l-153 132l34 39l122 -85l118 83l31 -37v1z" />
    <glyph glyph-name="napostrophe" unicode="&#x149;" horiz-adv-x="549" 
d="M469 -2l-69.999 -0.000976562v350c0 26.667 -1.33301 46.667 -4 60c-2.66699 12.667 -7 23 -13 31c-4.66699 6.66699 -11.334 12 -20.001 16c-9.33301 4 -19.333 6 -30 6c-18.667 0 -39.334 -6 -62.001 -18s-43 -28 -61 -48v-394h-68v394
c0 24.667 -1.33301 46.334 -4 65.001c-3.33301 18.667 -7.33301 34 -12 46l68 18c4.66699 -9.33301 8.33398 -19.333 11.001 -30s4 -23 4 -37c25.333 25.333 49.333 43 72 53c22.667 9.33301 45.667 14 69 14c18 0 35 -4 51 -12c15.333 -8 28.333 -18.667 39 -32
s18 -28 22 -44s6 -32 6 -48v-388zM123.001 637.999v-1.00098v0v0c0 -13.333 -2.66699 -26.666 -8 -39.999s-13 -26.333 -23 -39c-8 -10.667 -18 -20.667 -30 -30c-12.667 -9.33301 -25.667 -17.333 -39 -24l-24 34c16 7.33301 28.667 17 38 29s15.333 25.333 18 40
c-2.66699 -0.666992 -4.66699 -1 -6 -1h-4c-13.333 0 -24 4.66699 -32 14s-12 21 -12 35c0 16 5.33301 29.333 16 40s24.667 16 42 16c19.333 0 35 -6.66699 47 -20s18 -31.333 18 -54z" />
    <glyph glyph-name="Eng" unicode="&#x14a;" horiz-adv-x="570" 
d="M488 50v-1v0v0c0.666992 -38.667 -1.33301 -73.667 -6 -105c-4 -31.333 -15 -59 -33 -83s-47 -44 -87 -60l-34 46c18.667 8.66699 34 19 46 31s21.333 25.333 28 40c3.33301 6.66699 6 14 8 22c2.66699 8 4 17.667 4 29c0 4 -0.333008 8.66699 -1 14
c0 5.33301 -0.666992 11 -2 17l-192 432l-38 90l-35 88c2 -20 3.66699 -42 5 -66s2.33301 -48 3 -72c1.33301 -23.333 2 -44.333 2 -63v-408h-74v702h87l203 -458c10.667 -25.333 20.667 -51.333 30 -78c10 -26.667 18.333 -50 25 -70c-2.66699 34.667 -4.66699 65 -6 91
s-2.33301 49.667 -3 71v62v382h70v-658v5z" />
    <glyph glyph-name="eng" unicode="&#x14b;" horiz-adv-x="489" 
d="M410 6l0.00390625 -0.999023v0v0c0 -30.667 -2 -59 -6 -85c-4.66699 -26.667 -14.334 -50.667 -29.001 -72s-36.667 -39.333 -66 -54l-38 46c22 11.333 37.667 25 47 41c10 16 16.333 34 19 54c2 20 3 41.333 3 64v352c0 16 -1 32.333 -3 49
c-2.66699 16 -8.66699 29.333 -18 40s-24.666 16 -45.999 16c-22.667 -0.666992 -45.334 -7.66699 -68.001 -21s-41.334 -28.333 -56.001 -45v-394h-68v394c0 16 -1.33301 34.667 -4 56s-7 40 -13 56l68 18c5.33301 -9.33301 9.33301 -20 12 -32
c2.66699 -12.667 4 -24.334 4 -35.001c20 20 41.333 36 64 48s48.667 18 78 18c25.333 0 46.666 -6 63.999 -18s30.666 -28 39.999 -48s14 -42 14 -66v-380z" />
    <glyph glyph-name="Omacron" unicode="&#x14c;" horiz-adv-x="593" 
d="M542 340c0 -66.667 -6.99805 -122.666 -20.998 -167.999c-14.667 -45.333 -37.334 -84 -68.001 -116c-22.667 -23.333 -46.334 -40.333 -71.001 -51s-52.667 -16 -84 -16c-37.333 0 -70.666 8 -99.999 24s-54 37.667 -74 65c-24 32 -42 71.333 -54 118s-18 100 -18 160
c0 74.667 9.66699 138.667 29 192s47 94.666 83 123.999s79.333 44 130 44c35.333 -0.666992 65.666 -7 90.999 -19s46 -26.667 62 -44c16.667 -17.333 29.667 -34.666 39 -51.999c18.667 -32.667 32.667 -70.334 42 -113.001s14 -92 14 -148zM463.002 327.001
c0 52 -2.33105 97.334 -6.99805 136.001c-5.33301 38.667 -13 70.667 -23 96c-10.667 26.667 -27.334 48.667 -50.001 66s-51.667 26.333 -87 27c-29.333 0 -55.333 -6.66699 -78 -20c-22.667 -14 -40 -33.667 -52 -59c-10.667 -22.667 -18.667 -51 -24 -85
c-4.66699 -34 -7 -72.667 -7 -116c0 -36 1.33301 -70.333 4 -103c2.66699 -32 7 -61 13 -87c5.33301 -26.667 12 -48 20 -64c12 -22.667 30 -40.667 54 -54s49 -20 75 -20c25.333 0 47.333 4.66699 66 14c18.667 10 34.667 25 48 45
c15.333 21.333 26.666 49.666 33.999 84.999c7.33301 36 11 82.667 11 140zM417.004 761.002v-1v0h-245v56h245v-56v1z" />
    <glyph glyph-name="omacron" unicode="&#x14d;" horiz-adv-x="465" 
d="M427 244c0 -34.667 -3.33301 -65.999 -10 -93.999s-15.667 -52.667 -27 -74c-17.333 -30.667 -39.333 -53.667 -66 -69c-26.667 -14.667 -56.667 -22 -90 -22c-32 0 -60 6.33301 -84 19s-44.333 31.667 -61 57c-15.333 24 -27 52.667 -35 86s-12 70.333 -12 111
c0 41.333 4.33301 78.666 13 111.999c8 33.333 20 61.333 36 84c16 24 36 42 60 54s50.667 18 80 18c36.667 -0.666992 67.667 -9 93 -25c24.667 -16 44.667 -36.667 60 -62c13.333 -22.667 23.333 -50 30 -82s10 -68.667 10 -110zM343 238.001
c0 36 -1.66895 68.0029 -5.00195 96.0029c-2.66699 28 -7.66699 50.667 -15 68c-9.33301 22.667 -22.666 39 -39.999 49c-17.333 10.667 -35.333 16 -54 16c-20 0 -38 -4.66699 -54 -14s-28 -22.666 -36 -39.999c-7.33301 -16 -12.666 -36 -15.999 -60
c-4 -24.667 -6 -52.334 -6 -83.001c0 -24 1.33301 -47.333 4 -70s6 -43.334 10 -62.001s8.66699 -33.334 14 -44.001c8.66699 -15.333 21 -27.333 37 -36s33.667 -13 53 -13c23.333 0 43 6.33301 59 19c16.667 12.667 29 31 37 55c5.33301 16 9 34 11 54
c1.33301 19.333 2 41.666 2 66.999zM353.998 587.004v-1v0h-245v56h245v-56v1z" />
    <glyph glyph-name="Obreve" unicode="&#x14e;" horiz-adv-x="593" 
d="M542 340c0 -66.667 -6.99805 -122.666 -20.998 -167.999c-14.667 -45.333 -37.334 -84 -68.001 -116c-22.667 -23.333 -46.334 -40.333 -71.001 -51s-52.667 -16 -84 -16c-37.333 0 -70.666 8 -99.999 24s-54 37.667 -74 65c-24 32 -42 71.333 -54 118s-18 100 -18 160
c0 74.667 9.66699 138.667 29 192s47 94.666 83 123.999s79.333 44 130 44c35.333 -0.666992 65.666 -7 90.999 -19s46 -26.667 62 -44c16.667 -17.333 29.667 -34.666 39 -51.999c18.667 -32.667 32.667 -70.334 42 -113.001s14 -92 14 -148zM463.002 327.001
c0 52 -2.33105 97.334 -6.99805 136.001c-5.33301 38.667 -13 70.667 -23 96c-10.667 26.667 -27.334 48.667 -50.001 66s-51.667 26.333 -87 27c-29.333 0 -55.333 -6.66699 -78 -20c-22.667 -14 -40 -33.667 -52 -59c-10.667 -22.667 -18.667 -51 -24 -85
c-4.66699 -34 -7 -72.667 -7 -116c0 -36 1.33301 -70.333 4 -103c2.66699 -32 7 -61 13 -87c5.33301 -26.667 12 -48 20 -64c12 -22.667 30 -40.667 54 -54s49 -20 75 -20c25.333 0 47.333 4.66699 66 14c18.667 10 34.667 25 48 45
c15.333 21.333 26.666 49.666 33.999 84.999c7.33301 36 11 82.667 11 140zM443.004 893.002l-0.000976562 -1v0v0c-2.66699 -5.33301 -8.66699 -14 -18 -26s-21.333 -24.667 -36 -38c-14 -13.333 -29.333 -24.666 -46 -33.999s-33.667 -14 -51 -14s-34.333 4.66699 -51 14
c-17.333 9.33301 -33 20.666 -47 33.999s-25.667 26 -35 38s-15.333 20.667 -18 26l32 41c5.33301 -6.66699 14 -14.667 26 -24c12 -10 26.333 -19 43 -27s34.334 -12 53.001 -12c16 0.666992 32.333 5 49 13s31.334 17 44.001 27c13.333 10 22.666 17.667 27.999 23l28 -41
z" />
    <glyph glyph-name="obreve" unicode="&#x14f;" horiz-adv-x="465" 
d="M427 244c0 -34.667 -3.33301 -65.999 -10 -93.999s-15.667 -52.667 -27 -74c-17.333 -30.667 -39.333 -53.667 -66 -69c-26.667 -14.667 -56.667 -22 -90 -22c-32 0 -60 6.33301 -84 19s-44.333 31.667 -61 57c-15.333 24 -27 52.667 -35 86s-12 70.333 -12 111
c0 41.333 4.33301 78.666 13 111.999c8 33.333 20 61.333 36 84c16 24 36 42 60 54s50.667 18 80 18c36.667 -0.666992 67.667 -9 93 -25c24.667 -16 44.667 -36.667 60 -62c13.333 -22.667 23.333 -50 30 -82s10 -68.667 10 -110zM343 238.001
c0 36 -1.66895 68.0029 -5.00195 96.0029c-2.66699 28 -7.66699 50.667 -15 68c-9.33301 22.667 -22.666 39 -39.999 49c-17.333 10.667 -35.333 16 -54 16c-20 0 -38 -4.66699 -54 -14s-28 -22.666 -36 -39.999c-7.33301 -16 -12.666 -36 -15.999 -60
c-4 -24.667 -6 -52.334 -6 -83.001c0 -24 1.33301 -47.333 4 -70s6 -43.334 10 -62.001s8.66699 -33.334 14 -44.001c8.66699 -15.333 21 -27.333 37 -36s33.667 -13 53 -13c23.333 0 43 6.33301 59 19c16.667 12.667 29 31 37 55c5.33301 16 9 34 11 54
c1.33301 19.333 2 41.666 2 66.999zM378.998 709.004l-0.000976562 -1v0v0c-2.66699 -5.33301 -8.66699 -14 -18 -26s-21.333 -24.667 -36 -38c-14 -13.333 -29.333 -24.666 -46 -33.999s-33.667 -14 -51 -14s-34.333 4.66699 -51 14c-17.333 9.33301 -33 20.666 -47 33.999
s-25.667 26 -35 38s-15.333 20.667 -18 26l32 42c5.33301 -6.66699 14 -15 26 -25s26.333 -19 43 -27s34.334 -12 53.001 -12c16 0.666992 32.333 5 49 13c16.667 8.66699 31.667 18 45 28c12.667 10 21.667 17.667 27 23l28 -42z" />
    <glyph glyph-name="Ohungarumlaut" unicode="&#x150;" horiz-adv-x="593" 
d="M542 340c0 -66.667 -6.99805 -122.666 -20.998 -167.999c-14.667 -45.333 -37.334 -84 -68.001 -116c-22.667 -23.333 -46.334 -40.333 -71.001 -51s-52.667 -16 -84 -16c-37.333 0 -70.666 8 -99.999 24s-54 37.667 -74 65c-24 32 -42 71.333 -54 118s-18 100 -18 160
c0 74.667 9.66699 138.667 29 192s47 94.666 83 123.999s79.333 44 130 44c35.333 -0.666992 65.666 -7 90.999 -19s46 -26.667 62 -44c16.667 -17.333 29.667 -34.666 39 -51.999c18.667 -32.667 32.667 -70.334 42 -113.001s14 -92 14 -148zM463.002 327.001
c0 52 -2.33105 97.334 -6.99805 136.001c-5.33301 38.667 -13 70.667 -23 96c-10.667 26.667 -27.334 48.667 -50.001 66s-51.667 26.333 -87 27c-29.333 0 -55.333 -6.66699 -78 -20c-22.667 -14 -40 -33.667 -52 -59c-10.667 -22.667 -18.667 -51 -24 -85
c-4.66699 -34 -7 -72.667 -7 -116c0 -36 1.33301 -70.333 4 -103c2.66699 -32 7 -61 13 -87c5.33301 -26.667 12 -48 20 -64c12 -22.667 30 -40.667 54 -54s49 -20 75 -20c25.333 0 47.333 4.66699 66 14c18.667 10 34.667 25 48 45
c15.333 21.333 26.666 49.666 33.999 84.999c7.33301 36 11 82.667 11 140zM399.004 936.002l-142 -179l-40 30l117 196l64 -46zM571.004 908.002v-1v0l-168 -148l-33 39l146 168l56 -60z" />
    <glyph glyph-name="ohungarumlaut" unicode="&#x151;" horiz-adv-x="465" 
d="M427 244c0 -34.667 -3.33301 -65.999 -10 -93.999s-15.667 -52.667 -27 -74c-17.333 -30.667 -39.333 -53.667 -66 -69c-26.667 -14.667 -56.667 -22 -90 -22c-32 0 -60 6.33301 -84 19s-44.333 31.667 -61 57c-15.333 24 -27 52.667 -35 86s-12 70.333 -12 111
c0 41.333 4.33301 78.666 13 111.999c8 33.333 20 61.333 36 84c16 24 36 42 60 54s50.667 18 80 18c36.667 -0.666992 67.667 -9 93 -25c24.667 -16 44.667 -36.667 60 -62c13.333 -22.667 23.333 -50 30 -82s10 -68.667 10 -110zM343 238.001
c0 36 -1.66895 68.0029 -5.00195 96.0029c-2.66699 28 -7.66699 50.667 -15 68c-9.33301 22.667 -22.666 39 -39.999 49c-17.333 10.667 -35.333 16 -54 16c-20 0 -38 -4.66699 -54 -14s-28 -22.666 -36 -39.999c-7.33301 -16 -12.666 -36 -15.999 -60
c-4 -24.667 -6 -52.334 -6 -83.001c0 -24 1.33301 -47.333 4 -70s6 -43.334 10 -62.001s8.66699 -33.334 14 -44.001c8.66699 -15.333 21 -27.333 37 -36s33.667 -13 53 -13c23.333 0 43 6.33301 59 19c16.667 12.667 29 31 37 55c5.33301 16 9 34 11 54
c1.33301 19.333 2 41.666 2 66.999zM296.998 784.004l-104 -202l-45 22l77 215l72 -34v-1zM468.998 761.004v-1v0l-138 -177l-40 32l110 193l66 -48z" />
    <glyph glyph-name="OE" unicode="&#x152;" horiz-adv-x="742" 
d="M724 -5h-372.001c-30.667 0 -57 1.33301 -79 4c-22 2 -42.333 7 -61 15s-37.667 20 -57 36c-34.667 29.333 -60.667 69 -78 119c-17.333 50.667 -26 110.667 -26 180c0 61.333 6.33301 114 19 158s29.334 79 50.001 105c16 20 32.667 36.667 50 50s37.333 23.333 60 30
s50 10 82 10h400l-9 -70h-251v-230h209v-72h-209v-258h270v-72zM381.999 71l-0.00292969 -1.00293v0v556c-8 0.666992 -16.667 1.33398 -26 2.00098s-20 1 -32 1c-15.333 0 -29.666 -0.666992 -42.999 -2s-25.666 -4 -36.999 -8c-14.667 -5.33301 -28 -13 -40 -23
c-11.333 -10 -21.333 -23 -30 -39c-14.667 -26.667 -25.334 -56.667 -32.001 -90s-10 -68.666 -10 -105.999c0 -52 3.66699 -96.333 11 -133s21 -68.667 41 -96c10.667 -13.333 21.334 -24.666 32.001 -33.999c10.667 -8.66699 22.667 -15.667 36 -21
c6.66699 -2.66699 14 -4.66699 22 -6s16 -2 24 -2c12 0 25.333 0.333008 40 1c14.667 0 28.334 0.666992 41.001 2z" />
    <glyph glyph-name="oe" unicode="&#x153;" horiz-adv-x="736" 
d="M697 243h-277.999v-12c0 -26.667 1.66699 -49 5 -67s8.33301 -33 15 -45c12.667 -22 28.667 -38 48 -48s40.333 -15 63 -15c21.333 0 40.666 4 57.999 12c18 8 34.333 20 49 36l27 -51c-20 -20.667 -42.667 -36.334 -68 -47.001s-52.666 -16 -81.999 -16
c-33.333 0 -63.333 7.33301 -90 22s-46 34.667 -58 60c-20.667 -30 -43 -52.333 -67 -67s-52.667 -22 -86 -22c-60 0.666992 -106.667 25 -140 73s-50.333 114.667 -51 200c0.666992 84 17.667 149.333 51 196s79.333 70.334 138 71.001c36 -0.666992 66.333 -9 91 -25
c24 -16 43.333 -36.667 58 -62c18 30 39 52.333 63 67s51.333 22 82 22c24 0 46 -4.66699 66 -14s37.667 -23 53 -41c12 -14.667 22 -31 30 -49c7.33301 -18 12.666 -40.333 15.999 -67s5 -60 5 -100v-12zM343.001 230c0 36 -1.66797 66.666 -5.00098 91.999
s-8.33301 46.666 -15 63.999c-9.33301 22.667 -22.666 39.334 -39.999 50.001s-35.333 16 -54 16c-20 0 -38 -4.66699 -54 -14s-28 -22.666 -36 -39.999c-7.33301 -16 -12.666 -34.667 -15.999 -56c-4 -21.333 -6 -47 -6 -77c0 -36 2.66699 -68.667 8 -98s12 -52 20 -68
c8.66699 -16 21 -28.667 37 -38s33.667 -14 53 -14c23.333 0 43 6.66699 59 20c16.667 13.333 29 32.333 37 57c5.33301 16 8.66602 32.333 9.99902 49c2 17.333 3 38.333 3 63zM622 302.999l-0.000976562 -1v0v0c0 27.333 -1.66699 50.333 -5 69s-8.33301 34 -15 46
c-8 14 -19.333 25 -34 33s-30.667 12 -48 12c-32 0 -56.667 -13.333 -74 -40s-26.666 -66.667 -27.999 -120h204v1z" />
    <glyph glyph-name="Racute" unicode="&#x154;" horiz-adv-x="490" 
d="M470 -2h-88.002c-6 16 -16.333 37.667 -31 65c-14.667 28 -32.667 59.667 -54 95c-21.333 36 -45.666 74 -72.999 114c-11.333 17.333 -22.333 29.666 -33 36.999s-23.334 11 -38.001 11v-320h-72v702h142c41.333 0 74 -4 98 -12s43.333 -19 58 -33
c14.667 -12.667 28 -31 40 -55s18.667 -54.667 20 -92c-0.666992 -58.667 -15.667 -104.667 -45 -138s-68.666 -50.333 -117.999 -51h-9c14.667 -13.333 27 -27.666 37 -42.999c10.667 -15.333 19.334 -28.333 26.001 -39c12.667 -20 31 -50.667 55 -92l85 -147v-2z
M357.998 513c0 24 -5.33301 46.668 -16 68.001s-24.667 36.666 -42 45.999c-9.33301 4.66699 -20.333 8.33398 -33 11.001s-27 4 -43 4h-70v-270h80c17.333 0 32 1.33301 44 4c11.333 2.66699 21 6.66699 29 12s16 12 24 20c10 10.667 17.667 24.667 23 42
s8 37.666 8 60.999zM367.998 857.001v-1v0l-200 -100l-22 42l184 128l38 -70v1z" />
    <glyph glyph-name="racute" unicode="&#x155;" horiz-adv-x="300" 
d="M301 523l-31.001 -78.998c-2 1.33301 -5 2.66602 -9 3.99902c-4 0.666992 -8 1 -12 1c-10.667 0 -22.667 -2.66699 -36 -8s-25.333 -14 -36 -26c-9.33301 -10.667 -15.666 -21.334 -18.999 -32.001c-4 -11.333 -6 -26 -6 -44v-336h-70v394c0 17.333 -1.33301 36 -4 56
s-7 38 -13 54l70 18c5.33301 -12 9.33301 -23.333 12 -34s4 -22.667 4 -36v-8c17.333 28 36.666 48.333 57.999 61c21.333 12 44 18 68 18c2.66699 0 6.33398 -0.666992 11.001 -2l12 -4zM263.999 683.002v-1v0l-200 -100l-22 42l184 128l38 -70v1z" />
    <glyph glyph-name="Rcommaaccent" unicode="&#x156;" horiz-adv-x="490" 
d="M470 -2h-88.002c-6 16 -16.333 37.667 -31 65c-14.667 28 -32.667 59.667 -54 95c-21.333 36 -45.666 74 -72.999 114c-11.333 17.333 -22.333 29.666 -33 36.999s-23.334 11 -38.001 11v-320h-72v702h142c41.333 0 74 -4 98 -12s43.333 -19 58 -33
c14.667 -12.667 28 -31 40 -55s18.667 -54.667 20 -92c-0.666992 -58.667 -15.667 -104.667 -45 -138s-68.666 -50.333 -117.999 -51h-9c14.667 -13.333 27 -27.666 37 -42.999c10.667 -15.333 19.334 -28.333 26.001 -39c12.667 -20 31 -50.667 55 -92l85 -147v-2z
M357.998 513c0 24 -5.33301 46.668 -16 68.001s-24.667 36.666 -42 45.999c-9.33301 4.66699 -20.333 8.33398 -33 11.001s-27 4 -43 4h-70v-270h80c17.333 0 32 1.33301 44 4c11.333 2.66699 21 6.66699 29 12s16 12 24 20c10 10.667 17.667 24.667 23 42
s8 37.666 8 60.999zM317.998 -121.999l-0.000976562 -1.00098v0v0c0 -13.333 -2.66699 -26.666 -8 -39.999s-13 -26.333 -23 -39c-8 -10.667 -18 -20.667 -30 -30c-12.667 -9.33301 -25.667 -17.333 -39 -24l-24 34c16 6.66699 28.667 16 38 28s15.333 25.333 18 40
c-2.66699 -0.666992 -4.66699 -1 -6 -1h-4c-13.333 0 -24 4.66699 -32 14s-12 21 -12 35c0 16 5.33301 29.333 16 40s24.334 16 41.001 16c19.333 0 35 -6.66699 47 -20s18 -31.333 18 -54v2z" />
    <glyph glyph-name="rcommaaccent" unicode="&#x157;" horiz-adv-x="300" 
d="M301 523l-31.001 -78.998c-2 1.33301 -5 2.66602 -9 3.99902c-4 0.666992 -8 1 -12 1c-10.667 0 -22.667 -2.66699 -36 -8s-25.333 -14 -36 -26c-9.33301 -10.667 -15.666 -21.334 -18.999 -32.001c-4 -11.333 -6 -26 -6 -44v-336h-70v394c0 17.333 -1.33301 36 -4 56
s-7 38 -13 54l70 18c5.33301 -12 9.33301 -23.333 12 -34s4 -22.667 4 -36v-8c17.333 28 36.666 48.333 57.999 61c21.333 12 44 18 68 18c2.66699 0 6.33398 -0.666992 11.001 -2l12 -4zM180.999 -122.998l-0.000976562 -1.00098v0v0
c0 -13.333 -2.66699 -26.666 -8 -39.999s-13 -26.333 -23 -39c-8 -10.667 -18.333 -20.667 -31 -30c-12 -9.33301 -24.667 -17.333 -38 -24l-24 34c16 6.66699 28.667 16 38 28s15 25.333 17 40c-2 -0.666992 -3.66699 -1 -5 -1h-4c-13.333 0 -24 4.66699 -32 14
s-12 21 -12 35c0 16 5.33301 29.333 16 40s24.334 16 41.001 16c19.333 0 35 -6.66699 47 -20s18.333 -31.333 19 -54z" />
    <glyph glyph-name="Rcaron" unicode="&#x158;" horiz-adv-x="490" 
d="M470 -2h-88.002c-6 16 -16.333 37.667 -31 65c-14.667 28 -32.667 59.667 -54 95c-21.333 36 -45.666 74 -72.999 114c-11.333 17.333 -22.333 29.666 -33 36.999s-23.334 11 -38.001 11v-320h-72v702h142c41.333 0 74 -4 98 -12s43.333 -19 58 -33
c14.667 -12.667 28 -31 40 -55s18.667 -54.667 20 -92c-0.666992 -58.667 -15.667 -104.667 -45 -138s-68.666 -50.333 -117.999 -51h-9c14.667 -13.333 27 -27.666 37 -42.999c10.667 -15.333 19.334 -28.333 26.001 -39c12.667 -20 31 -50.667 55 -92l85 -147v-2z
M357.998 513c0 24 -5.33301 46.668 -16 68.001s-24.667 36.666 -42 45.999c-9.33301 4.66699 -20.333 8.33398 -33 11.001s-27 4 -43 4h-70v-270h80c17.333 0 32 1.33301 44 4c11.333 2.66699 21 6.66699 29 12s16 12 24 20c10 10.667 17.667 24.667 23 42
s8 37.666 8 60.999zM376.998 895.001v-1v0l-152 -132l-153 132l34 39l122 -85l118 83l31 -37v1z" />
    <glyph glyph-name="rcaron" unicode="&#x159;" horiz-adv-x="300" 
d="M301 523l-31.001 -78.998c-2 1.33301 -5 2.66602 -9 3.99902c-4 0.666992 -8 1 -12 1c-10.667 0 -22.667 -2.66699 -36 -8s-25.333 -14 -36 -26c-9.33301 -10.667 -15.666 -21.334 -18.999 -32.001c-4 -11.333 -6 -26 -6 -44v-336h-70v394c0 17.333 -1.33301 36 -4 56
s-7 38 -13 54l70 18c5.33301 -12 9.33301 -23.333 12 -34s4 -22.667 4 -36v-8c17.333 28 36.666 48.333 57.999 61c21.333 12 44 18 68 18c2.66699 0 6.33398 -0.666992 11.001 -2l12 -4zM302.999 711.002v-1v0l-152 -132l-152 132l34 39l122 -85l118 83l30 -37v1z" />
    <glyph glyph-name="Sacute" unicode="&#x15a;" horiz-adv-x="510" 
d="M455 187c-0.666992 -42 -10.998 -77.6699 -30.998 -107.003s-46.667 -52 -80 -68s-70.666 -24 -111.999 -24c-36 0 -70 5.33301 -102 16s-63 26.667 -93 48l36 60c25.333 -21.333 50.666 -36.666 75.999 -45.999s53.333 -14 84 -14c41.333 0 75 10 101 30
c26.667 20 40.334 50.333 41.001 91c0.666992 30.667 -6.33301 56.334 -21 77.001c-14 20.667 -38.333 39.667 -73 57l-75 38c-24 12 -47.333 26 -70 42c-22.667 15.333 -41.334 34.666 -56.001 57.999c-14.667 22.667 -22.334 51.334 -23.001 86.001c0 34.667 8 66 24 94
s38.667 50.333 68 67c29.333 17.333 64 26 104 26c33.333 0 65.333 -5.66699 96 -17s60.667 -28.333 90 -51l-36 -54c-18.667 14.667 -35.667 26.334 -51 35.001c-15.333 8 -30.333 14 -45 18s-30.667 6 -48 6c-38.667 -0.666992 -68.667 -10.667 -90 -30s-32 -45 -32 -77
c0 -22 2.66699 -40.333 8 -55s15.333 -28 30 -40c14 -12 34 -24.333 60 -37l80 -41c29.333 -14.667 54.666 -30.667 75.999 -48s38 -37.333 50 -60s18 -50 18 -82zM380.002 856.997v-1v0l-200 -100l-22 42l184 128l38 -70v1z" />
    <glyph glyph-name="sacute" unicode="&#x15b;" horiz-adv-x="418" 
d="M371 151c-0.666992 -50.667 -16.333 -90.333 -47 -119c-30.667 -28 -71.334 -42.333 -122.001 -43c-28 0 -56.333 4.66699 -85 14c-28 9.33301 -53.333 22 -76 38l29 53c22.667 -16 45.334 -28 68.001 -36s46.334 -12 71.001 -12c27.333 0 49 8.66699 65 26s24 40 24 68
c-0.666992 22.667 -8.66699 40.667 -24 54c-16 13.333 -34.667 23.666 -56 30.999l-40 14c-34.667 12 -63.334 29.333 -86.001 52c-22.667 22 -34.334 50.333 -35.001 85c0.666992 46.667 15.334 84 44.001 112c28.667 28.667 66.334 43.334 113.001 44.001
c23.333 0 47 -3.66699 71 -11s45.667 -17 65 -29l-28 -54c-18.667 10.667 -36.667 19.334 -54 26.001s-35.333 10 -54 10c-26 -0.666992 -46.333 -9 -61 -25s-22 -35 -22 -57c0 -22.667 6 -41.334 18 -56.001c11.333 -14.667 30.333 -26.667 57 -36l41 -14
c21.333 -7.33301 41.666 -17 60.999 -29c18.667 -12 34 -27 46 -45c12 -18.667 18 -40.667 18 -66zM331.001 683.001v-1v0l-200 -100l-22 42l184 128l38 -70v1z" />
    <glyph glyph-name="Scircumflex" unicode="&#x15c;" horiz-adv-x="510" 
d="M455 187c-0.666992 -42 -10.998 -77.6699 -30.998 -107.003s-46.667 -52 -80 -68s-70.666 -24 -111.999 -24c-36 0 -70 5.33301 -102 16s-63 26.667 -93 48l36 60c25.333 -21.333 50.666 -36.666 75.999 -45.999s53.333 -14 84 -14c41.333 0 75 10 101 30
c26.667 20 40.334 50.333 41.001 91c0.666992 30.667 -6.33301 56.334 -21 77.001c-14 20.667 -38.333 39.667 -73 57l-75 38c-24 12 -47.333 26 -70 42c-22.667 15.333 -41.334 34.666 -56.001 57.999c-14.667 22.667 -22.334 51.334 -23.001 86.001c0 34.667 8 66 24 94
s38.667 50.333 68 67c29.333 17.333 64 26 104 26c33.333 0 65.333 -5.66699 96 -17s60.667 -28.333 90 -51l-36 -54c-18.667 14.667 -35.667 26.334 -51 35.001c-15.333 8 -30.333 14 -45 18s-30.667 6 -48 6c-38.667 -0.666992 -68.667 -10.667 -90 -30s-32 -45 -32 -77
c0 -22 2.66699 -40.333 8 -55s15.333 -28 30 -40c14 -12 34 -24.333 60 -37l80 -41c29.333 -14.667 54.666 -30.667 75.999 -48s38 -37.333 50 -60s18 -50 18 -82zM411.002 794.997v-1v0l-34 -37l-121 84l-118 -84l-30 37l152 138l152 -138z" />
    <glyph glyph-name="scircumflex" unicode="&#x15d;" horiz-adv-x="418" 
d="M371 151c-0.666992 -50.667 -16.333 -90.333 -47 -119c-30.667 -28 -71.334 -42.333 -122.001 -43c-28 0 -56.333 4.66699 -85 14c-28 9.33301 -53.333 22 -76 38l29 53c22.667 -16 45.334 -28 68.001 -36s46.334 -12 71.001 -12c27.333 0 49 8.66699 65 26s24 40 24 68
c-0.666992 22.667 -8.66699 40.667 -24 54c-16 13.333 -34.667 23.666 -56 30.999l-40 14c-34.667 12 -63.334 29.333 -86.001 52c-22.667 22 -34.334 50.333 -35.001 85c0.666992 46.667 15.334 84 44.001 112c28.667 28.667 66.334 43.334 113.001 44.001
c23.333 0 47 -3.66699 71 -11s45.667 -17 65 -29l-28 -54c-18.667 10.667 -36.667 19.334 -54 26.001s-35.333 10 -54 10c-26 -0.666992 -46.333 -9 -61 -25s-22 -35 -22 -57c0 -22.667 6 -41.334 18 -56.001c11.333 -14.667 30.333 -26.667 57 -36l41 -14
c21.333 -7.33301 41.666 -17 60.999 -29c18.667 -12 34 -27 46 -45c12 -18.667 18 -40.667 18 -66zM367.001 621.001v-1v0l-34 -37l-121 84l-118 -84l-30 37l152 138l152 -138z" />
    <glyph glyph-name="Scedilla" unicode="&#x15e;" horiz-adv-x="510" 
d="M460 185l0.00292969 -1.00098v0v0c0 -37.333 -8 -70 -24 -98s-38 -50.333 -66 -67s-59.667 -27.334 -95 -32.001l-7 -32c22.667 -4 38.667 -12 48 -24s14 -28 14 -48c0 -22.667 -8 -42.334 -24 -59.001c-16 -16 -39.333 -24.667 -70 -26
c-13.333 0 -26.666 2.66699 -39.999 8s-24.666 11 -33.999 17l18 46c11.333 -6 20.666 -10.333 27.999 -13c8 -2.66699 16.667 -4 26 -4s17.666 2.66699 24.999 8s11 14 11 26c0 10.667 -4 18.667 -12 24s-16.667 8 -26 8h-14c-4 0 -7.33301 -0.333008 -10 -1l-8 10l16 62
c-32.667 1.33301 -63.667 7.33301 -93 18c-29.333 10 -58 25 -86 45l36 60c25.333 -21.333 50.666 -36.666 75.999 -45.999s53.333 -14 84 -14c41.333 0 75 10 101 30c26.667 20 40.334 50.333 41.001 91c0.666992 30.667 -6.33301 56.334 -21 77.001
c-14 20.667 -38.333 39.667 -73 57l-75 38c-24 12 -47.333 26 -70 42c-22.667 15.333 -41.334 34.666 -56.001 57.999c-14.667 22.667 -22.334 51.334 -23.001 86.001c0 34.667 8 66 24 94s38.667 50.333 68 67c29.333 17.333 64 26 104 26c33.333 0 65.333 -5.66699 96 -17
s60.667 -28.333 90 -51l-36 -54c-18.667 14.667 -35.667 26.334 -51 35.001c-15.333 8 -30.333 14 -45 18s-30.667 6 -48 6c-38.667 -0.666992 -68.667 -10.667 -90 -30s-32 -45 -32 -77c0 -22 2.66699 -40.333 8 -55s15.333 -28 30 -40c14 -12 34 -24.333 60 -37l80 -41
c29.333 -14.667 54.666 -30.667 75.999 -48s38 -37.333 50 -60s18 -50 18 -82h1z" />
    <glyph glyph-name="scedilla" unicode="&#x15f;" horiz-adv-x="418" 
d="M375 151l-0.00195312 -1v0v0c-0.666992 -45.333 -13.667 -82 -39 -110s-59 -45 -101 -51l-7 -30c22.667 -4 38.667 -12 48 -24s14 -28 14 -48c0 -22.667 -7.66699 -42.334 -23 -59.001c-16 -16 -39.333 -24.667 -70 -26c-13.333 0 -26.666 2.66699 -39.999 8
c-12.667 5.33301 -23.667 11 -33 17l18 46c11.333 -6 21 -10.333 29 -13s16.667 -4 26 -4s17.666 2.66699 24.999 8s11 14 11 26c-0.666992 10.667 -5 18.667 -13 24s-16.667 8 -26 8h-14c-4 0 -7 -0.333008 -9 -1l-8 10l14 60c-24 2.66699 -48 8.33398 -72 17.001
c-23.333 8.66699 -44.666 19.667 -63.999 33l29 53c22.667 -16 45.334 -28 68.001 -36s46.334 -12 71.001 -12c27.333 0 49 8.66699 65 26s24 40 24 68c-0.666992 22.667 -8.66699 40.667 -24 54c-16 13.333 -34.667 23.666 -56 30.999l-40 14
c-34.667 12 -63.334 29.333 -86.001 52c-22.667 22 -34.334 50.333 -35.001 85c0.666992 46.667 15.334 84 44.001 112c28.667 28.667 66.334 43.334 113.001 44.001c23.333 0 47 -3.66699 71 -11s45.667 -17 65 -29l-28 -54c-18.667 10.667 -36.667 19.334 -54 26.001
s-35.333 10 -54 10c-26 -0.666992 -46.333 -9 -61 -25s-22 -35 -22 -57c0 -22.667 6 -41.334 18 -56.001c11.333 -14.667 30.333 -26.667 57 -36l41 -14c21.333 -7.33301 41.666 -17 60.999 -29c18.667 -12 34 -27 46 -45c12 -18.667 18 -40.667 18 -66z" />
    <glyph glyph-name="Scaron" unicode="&#x160;" horiz-adv-x="510" 
d="M455 187c-0.666992 -42 -10.998 -77.6699 -30.998 -107.003s-46.667 -52 -80 -68s-70.666 -24 -111.999 -24c-36 0 -70 5.33301 -102 16s-63 26.667 -93 48l36 60c25.333 -21.333 50.666 -36.666 75.999 -45.999s53.333 -14 84 -14c41.333 0 75 10 101 30
c26.667 20 40.334 50.333 41.001 91c0.666992 30.667 -6.33301 56.334 -21 77.001c-14 20.667 -38.333 39.667 -73 57l-75 38c-24 12 -47.333 26 -70 42c-22.667 15.333 -41.334 34.666 -56.001 57.999c-14.667 22.667 -22.334 51.334 -23.001 86.001c0 34.667 8 66 24 94
s38.667 50.333 68 67c29.333 17.333 64 26 104 26c33.333 0 65.333 -5.66699 96 -17s60.667 -28.333 90 -51l-36 -54c-18.667 14.667 -35.667 26.334 -51 35.001c-15.333 8 -30.333 14 -45 18s-30.667 6 -48 6c-38.667 -0.666992 -68.667 -10.667 -90 -30s-32 -45 -32 -77
c0 -22 2.66699 -40.333 8 -55s15.333 -28 30 -40c14 -12 34 -24.333 60 -37l80 -41c29.333 -14.667 54.666 -30.667 75.999 -48s38 -37.333 50 -60s18 -50 18 -82zM406.002 894.997v-1v0l-152 -132l-152 132l34 39l122 -85l118 83l30 -37v1z" />
    <glyph glyph-name="scaron" unicode="&#x161;" horiz-adv-x="418" 
d="M371 151c-0.666992 -50.667 -16.333 -90.333 -47 -119c-30.667 -28 -71.334 -42.333 -122.001 -43c-28 0 -56.333 4.66699 -85 14c-28 9.33301 -53.333 22 -76 38l29 53c22.667 -16 45.334 -28 68.001 -36s46.334 -12 71.001 -12c27.333 0 49 8.66699 65 26s24 40 24 68
c-0.666992 22.667 -8.66699 40.667 -24 54c-16 13.333 -34.667 23.666 -56 30.999l-40 14c-34.667 12 -63.334 29.333 -86.001 52c-22.667 22 -34.334 50.333 -35.001 85c0.666992 46.667 15.334 84 44.001 112c28.667 28.667 66.334 43.334 113.001 44.001
c23.333 0 47 -3.66699 71 -11s45.667 -17 65 -29l-28 -54c-18.667 10.667 -36.667 19.334 -54 26.001s-35.333 10 -54 10c-26 -0.666992 -46.333 -9 -61 -25s-22 -35 -22 -57c0 -22.667 6 -41.334 18 -56.001c11.333 -14.667 30.333 -26.667 57 -36l41 -14
c21.333 -7.33301 41.666 -17 60.999 -29c18.667 -12 34 -27 46 -45c12 -18.667 18 -40.667 18 -66zM362.001 711.001v-1v0l-152 -132l-152 132l34 39l122 -85l118 83l30 -37v1z" />
    </font>
</defs>
</svg>
