<?xml version="1.0" standalone="no"?>
<!DOCTYPE svg PUBLIC "-//W3C//DTD SVG 1.1//EN" "http://www.w3.org/Graphics/SVG/1.1/DTD/svg11.dtd" >
<svg>
<metadata>
Created by FontForge 20090914 at Mon Jun 24 02:05:14 2013
 By www-data
</metadata>
<defs>
<font id="MetaPro-CondBold-Regular" horiz-adv-x="0" >
  <font-face 
    font-family="MetaPro-CondBold"
    font-weight="400"
    font-stretch="normal"
    units-per-em="1024"
    panose-1="2 11 6 0 5 3 2 2 2 4"
    ascent="819"
    descent="-205"
    x-height="520"
    cap-height="708"
    bbox="-202.999 -254.003 1075 1142"
    underline-thickness="0"
    underline-position="-355"
    unicode-range="U+0020-U+2183"
  />
<missing-glyph horiz-adv-x="512" 
 />
    <glyph glyph-name=".notdef" horiz-adv-x="512" 
 />
    <glyph glyph-name="space" unicode=" " horiz-adv-x="210" 
d="M0 1v-1v1z" />
    <glyph glyph-name="exclam" unicode="!" horiz-adv-x="274" 
d="M179 207h-86l-27 498l138 20zM213 67v-1v0v0c-0.666992 -22 -8.33398 -40.333 -23.001 -55s-32.667 -22.334 -54 -23.001c-21.333 0.666992 -39.333 8.33398 -54 23.001s-22.334 33 -23.001 55c0.666992 21.333 8.33398 39.333 23.001 54s32.667 22.334 54 23.001
c21.333 -0.666992 39.333 -8.33398 54 -23.001s22.334 -32.667 23.001 -54v1z" />
    <glyph glyph-name="quotedbl" unicode="&#x22;" horiz-adv-x="411" 
d="M59 442v284h110v-284h-110zM351 443v-1v0h-108v284h108v-284v1z" />
    <glyph glyph-name="numbersign" unicode="#" horiz-adv-x="499" 
d="M472 430h-86l-16 -133h77v-87h-86l-26 -210h-83l24 210h-90l-24 -210h-85l24 210h-76v87h87l16 133h-77v86h87l25 203h84l-24 -203h90l24 203h84l-24 -203h76v-86h-1zM302 431v-1v0h-90l-16 -133h90l16 133v1z" />
    <glyph glyph-name="dollar" unicode="$" horiz-adv-x="534" 
d="M477 208l0.000976562 -1v0v0c0 -40 -7.33301 -74.667 -22 -104s-35.334 -53.333 -62.001 -72s-57.334 -31.334 -92.001 -38.001v-90h-66v85c-40 0.666992 -77.333 6.66699 -112 18c-34.667 10.667 -66.667 26.334 -96 47.001l54 96c23.333 -18.667 48.333 -33 75 -43
c26.667 -10.667 55.334 -16 86.001 -16c29.333 0 54 8.33301 74 25c20 16 30.333 40 31 72c0 22.667 -5.33301 41.334 -16 56.001c-10.667 15.333 -26.667 28 -48 38l-102 49c-20 10 -38.667 23 -56 39s-31.333 35.667 -42 59c-10.667 24 -16 52.667 -16 86
c0.666992 54.667 16 100.334 46 137.001c30 36 71.667 58.333 125 67v96h66v-94c32.667 -2.66699 63.667 -9.66699 93 -21c29.333 -10.667 56.333 -25 81 -43l-56 -88c-24 17.333 -46.667 30.333 -68 39c-21.333 9.33301 -44 14 -68 14c-26.667 0 -47.667 -7.33301 -63 -22
s-23 -35 -23 -61c0 -20 4 -37 12 -51c8 -14.667 20.667 -26.334 38 -35.001l120 -58c34.667 -16 62 -39.333 82 -70s30 -69.334 30 -116.001h-5z" />
    <glyph glyph-name="percent" unicode="%" horiz-adv-x="726" 
d="M700 163c0 -54 -13 -97 -39 -129s-63.667 -48.333 -113 -49c-48 0 -84.667 15 -110 45s-38 73.667 -38 131c0 54.667 13.333 98 40 130s63.334 48.333 110.001 49c49.333 0 86.666 -15.333 111.999 -46s38 -74 38 -130v-1zM328 541c0 -54 -13.0029 -97 -39.0029 -129
c-25.333 -32 -62.666 -48.333 -111.999 -49c-48 0 -85 15 -111 45s-39 73.667 -39 131c0.666992 54.667 14.334 98 41.001 130s63.334 48.333 110.001 49c48.667 0 86 -15.333 112 -46c25.333 -30.667 38 -74 38 -130v-1zM238.997 0h-94l342 706h94zM605.997 164
c0 21.333 -1.33301 40.3311 -4 56.998c-2.66699 16 -8 28.667 -16 38s-20.667 14 -38 14c-22 0 -37 -8.66699 -45 -26s-12 -43.333 -12 -78c0 -37.333 4 -64.666 12 -81.999s23.333 -26 46 -26c20 0 34.333 8 43 24c9.33301 16.667 14 42.334 14 77.001v2zM237.997 540.998
v-1.00195v0v0c0 21.333 -1.33301 40 -4 56c-2 16 -7 28.667 -15 38s-20.667 14 -38 14c-22.667 0 -38 -8.33301 -46 -25c-8 -17.333 -12 -43.333 -12 -78c-0.666992 -37.333 3 -64.666 11 -81.999s23.333 -26 46 -26c20 0 34 8 42 24c8 16.667 12 42.334 12 77.001z" />
    <glyph glyph-name="ampersand" unicode="&#x26;" horiz-adv-x="627" 
d="M621 -4l-152.001 0.00195312l-44 50c-21.333 -20 -47.333 -35.667 -78 -47c-30.667 -10.667 -63.334 -16 -98.001 -16c-41.333 0 -77.333 7.33301 -108 22s-54.667 36 -72 64s-26 62.333 -26 103s10 76.334 30 107.001s49.333 56 88 76c-4 2.66699 -10 7.66699 -18 15
s-13.333 13.333 -16 18c-16 16.667 -28 35.334 -36 56.001c-7.33301 21.333 -11 42.666 -11 63.999c0 33.333 7.66699 62.666 23 87.999c16 25.333 37.333 45.333 64 60s57.334 22 92.001 22c35.333 0 66.333 -6.66699 93 -20s47.667 -32 63 -56s23 -52 23 -84
c0 -25.333 -4.33301 -47.333 -13 -66c-8 -19.333 -21.333 -37.333 -40 -54c-18 -16 -41.333 -32.667 -70 -50l116 -130c6.66699 16 12.334 35.333 17.001 58s8 45 10 67l96 -18c-4 -42.667 -11.333 -79.334 -22 -110.001s-22 -56.334 -34 -77.001l120 -138zM357.999 124.002
l-142 161.999c-17.333 -12 -30.333 -26.667 -39 -44s-13 -36.666 -13 -57.999c0 -19.333 4 -37 12 -53s19.333 -28.667 34 -38s33 -14 55 -14c20 0 38 4.33301 54 13s29 19 39 31v1zM317.999 521.001v-1.00195v0v0c0 22.667 -4.66699 41.334 -14 56.001
s-24.333 22.334 -45 23.001c-20.667 0 -36.334 -7 -47.001 -21c-10 -13.333 -15 -31.333 -15 -54c0 -14 2.66699 -27 8 -39s13.333 -24 24 -36l26 -30c20.667 12 36.334 26.667 47.001 44s16 36.333 16 57v1z" />
    <glyph glyph-name="quotesingle" unicode="'" horiz-adv-x="227" 
d="M168 443v-1v0h-108v284h108v-284v1z" />
    <glyph glyph-name="parenleft" unicode="(" horiz-adv-x="275" 
d="M292 -97v-1.00195v0l-28 -72c-46 18.667 -84.667 46 -116 82s-55.333 77.333 -72 124c-11.333 30.667 -19.666 62.667 -24.999 96c-5.33301 34 -9 67 -11 99s-3 61 -3 87c0 81.333 7.33301 152.666 22 213.999c15.333 61.333 39.666 114.333 72.999 159
c17.333 22.667 37 43.334 59 62.001s46.333 34.667 73 48l30 -75c-15.333 -11.333 -30.333 -24.333 -45 -39s-28 -32.667 -40 -54s-22 -47.333 -30 -78c-7.33301 -28 -13 -60.667 -17 -98s-6 -78.333 -6 -123c0 -72 3.33301 -134.667 10 -188s18 -98 34 -134
c12 -25.333 25.667 -46.666 41 -63.999c16 -17.333 34.333 -32.666 55 -45.999z" />
    <glyph glyph-name="parenright" unicode=")" horiz-adv-x="275" 
d="M236 323l0.000976562 -1.00195v0v0c0 -88 -7.33301 -162.667 -22 -224s-38 -113.333 -70 -156c-17.333 -22.667 -37.333 -43.667 -60 -63s-47.334 -35.666 -74.001 -48.999l-30 75c32 24 58 50.667 78 80s34.667 63.666 44 102.999
c6.66699 30.667 11.334 65.667 14.001 105c2.66699 38.667 4 81.334 4 128.001c0 62.667 -3.33301 119.667 -10 171c-7.33301 51.333 -20 95.333 -38 132c-10.667 21.333 -23.334 40.333 -38.001 57s-32.667 31.334 -54 44.001l30 74c37.333 -16 72.333 -39.667 105 -71
s59.667 -74 81 -128c13.333 -36 23.333 -78 30 -126s10 -98.667 10 -152v1z" />
    <glyph glyph-name="asterisk" unicode="*" horiz-adv-x="421" 
d="M398 531v-1v0l-117 -41l75 -110l-72 -52l-76 112l-74 -108l-70 54l77 106l-120 44l32 88l114 -43v131h87v-131l114 40l30 -88v-1z" />
    <glyph glyph-name="plus" unicode="+" horiz-adv-x="560" 
d="M520 252v-1v0h-181v-208h-118v208h-181v110h181v206h118v-206h181v-110v1z" />
    <glyph glyph-name="comma" unicode="," horiz-adv-x="271" 
d="M220 37v-1v0v0c0 -21.333 -3.33301 -41.333 -10 -60s-16 -36 -28 -52c-9.33301 -13.333 -22.333 -26.333 -39 -39c-16.667 -12 -35 -21.333 -55 -28l-48 54c20 6.66699 36 16 48 28c12 11.333 18 24.333 18 39c0 5.33301 -2 9.33301 -6 12s-9.66699 6 -17 10
c-12 6.66699 -21.333 15.667 -28 27s-10 25 -10 41c0.666992 24 8.33398 43.667 23.001 59c15.333 15.333 34.333 23.333 57 24c29.333 0 52.666 -10.333 69.999 -31c17.333 -20 26 -47.333 26 -82z" />
    <glyph glyph-name="hyphen" unicode="-" horiz-adv-x="301" 
d="M255 227v-1v0h-209v106h209v-106v1z" />
    <glyph glyph-name="period" unicode="." horiz-adv-x="263" 
d="M213 69v-1v0v0c-0.666992 -24 -9 -44 -25 -60s-35.333 -24.333 -58 -25c-22.667 0.666992 -41.667 9 -57 25s-23.333 36 -24 60c0.666992 22.667 8.66699 42 24 58c15.333 15.333 34.333 23.333 57 24c22.667 -0.666992 42 -8.66699 58 -24c16 -16 24.333 -35.333 25 -58
v1z" />
    <glyph glyph-name="slash" unicode="/" horiz-adv-x="386" 
d="M356 783v-1v0l-240 -938h-85l238 938h87v1z" />
    <glyph glyph-name="zero" unicode="0" horiz-adv-x="501" 
d="M468 251c0 -73.333 -17.334 -133.999 -52.001 -181.999c-40 -55.333 -95 -83 -165 -83c-70.667 0 -125.667 27.667 -165 83c-35.333 48.667 -53 109.667 -53 183v233c0 73.333 17.667 134.666 53 183.999c39.333 55.333 94.333 83 165 83
c68.667 0 123.334 -27.667 164.001 -83c35.333 -49.333 53 -110 53 -182v-236zM345.999 253.001l0.000976562 231.999c0 38 -6.66699 70.333 -20 97c-16.667 33.333 -42 50 -76 50c-34.667 0 -60.334 -16.667 -77.001 -50c-12.667 -25.333 -19 -57.666 -19 -96.999v-247
c0 -34 7.33301 -63 22 -87c18 -30.667 42.667 -46 74 -46c64 0 96 49.333 96 148z" />
    <glyph glyph-name="one" unicode="1" horiz-adv-x="501" 
d="M397 0h-300v118h89v511h-71v108h195v-619h87v-118z" />
    <glyph glyph-name="two" unicode="2" horiz-adv-x="501" 
d="M459 0h-413v115l176 188c74.667 84.667 112 157 112 217c0 30.667 -6 56 -18 76c-14 24.667 -35.333 37 -64 37c-60 0 -90 -45.667 -90 -137h-116c0 170.667 69.667 256 209 256c62.667 0 112.334 -22.667 149.001 -68c34 -41.333 51 -94.333 51 -159
c0 -103.333 -57.667 -211 -173 -323c-28.667 -27.333 -55.334 -55 -80.001 -83h257v-119z" />
    <glyph glyph-name="three" unicode="3" horiz-adv-x="501" 
d="M462 246c0 -75.333 -17.001 -136.333 -51.001 -183c-38.667 -52 -94 -78 -166 -78c-69.333 0 -122.666 23.333 -159.999 70c-34.667 43.333 -52 100 -52 170h120c0 -32.667 6.33301 -60 19 -82c16 -27.333 39.333 -41 70 -41c34 0 59.667 14.333 77 43
c14.667 23.333 22 53 22 89c0 100 -35.667 150 -107 150c-2.66699 0 -13 -2.33301 -31 -7c-22 -5.33301 -34 -8.33301 -36 -9l-43 76l152 174h-208v119h361v-116l-126 -134c59.333 -17.333 101.333 -47 126 -89c22 -36 33 -86.667 33 -152z" />
    <glyph glyph-name="four" unicode="4" horiz-adv-x="501" 
d="M475 133h-63v-133h-114v133h-273v104l267 500h120v-500h63v-104zM298 237v298l-154 -298h154z" />
    <glyph glyph-name="five" unicode="5" horiz-adv-x="501" 
d="M473 249c0 -72 -19.668 -133.002 -59.001 -183.002c-42.667 -54 -99 -81 -169 -81c-65.333 0 -117.666 19.333 -156.999 58s-59 90.334 -59 155.001h121c0 -28 8.83301 -51.167 26.5 -69.5s40.5 -27.5 68.5 -27.5s52.667 10.5 74 31.5s32 58.833 32 113.5
c0 38 -8 69.667 -24 95c-19.333 30 -47 45 -83 45c-42 0 -72 -22.667 -90 -68l-102 30l51 389h322v-116h-225l-27 -158c27.333 23.333 59.333 35 96 35c67.333 0 119.333 -25.667 156 -77c32 -45.333 48 -102.666 48 -171.999z" />
    <glyph glyph-name="six" unicode="6" horiz-adv-x="501" 
d="M475 250c0 -72 -19.001 -133.001 -57.001 -183.001c-42.667 -54.667 -98.667 -82 -168 -82c-74.667 0 -131.667 26.667 -171 80c-36 47.333 -54 109.333 -54 186c0 54 27.667 136.333 83 247l130 239h136l-150 -259c24.667 9.33301 44.334 14 59.001 14
c64.667 0 114 -25.333 148 -76c29.333 -43.333 44 -98.666 44 -165.999zM354.999 246.999c0 94 -35.667 141 -107 141c-30.667 0 -56.667 -15.667 -78 -47c-18.667 -28.667 -28 -59 -28 -91c0 -56 10.833 -95.167 32.5 -117.5s46.167 -33.5 73.5 -33.5
c38 0 66.333 15.667 85 47c14.667 26 22 59.667 22 101z" />
    <glyph glyph-name="seven" unicode="7" horiz-adv-x="501" 
d="M438 618l-217 -618h-132l232 622h-253v115h370v-119z" />
    <glyph glyph-name="eight" unicode="8" horiz-adv-x="501" 
d="M456 218c0 -68 -17.333 -123.33 -52 -165.997c-36.667 -44.667 -88.334 -67 -155.001 -67c-64.667 0 -116 22.333 -154 67c-34.667 42.667 -52 97 -52 163c0 87.333 34 151.666 102 192.999c-47.333 43.333 -71 92.333 -71 147c0 57.333 14.667 103.666 44 138.999
c30.667 38.667 74.334 58 131.001 58c56 0 99.667 -18.333 131 -55s47 -83.334 47 -140.001s-25 -106.667 -75 -150c69.333 -39.333 104 -102.333 104 -189zM317 549.003c0 62 -21.667 93 -65 93c-46 0 -69 -31 -69 -93c0 -23.333 5.33301 -44.333 16 -63
c12.667 -22 29.667 -33 51 -33c20.667 0 37.667 11 51 33c10.667 19.333 16 40.333 16 63zM337 224.003c0 30 -7 56.665 -21 79.998c-16 28 -38 42 -66 42c-27.333 0 -49.333 -14 -66 -42c-14 -23.333 -21 -49.666 -21 -78.999c0 -42.667 8.83301 -74 26.5 -94
s37.834 -30 60.501 -30c23.333 0 43.666 9.83301 60.999 29.5s26 50.834 26 93.501z" />
    <glyph glyph-name="nine" unicode="9" horiz-adv-x="501" 
d="M476 486c0 -30.667 -6.33203 -64.666 -18.999 -101.999c-18.667 -54 -48.334 -119 -89.001 -195l-105 -189h-136l149 259c-24 -8.66699 -43.333 -13 -58 -13c-64.667 0 -114 25 -148 75c-29.333 43.333 -44 98.666 -44 165.999c0 72 19 133.333 57 184
c42 54.667 98 82 168 82c73.333 0 130.333 -26.667 171 -80c36 -48 54 -110.333 54 -187zM358.001 487.001c0 56.667 -10.5 96 -31.5 118s-45.5 33 -73.5 33c-38 0 -66.333 -15.667 -85 -47c-15.333 -26 -23 -59.667 -23 -101c0 -94 36 -141 108 -141
c30.667 0 56.667 15.667 78 47c18 28.667 27 59 27 91z" />
    <glyph glyph-name="colon" unicode=":" horiz-adv-x="274" 
d="M219 68c-0.666992 -24 -8.66895 -44 -24.002 -60c-15.333 -15.333 -34.666 -23.333 -57.999 -24c-22.667 0.666992 -41.667 8.66699 -57 24c-14.667 16 -22 36 -22 60c0 22.667 7.66699 42 23 58c14.667 15.333 33.334 23.333 56.001 24
c22.667 -0.666992 41.667 -8.66699 57 -24c15.333 -16 23.333 -35.333 24 -58h1zM219.998 375l-0.000976562 -1v0v0c-0.666992 -24 -9 -43.667 -25 -59c-16 -16 -35.333 -24.333 -58 -25c-22.667 0.666992 -41.667 8.66699 -57 24c-14.667 14.667 -22 34 -22 58
c0 23.333 7.66699 43 23 59c14.667 16 33.334 24.333 56.001 25c22.667 -0.666992 41.667 -8.66699 57 -24c15.333 -16 23.333 -35.333 24 -58z" />
    <glyph glyph-name="semicolon" unicode=";" horiz-adv-x="289" 
d="M233 37c0 -21.333 -3.33496 -41.334 -10.002 -60.001s-15.667 -36 -27 -52c-9.33301 -12.667 -22 -25 -38 -37s-33.667 -21.333 -53 -28l-47 54c20 6.66699 36 15.667 48 27c11.333 12 17 25 17 39c0 5.33301 -2 9.33301 -6 12s-9.33301 6 -16 10
c-12 6.66699 -21.333 15.334 -28 26.001s-10 23.667 -10 39c0.666992 24 8.33398 43.667 23.001 59s33.334 23 56.001 23c28 0 50 -10 66 -30s24 -47.333 24 -82h1zM223.998 376.999l-0.00195312 -1v0v0c-0.666992 -23.333 -8.66699 -43 -24 -59s-34.333 -24.333 -57 -25
c-22.667 0.666992 -41.667 8.66699 -57 24c-15.333 16 -23.333 36 -24 60c0.666992 22.667 8.33398 41.667 23.001 57s33.334 23.333 56.001 24c22.667 -0.666992 42 -8.66699 58 -24s24.333 -34.333 25 -57v1z" />
    <glyph glyph-name="less" unicode="&#x3c;" horiz-adv-x="390" 
d="M349 85v-1v0l-94 -70l-224 292l224 294l94 -72l-168 -222l168 -222v1z" />
    <glyph glyph-name="equal" unicode="=" horiz-adv-x="552" 
d="M40 350v116h472v-116h-472zM512 155v-1v0h-472v116h472v-116v1z" />
    <glyph glyph-name="greater" unicode="&#x3e;" horiz-adv-x="391" 
d="M360 307v-1v0l-224 -292l-94 70l168 222l-168 222l94 72l224 -294v1z" />
    <glyph glyph-name="question" unicode="?" horiz-adv-x="427" 
d="M375 559c-0.666992 -29.333 -5.66602 -54.666 -14.999 -75.999s-20.666 -39 -33.999 -53s-25.666 -25 -36.999 -33c-24 -18 -40.667 -37.667 -50 -59s-13.666 -45.333 -12.999 -72v-24c0.666992 -8 1.66699 -16 3 -24h-98c-2 11.333 -3.66699 22.333 -5 33
s-2 20.667 -2 30c0 34.667 6 65.334 18 92.001c11.333 26.667 28.333 50 51 70c13.333 11.333 24.666 21.666 33.999 30.999s16.666 19.333 21.999 30s8 24 8 40c0 22 -6.33301 39 -19 51s-29.334 18 -50.001 18c-21.333 -0.666992 -40.666 -5.66699 -57.999 -15
s-32 -19.666 -44 -30.999l-51 83c22 21.333 47.667 38.666 77 51.999s61.666 20 96.999 20c31.333 0 59.666 -6.66699 84.999 -20s45.333 -32 60 -56c14.667 -24.667 22 -54.334 22 -89.001zM266.001 69v-1v0v0c-0.666992 -22.667 -8.33398 -41.334 -23.001 -56.001
s-32.667 -22.334 -54 -23.001c-21.333 0.666992 -39.333 8.33398 -54 23.001s-22.334 33.334 -23.001 56.001c0.666992 22 8.33398 40.333 23.001 55s32.667 22.334 54 23.001c21.333 -0.666992 39.333 -8.33398 54 -23.001s22.334 -33 23.001 -55v1z" />
    <glyph glyph-name="at" unicode="@" horiz-adv-x="892" 
d="M846 283c0 -60 -9.33008 -112.663 -27.9971 -157.996s-44.334 -80.666 -77.001 -105.999s-70.334 -38 -113.001 -38c-29.333 0 -52.666 4.66699 -69.999 14s-29.333 21.333 -36 36s-10 30 -10 46c-17.333 -23.333 -38 -43 -62 -59s-50.667 -24.333 -80 -25
c-37.333 0 -68 13 -92 39c-24 25.333 -36.333 63.333 -37 114c0 42 6.66699 82.333 20 121s32 73 56 103s52.667 53.667 86 71s70 26 110 26c25.333 0 49.333 -4 72 -12c23.333 -8 46.333 -18 69 -30c-4 -14.667 -8 -30.334 -12 -47.001
c-4.66699 -17.333 -8.33398 -34 -11.001 -50l-39 -180c-4 -18.667 -6 -34 -6 -46c0 -16.667 3.66699 -28.334 11 -35.001c8 -6.66699 19.333 -10 34 -10c22 0 41 9.33301 57 28s28.333 44.667 37 78s13 72.666 13 117.999c0 59.333 -11.667 109.666 -35 150.999
c-22.667 41.333 -55.334 73 -98.001 95c-42.667 22.667 -92.667 34 -150 34c-56.667 0 -107.667 -14.667 -153 -44s-81.333 -70.666 -108 -123.999s-40.334 -116.666 -41.001 -189.999c0.666992 -66.667 13.334 -122.667 38.001 -168s58.334 -79.333 101.001 -102
s90.667 -34 144 -34c27.333 0 53.666 2 78.999 6c24.667 4 48.334 9.66699 71.001 17l18 -81c-25.333 -8 -52 -14.333 -80 -19c-28.667 -4.66699 -57.667 -7 -87 -7c-74.667 0 -141.334 15 -200.001 45c-58.667 29.333 -104.667 72.666 -138 129.999
c-34 58 -51.333 129.667 -52 215c0 62.667 10 120.667 30 174s48 100.333 84 141c36.667 40 80 71.333 130 94c49.333 22.667 104 34 164 34c76 0 143.333 -14.667 202 -44c58.667 -28.667 104.667 -70.334 138 -125.001c34 -54.667 51.333 -120.334 52 -197.001z
M544.003 386.004l0.000976562 -1.00098v0v0c-5.33301 2.66699 -11.333 4.66699 -18 6c-6 1.33301 -13 2 -21 2c-26.667 0 -50 -7.33301 -70 -22s-36.667 -34 -50 -58s-23.333 -50.333 -30 -79c-6.66699 -29.333 -10 -58.333 -10 -87c0 -24 4 -41.333 12 -52
s19.667 -16 35 -16c12.667 0 26.667 4.66699 42 14s29.666 23.333 42.999 42s23.333 42.334 30 71.001l38 177z" />
    <glyph glyph-name="A" unicode="A" horiz-adv-x="524" 
d="M399 0l-44 176h-188l-46 -176h-125l200 708h142l192 -708h-131zM331 273l-46 191.999l-10 48c-4 19.333 -7.33301 37 -10 53c-2.66699 15.333 -4 24.333 -4 27c0 -2.66699 -1.33301 -11.667 -4 -27s-6 -32.666 -10 -51.999c-4 -18.667 -7.66699 -34.667 -11 -48l-45 -192
h140v-1z" />
    <glyph glyph-name="B" unicode="B" horiz-adv-x="545" 
d="M505 207c0 -38.667 -7.33398 -73.332 -22.001 -103.999s-36 -54.334 -64 -71.001c-16 -10.667 -34.667 -18.667 -56 -24s-50 -8 -86 -8h-206v708h178c26.667 0 48.667 -1 66 -3s32 -5 44 -9s23.333 -8.66699 34 -14c26 -12 47 -31.333 63 -58s24.333 -58 25 -94
c0 -34.667 -9.33301 -66 -28 -94c-18 -28 -44.667 -48 -80 -60c42.667 -10.667 75.334 -30 98.001 -58s34 -64.667 34 -110v-1zM369.999 212.002c0 36 -8.66699 62.333 -26 79c-18 17.333 -45.333 26 -82 26h-74v-210h85c34.667 0 59.667 9.66699 75 29
c16 18.667 24 44 24 76h-2zM353.999 514.002v-1.00098v0v0c0 30.667 -8.66699 53.334 -26 68.001s-40.333 22 -69 22h-70v-183h75c32 0 55.333 8 70 24s22 38.667 22 68z" />
    <glyph glyph-name="C" unicode="C" horiz-adv-x="506" 
d="M488 48l-0.000976562 -1.00293v0v0c-22 -20 -48.333 -35 -79 -45c-30.667 -10.667 -65.334 -16 -104.001 -16c-34.667 0 -68.334 7.33301 -101.001 22c-33.333 14.667 -61 35.667 -83 63c-26.667 32 -46.667 69.667 -60 113s-20 96.333 -20 159
c0 50 5.33301 97.333 16 142c11.333 44.667 28.333 84.334 51 119.001s51.334 62 86.001 82s75.667 30 123 30c31.333 0 61 -5 89 -15s50.667 -23.667 68 -41l-58 -90c-16 14 -32.667 24.333 -50 31c-16.667 6.66699 -34.667 10 -54 10
c-37.333 -0.666992 -66.333 -13 -87 -37s-35 -54.667 -43 -92s-12 -76.666 -12 -117.999c0 -34.667 1.33301 -64 4 -88c2 -24 5.66699 -44.667 11 -62s12 -32.666 20 -45.999c14 -23.333 30.333 -42 49 -56c18.667 -13.333 39.334 -20 62.001 -20
c21.333 0 41.333 3.33301 60 10s37.334 18 56.001 34l54 -86z" />
    <glyph glyph-name="D" unicode="D" horiz-adv-x="559" 
d="M523 360c0 -42.667 -3.99902 -84.999 -11.999 -126.999c-8 -42.667 -21.333 -81.334 -40 -116.001s-44.667 -62.667 -78 -84c-32.667 -21.333 -74.334 -32.333 -125.001 -33h-196v708h170c72 -0.666992 128.333 -15.667 169 -45s69 -70 85 -122s23.667 -112.333 23 -181
h4zM389.001 362.001l0.00292969 -0.999023v0v0c0 23.333 -1.33301 48.666 -4 75.999c-2.66699 28 -8.33398 54.667 -17.001 80s-22 46 -40 62s-42.333 24.333 -73 25h-64v-498h68c47.333 0 80.666 21.333 99.999 64s28.666 106 27.999 190z" />
    <glyph glyph-name="E" unicode="E" horiz-adv-x="449" 
d="M428 2v-1v0h-358v708h352l-14 -106h-216v-182h180v-104h-180v-209h236v-108v2z" />
    <glyph glyph-name="F" unicode="F" horiz-adv-x="397" 
d="M408 710v-1v0l-14 -106h-202v-183h165v-102h-165v-318h-121v708h337v2z" />
    <glyph glyph-name="G" unicode="G" horiz-adv-x="580" 
d="M516 58v-0.999023v0v0c-29.333 -21.333 -61 -37.666 -95 -48.999c-34.667 -11.333 -72 -17 -112 -17c-36.667 0 -71 7 -103 21c-32.667 13.333 -61.667 35 -87 65c-24 28 -43 64 -57 108s-21 99 -21 165c0 45.333 4.66699 90 14 134s24.666 84 45.999 120
s49.666 64.667 84.999 86s78.333 32.333 129 33c37.333 0 73.333 -7.33301 108 -22s65.334 -35.334 92.001 -62.001l-66 -80c-20 18.667 -40.667 33 -62 43s-43.666 15 -66.999 15c-33.333 -0.666992 -60 -9.66699 -80 -27c-20 -18 -35 -41 -45 -69
c-9.33301 -28 -15.333 -57 -18 -87s-4 -57.667 -4 -83s1.66699 -52.666 5 -81.999c2.66699 -29.333 9 -57.333 19 -84c9.33301 -26.667 24 -48.334 44 -65.001s46.667 -25.334 80 -26.001c14.667 0 29 2 43 6s26 8.66699 36 14v169h-97l-18 104h232v-334z" />
    <glyph glyph-name="H" unicode="H" horiz-adv-x="567" 
d="M496 1v-1v0h-119v320h-187v-320h-120v708h120v-280h187v280h119v-708v1z" />
    <glyph glyph-name="I" unicode="I" horiz-adv-x="261" 
d="M190 1v-1v0h-120v708h120v-708v1z" />
    <glyph glyph-name="J" unicode="J" horiz-adv-x="264" 
d="M195 709l0.00292969 -0.998047v0v-628c0 -38 -3.33301 -69.667 -10 -95c-6.66699 -24.667 -16.334 -46.334 -29.001 -65.001c-13.333 -19.333 -29.333 -36 -48 -50s-39.334 -25.667 -62.001 -35l-58 68c18.667 12 33.667 24 45 36s21 27 29 45
c5.33301 13.333 8.66602 30.666 9.99902 51.999s2 49.333 2 84v588h120z" />
    <glyph glyph-name="K" unicode="K" horiz-adv-x="529" 
d="M540 -1h-152l-192 376l184 333h145l-202 -330l217 -378v-1zM192 1v-1v0h-121v708h121v-708v1z" />
    <glyph glyph-name="L" unicode="L" horiz-adv-x="416" 
d="M415 107v-1v0l-20 -106h-324v708h120v-602h225z" />
    <glyph glyph-name="M" unicode="M" horiz-adv-x="745" 
d="M693 5l-0.00195312 -0.99707v0h-119l-22 426c-0.666992 10.667 -1 24 -1 40l-2 46v39v20c-1.33301 -4 -3.33301 -14.333 -6 -31l-9 -56l-10 -50l-100 -435h-108l-91 416c-4 18.667 -8 39 -12 61c-4 22.667 -7.33301 42.667 -10 60s-4.66699 28.666 -6 33.999v-21v-43
c0 -17.333 -0.333008 -34.333 -1 -51c0 -16.667 -0.333008 -30.334 -1 -41.001l-22 -416h-122l54 708h162l86 -408c2.66699 -14.667 5.33398 -32 8.00098 -52s5.33398 -38.333 8.00098 -55s4.66699 -27.334 6 -32.001c0 3.33301 1 13 3 29s4.66699 34 8 54
c2.66699 20 6 38 10 54l88 408h160l52 -708z" />
    <glyph glyph-name="N" unicode="N" horiz-adv-x="581" 
d="M513 -2l0.00195312 -0.999023v0h-126l-148 333c-11.333 25.333 -22.333 52.333 -33 81l-30 81c2 -21.333 3.66699 -43.666 5 -66.999c1.33301 -22.667 2.66602 -44 3.99902 -64s2 -36 2 -48v-158c0 -52 0.333008 -104.333 1 -157h-116v708h122l155 -343
c5.33301 -12.667 10.333 -25.334 15 -38.001l18 -45l24 -68c-1.33301 10.667 -2.33301 21 -3 31s-1.33398 19 -2.00098 27l-4 71c-1.33301 24 -2 47.667 -2 71c0 49.333 -0.333008 98.666 -1 147.999v148h116v-708z" />
    <glyph glyph-name="O" unicode="O" horiz-adv-x="608" 
d="M571 362c0 -44.667 -3.99902 -89.002 -11.999 -133.002s-21.667 -84.333 -41 -121s-46 -66 -80 -88c-34.667 -22 -78 -33.333 -130 -34c-49.333 0.666992 -91 11.334 -125 32.001c-34.667 20.667 -62.334 48.334 -83.001 83.001c-20 34.667 -34.667 73.334 -44 116.001
c-9.33301 42 -14 84.667 -14 128c0 80 10.667 148 32 204s51.333 98.667 90 128s84.667 44 138 44c49.333 -0.666992 91 -11.667 125 -33c34 -20.667 61.333 -48.334 82 -83.001s35.667 -73 45 -115c9.33301 -41.333 14 -83.333 14 -126zM433.001 364.998v-0.999023v0v0
c0 25.333 -1 52.666 -3 81.999s-7 57.333 -15 84s-21 48.667 -39 66s-43 26.333 -75 27c-30.667 -0.666992 -54.667 -10.334 -72 -29.001s-30 -42 -38 -70s-13 -56.667 -15 -86s-3 -55 -3 -77c0 -24 0.666992 -51.333 2 -82c2 -30.667 7 -60.667 15 -90
s21.333 -53.666 40 -72.999s44.334 -29.333 77.001 -30c31.333 0.666992 55.666 10 72.999 28s30 41 38 69c8 28.667 12.667 59 14 91s2 62 2 90z" />
    <glyph glyph-name="P" unicode="P" horiz-adv-x="506" 
d="M491 497c0 -33.333 -5.00098 -64.999 -15.001 -94.999c-9.33301 -30.667 -26 -57.334 -50 -80.001c-20 -18.667 -43.667 -32.334 -71 -41.001c-28 -9.33301 -60.333 -14 -97 -14h-68v-267h-120v708h170c34.667 0 66.334 -2.66699 95.001 -8
c28 -5.33301 52 -14.666 72 -27.999c27.333 -18.667 48.333 -42.667 63 -72s22 -64 22 -104zM359.999 491.001l0.00195312 -1.00098v0v0c0 38.667 -9 67.334 -27 86.001c-17.333 18.667 -46 28 -86 28h-56v-234h56c41.333 0 70.666 10 87.999 30s25.666 50 24.999 90v1z" />
    <glyph glyph-name="Q" unicode="Q" horiz-adv-x="608" 
d="M633 -27l-36 -90.999c-5.33301 -1.33301 -11.666 -2.33301 -18.999 -3s-15.666 -1 -24.999 -1c-23.333 0.666992 -44.333 6.33398 -63 17.001s-37.334 23 -56.001 37s-39.667 26 -63 36c-21.333 8 -42 14.667 -62 20c-19.333 5.33301 -39 9.33301 -59 12
c-41.333 6.66699 -75.333 21.667 -102 45s-48 52 -64 86c-15.333 33.333 -26.333 69 -33 107s-10 75 -10 111c0 80 10.667 148 32 204s51.333 98.667 90 128c39.333 29.333 85.666 44 138.999 44c50 -0.666992 92 -11.334 126 -32.001
c34.667 -21.333 62.334 -49.333 83.001 -84c20 -34.667 34.667 -73 44 -115s14 -84.333 14 -127c0 -72 -6.66699 -131.667 -20 -179c-14 -47.333 -34 -86.333 -60 -117c-6.66699 -8 -13.334 -15 -20.001 -21c-6.66699 -6.66699 -13.667 -12.667 -21 -18
c13.333 -2.66699 28.333 -9.33398 45 -20.001c16 -10.667 33.333 -21 52 -31s39 -15.333 61 -16c8 0 16 1 24 3zM437 349.001l-0.000976562 -1.00098v0v0c0 24.667 -0.666992 52.334 -2 83.001c-2 30.667 -7 60 -15 88c-8 28.667 -21.333 52.334 -40 71.001
s-44.667 28.334 -78 29.001c-30.667 -0.666992 -54.667 -10.334 -72 -29.001s-30 -42 -38 -70s-13 -56.667 -15 -86s-3 -54.666 -3 -75.999c0 -24.667 1 -52.334 3 -83.001c1.33301 -30.667 6 -60.667 14 -90s21.333 -53.333 40 -72s44.334 -28.334 77.001 -29.001
c32 0.666992 56.667 10 74 28c17.333 18.667 30 42 38 70s12.667 57.333 14 88c1.33301 30 2 57.333 2 82z" />
    <glyph glyph-name="R" unicode="R" horiz-adv-x="526" 
d="M509 1l-141 0.00292969l-16 37l-28 65l-32 72c-10.667 23.333 -20 42.666 -28 57.999c-14 26 -25.667 43.667 -35 53c-10 9.33301 -22.667 13.666 -38 12.999v-299h-120v708h174c45.333 0 85.666 -6.33301 120.999 -19c34.667 -12.667 62.334 -33.667 83.001 -63
s31 -68.666 31 -117.999c0 -37.333 -6.33301 -70 -19 -98s-30.334 -50 -53.001 -66c-22 -16 -47 -25 -75 -27c12.667 -8.66699 24.334 -20.334 35.001 -35.001s19.667 -29.334 27 -44.001l27 -53l37 -73l34 -69c10 -20.667 16.333 -35 19 -43zM349 504.003v-1v0v0
c0 36 -9.33301 61.667 -28 77c-18.667 16 -44.667 24 -78 24h-53v-211h57c37.333 0 64 9.66699 80 29c15.333 20 23 47.333 23 82h-1z" />
    <glyph glyph-name="S" unicode="S" horiz-adv-x="532" 
d="M485 209l-0.00292969 -0.999023v0v0c-0.666992 -47.333 -12 -87.333 -34 -120s-51.667 -57.667 -89 -75s-78.666 -26 -123.999 -26c-42 0 -81 5.66699 -117 17s-69 27.666 -99 48.999l53 96c23.333 -18.667 48.333 -33 75 -43c26.667 -10.667 55.667 -16 87 -16
c34.667 0 62.667 8.33301 84 25c21.333 16 32.333 40 33 72c0 22 -6 40.333 -18 55s-28.667 27 -50 37l-116 56c-20.667 9.33301 -40 21.333 -58 36c-17.333 15.333 -31.666 34.333 -42.999 57c-10.667 22.667 -16 50.667 -16 84c0 40.667 9.33301 76.334 28 107.001
c18.667 31.333 44.667 55.666 78 72.999c32.667 17.333 70.334 26 113.001 26c38.667 0 75 -5.66699 109 -17c34.667 -11.333 66 -27.333 94 -48l-56 -88c-24 17.333 -46.667 30.333 -68 39c-21.333 9.33301 -44 14 -68 14c-29.333 0 -52.666 -7 -69.999 -21
c-17.333 -14.667 -26 -35 -26 -61c0 -20 4.66699 -36.667 14 -50s22.666 -24 39.999 -32l134 -64c34.667 -16 62.667 -38.667 84 -68s32.333 -67.333 33 -114z" />
    <glyph glyph-name="T" unicode="T" horiz-adv-x="439" 
d="M453 709v-1v0l-12 -106h-154v-603h-120v603h-152v106h440z" />
    <glyph glyph-name="U" unicode="U" horiz-adv-x="571" 
d="M504 712l-0.000976562 -0.999023v0v-501c0 -24 -1 -44 -3 -60c-1.33301 -16 -4 -30 -8 -42s-10 -23.333 -18 -34c-16 -24.667 -39.333 -45 -70 -61c-31.333 -16 -72 -24.333 -122 -25c-48 0 -88 7.33301 -120 22s-56.667 38 -74 70c-6.66699 12 -12 24 -16 36
c-3.33301 12 -5.66602 25.333 -6.99902 40s-2 32.667 -2 54v498h120v-482c0 -24 2 -46.667 6 -68c4 -20.667 13.333 -37.334 28 -50.001s36.667 -19 66 -19c28 0 49.333 5.33301 64 16s24.667 25.667 30 45s8 41.333 8 66v492h120z" />
    <glyph glyph-name="V" unicode="V" horiz-adv-x="513" 
d="M521 707l-200 -707.999h-133l-196 708h130l100 -414c6.66699 -26 12.667 -52.333 18 -79l16 -85c5.33301 27.333 11 54.666 17 81.999c5.33301 27.333 11.333 54.333 18 81l106 416h124v-1z" />
    <glyph glyph-name="W" unicode="W" horiz-adv-x="752" 
d="M757 711l-0.000976562 -1.00098v0l-144 -708h-150l-58 368c-4 20.667 -7.66699 42.667 -11 66c-4 22.667 -7.33301 43.334 -10 62.001c-2.66699 19.333 -4 33.333 -4 42c-1.33301 -8 -3.33301 -21.667 -6 -41c-2.66699 -18.667 -5.33398 -39.334 -8.00098 -62.001
c-2.66699 -23.333 -5.33398 -45 -8.00098 -65l-60 -372h-150l-140 708h130l60 -372c2.66699 -17.333 5.33398 -36.666 8.00098 -57.999l8 -63c2.66699 -20.667 4.66699 -38 6 -52c1.33301 -14.667 2 -23.334 2 -26.001c0 2.66699 0.666992 11.334 2 26.001l7 53l8 61
c2.66699 20 5.33398 36.667 8.00098 50l64 380h138l66 -385c2.66699 -17.333 5.33398 -36 8.00098 -56s5 -39.333 7 -58l5 -48c1.33301 -13.333 2 -21.333 2 -24c0 2 0.666992 10 2 24c2 14 4.33301 31.333 7 52l8 64l9 60l58 372h129z" />
    <glyph glyph-name="X" unicode="X" horiz-adv-x="500" 
d="M509 0v-1v0h-142l-114 259l-112 -259h-148l188 374l-170 335h146l94 -216l89 216h142l-162 -326l188 -382h1z" />
    <glyph glyph-name="Y" unicode="Y" horiz-adv-x="485" 
d="M501 708l0.000976562 -1v0l-198 -444v-264h-124v265l-194 444h144l85 -238l12 -41l18 -62l16 61c5.33301 19.333 9.66602 33.333 12.999 42l86 238h141h1z" />
    <glyph glyph-name="Z" unicode="Z" horiz-adv-x="472" 
d="M442 107v-1.00195v0l-16 -106h-396v89l237 450c6 12 12.333 23.667 19 35l22 34c-10.667 -1.33301 -21.667 -2.33301 -33 -3c-11.333 -1.33301 -22.666 -2 -33.999 -2h-196l16 104h378v-94l-234 -452c-6.66699 -13.333 -13 -24.666 -19 -33.999l-17 -24
c8 0.666992 18.667 1.33398 32 2.00098s24.666 1 33.999 1h207v1z" />
    <glyph glyph-name="bracketleft" unicode="[" horiz-adv-x="274" 
d="M254 -159v-1v0h-184v910h184v-83h-80v-744h80v-83v1z" />
    <glyph glyph-name="backslash" unicode="\" horiz-adv-x="371" 
d="M366 -17v-1v0l-93 -37l-268 799l94 35l267 -797v1z" />
    <glyph glyph-name="bracketright" unicode="]" horiz-adv-x="275" 
d="M205 -159v-1v0h-184v83h80v744h-80v83h184v-910v1z" />
    <glyph glyph-name="asciicircum" unicode="^" horiz-adv-x="552" 
d="M502 346v-1v0h-120l-106 259l-108 -259h-118l165 380h122l165 -380v1z" />
    <glyph glyph-name="underscore" unicode="_" horiz-adv-x="446" 
d="M446 -77v-1v0h-446v100h446v-100v1z" />
    <glyph glyph-name="grave" unicode="`" horiz-adv-x="291" 
d="M264 638v-1v0l-36 -64l-203 98l52 91l188 -126z" />
    <glyph glyph-name="a" unicode="a" horiz-adv-x="467" 
d="M425 58l-63.9961 -78.002c-13.333 5.33301 -25.333 14 -36 26s-18.334 24.667 -23.001 38c-16 -17.333 -33.667 -30.666 -53 -39.999c-20 -9.33301 -43.333 -14 -70 -14c-37.333 0 -67 7.33301 -89 22s-37.667 34 -47 58s-14 50 -14 78
c0.666992 54.667 20 97.334 58 128.001c38.667 31.333 92.667 47.333 162 48h12h14v38c0 15.333 -0.666992 28.333 -2 39s-4.33301 19 -9 25c-4.66699 6.66699 -10.334 11.334 -17.001 14.001s-15 4 -25 4c-26 0 -50.667 -5.33301 -74 -16s-43.666 -24 -60.999 -40l-47 80
c29.333 21.333 60.666 38 93.999 50s67.666 18 102.999 18c38.667 0 70.667 -7.66699 96 -23s42.666 -37.333 51.999 -66c3.33301 -10.667 5.66602 -22.334 6.99902 -35.001s2 -27 2 -43v-57v-67v-58v-30c0 -25.333 2.66699 -46 8 -62
c4.66699 -15.333 14.334 -28 29.001 -38zM280.004 129.998l-0.00292969 -0.999023v0l1 112h-10h-6c-40 0 -68.667 -8 -86 -24s-25.666 -37.333 -24.999 -64c0 -22.667 4.66699 -40.334 14 -53.001s23.333 -19 42 -19c14.667 0 28.334 4 41.001 12
c12.667 8.66699 22.334 19.667 29.001 33v4z" />
    <glyph glyph-name="b" unicode="b" horiz-adv-x="503" 
d="M460 270c0 -28 -3.33398 -57.999 -10.001 -89.999c-6 -32.667 -16.333 -63.667 -31 -93s-34 -53.333 -58 -72s-53.333 -28.334 -88 -29.001c-24 0 -44.667 5.33301 -62 16c-17.333 10 -31.333 23 -42 39c0 -8 -0.666992 -15.333 -2 -22s-3.66602 -14 -6.99902 -22h-102
c3.33301 14.667 5.66602 31 6.99902 49c1.33301 17.333 2 40 2 68v498c0 28 -1 50.667 -3 68l-5 42l116 22c1.33301 -5.33301 3.33301 -16 6 -32c2.66699 -15.333 4 -35.333 4 -60v-132v-18c-0.666992 -6.66699 -1 -12.667 -1 -18c10.667 12 24.334 22.667 41.001 32
c16 9.33301 36.667 14.333 62 15c56 -0.666992 99.333 -23.667 130 -69s46 -109.333 46 -192h-3zM336.999 266.001v-1v0v0c0 28 -1.33301 52 -4 72c-2.66699 19.333 -6.66699 35.666 -12 48.999c-6.66699 14.667 -15.334 25.334 -26.001 32.001
c-10.667 7.33301 -22.667 11 -36 11c-16 0 -30 -4 -42 -12s-21.667 -18 -29 -30v-262c8 -10.667 18 -19.334 30 -26.001s25.333 -10 40 -10c12 0 23.333 3.33301 34 10s20 18.334 28 35.001c6.66699 15.333 11.334 33 14.001 53s4 46.667 4 80z" />
    <glyph glyph-name="c" unicode="c" horiz-adv-x="404" 
d="M388 57l0.000976562 -0.999023v0v0c-22.667 -25.333 -46.667 -43.333 -72 -54c-25.333 -10 -52 -15 -80 -15c-32.667 0 -61.667 6 -87 18s-46.666 30.667 -63.999 56c-16 24 -28 51.667 -36 83c-8 32 -12 68.333 -12 109c0 53.333 6.66699 98.333 20 135
c13.333 37.333 31.333 67.333 54 90c17.333 17.333 37 30.666 59 39.999s46.333 14 73 14c28 0 52.333 -5 73 -15c20.667 -9.33301 40.334 -23.333 59.001 -42l-56 -75c-10.667 12 -22 21.333 -34 28s-25.333 10 -40 10c-14 0 -26.333 -4 -37 -12
s-19.334 -20.667 -26.001 -38c-6.66699 -18 -11.334 -37.667 -14.001 -59s-4 -47.333 -4 -78c0 -53.333 6.66699 -95 20 -125s34.666 -45 63.999 -45c17.333 0 33.333 4 48 12s28 19.667 40 35l54 -72z" />
    <glyph glyph-name="d" unicode="d" horiz-adv-x="501" 
d="M441 1h-104.002c-2.66699 6.66699 -4.66699 13.334 -6 20.001s-2 13.667 -2 21c-13.333 -17.333 -28.666 -30.333 -45.999 -39s-37.333 -13 -60 -13c-36 0 -66 8 -90 24s-42.667 37 -56 63c-13.333 25.333 -22.666 53.333 -27.999 84s-8 61.334 -8 92.001
c0 29.333 3.33301 60 10 92s17.334 62 32.001 90s34 50.667 58 68s53.667 26.333 89 27c16 0 32 -3.33301 48 -10s29.333 -16 40 -28c-1.33301 13.333 -2.33301 26.666 -3 39.999c-1.33301 13.333 -2 26.666 -2 39.999v176l116 -18v-584c0 -24 0.666992 -48.333 2 -73
s4.66602 -49 9.99902 -73v1zM313.998 131l-0.00195312 -1v0v272c-7.33301 12 -17 20.667 -29 26s-24.667 8 -38 8c-20 0 -35.667 -6.66699 -47 -20c-10.667 -13.333 -18.667 -30 -24 -50c-4.66699 -20 -7.66699 -40 -9 -60s-2 -37.333 -2 -52c0 -14 0.666992 -30.333 2 -49
s4.33301 -36.667 9 -54s12.334 -32 23.001 -44s25.334 -18 44.001 -18c14.667 0 28.667 3.33301 42 10s23 16.667 29 30v2z" />
    <glyph glyph-name="e" unicode="e" horiz-adv-x="460" 
d="M429 231l-267.003 -0.00292969v-10c0 -17.333 1.33301 -33.666 4 -48.999s7.33398 -29.666 14.001 -42.999c8.66699 -16 20.334 -28.333 35.001 -37c14 -8 30.333 -12 49 -12c20.667 0 40.334 4.66699 59.001 14c18.667 8.66699 36.667 21.334 54 38.001l46 -75
c-25.333 -24 -52 -41.333 -80 -52c-28 -11.333 -58 -17 -90 -17c-68 0.666992 -120.667 24.667 -158 72c-37.333 48 -56 115.333 -56 202c0 44.667 4.66699 83.667 14 117s23.333 62 42 86c18 22.667 39 39.667 63 51s50.667 17 80 17c28 0 53.333 -4.66699 76 -14
s42 -23 58 -41c20.667 -22.667 35.667 -51.667 45 -87s14 -81 14 -137v-22zM311.997 314.997v-1.00098v0v0c0 20.667 -1 39 -3 55c-2.66699 16.667 -6.33398 30.334 -11.001 41.001c-5.33301 12 -12.666 21.333 -21.999 28s-21.333 10 -36 10c-26 0 -45 -11 -57 -33
c-12 -21.333 -18.333 -55 -19 -101h150z" />
    <glyph glyph-name="f" unicode="f" horiz-adv-x="284" 
d="M324 725l0.000976562 -1.00195v0l-32 -78c-6.66699 4.66699 -14.667 8.33398 -24 11.001c-10 2.66699 -20.333 4 -31 4c-14.667 0 -26 -5.66699 -34 -17c-8 -10.667 -12 -26 -12 -46v-80h108l-22 -88h-87v-431h-119v431h-40v88h40c0 10.667 -0.333008 20.667 -1 30v38
c0.666992 38.667 7 69.334 19 92.001c11.333 22 24.333 38 39 48c14 9.33301 28.333 16 43 20c15.333 4 30.333 6 45 6c21.333 0 41 -2 59 -6c17.333 -4 33.666 -10.667 48.999 -20v-1z" />
    <glyph glyph-name="g" unicode="g" horiz-adv-x="468" 
d="M476 443c-8 -6 -16.6709 -11.001 -26.0039 -15.001c-10 -4 -20.333 -6 -31 -6c-8 0 -16 1 -24 3c8 -10.667 14 -22.667 18 -36s6 -26.666 6 -39.999c-0.666992 -39.333 -11 -71 -31 -95s-45.333 -41.333 -76 -52c-30 -10.667 -61 -16 -93 -16h-12
c-16 -8 -26.667 -15 -32 -21c-5.33301 -5.33301 -8 -10.666 -8 -15.999c0 -7.33301 3.33301 -12.333 10 -15s16 -4 28 -4c6.66699 0 16 -0.333008 28 -1c12 0 25 -0.666992 39 -2c13.333 -0.666992 26 -1.33398 38 -2.00098c25.333 -1.33301 48.333 -7.33301 69 -18
c20 -10.667 36 -26 48 -46s18 -44.667 18 -74c0 -43.333 -9.33301 -78.666 -28 -105.999c-18.667 -26.667 -44 -46.334 -76 -59.001s-68 -19 -108 -19c-21.333 0 -43.666 2 -66.999 6s-45.333 10.667 -66 20c-20 9.33301 -36.333 22.666 -49 39.999
c-13.333 17.333 -20 39.333 -20 66c0 10.667 0.666992 21 2 31c1.33301 10.667 3.33301 20.667 6 30l110 3c-2 -6.66699 -3.66699 -13.667 -5 -21s-2 -14.333 -2 -21c0 -18.667 4.66699 -32.667 14 -42s21.333 -15.666 36 -18.999s29.667 -5 45 -5c26 0 48 6 66 18
s27.333 32 28 60c0 18.667 -3.66699 32.667 -11 42c-8 9.33301 -19 15.333 -33 18c-14.667 3.33301 -32 5 -52 5h-31h-32h-23c-15.333 1.33301 -29.666 4.66602 -42.999 9.99902s-24 14 -32 26c-8.66699 12 -13 28 -13 48c0.666992 22 8.33398 40 23.001 54
c14.667 14.667 32 26 52 34c-30.667 12 -54 31 -70 57c-16 26.667 -24 56 -24 88c0 38 8 70 24 96s38 45.667 66 59s60.333 20 97 20c11.333 0 22.333 -0.666992 33 -2s21.334 -4 32.001 -8c8.66699 -2.66699 17 -5.66699 25 -9s14.667 -5 20 -5c14.667 0 30 1.33301 46 4
s30 8.33398 42 17.001l46 -77zM290.996 360.999v-1v0v0c0 24 -4.66699 44 -14 60s-27 24.333 -53 25c-25.333 -0.666992 -43 -9 -53 -25c-10 -16.667 -15 -37 -15 -61s5.33301 -44 16 -60s28.667 -24.333 54 -25c25.333 0.666992 43 9 53 25c9.33301 16 14 35.667 14 59z
" />
    <glyph glyph-name="h" unicode="h" horiz-adv-x="512" 
d="M442 1v-1.00098v0h-114v348c0 13.333 -1.33301 25.666 -4 36.999c-2 12 -7 21.333 -15 28c-7.33301 6.66699 -19 10 -35 10c-17.333 0 -33.666 -5 -48.999 -15c-14.667 -10 -27.334 -21.667 -38.001 -35v-373h-116v616v34c0 10 -0.666992 21 -2 33s-3.33301 27.333 -6 46
l116 18c3.33301 -21.333 5.66602 -42.666 6.99902 -63.999s2 -42.666 2 -63.999v-88v-27c-0.666992 -9.33301 -1 -18.666 -1 -27.999c16.667 18 36.667 31.667 60 41c22.667 8.66699 46.334 13 71.001 13c42.667 -0.666992 74 -13.334 94 -38.001c20 -24 30 -56.667 30 -98
v-394v1z" />
    <glyph glyph-name="i" unicode="i" horiz-adv-x="259" 
d="M72 0v516l118 14v-530h-118zM207 665v-1v0v0c-0.666992 -21.333 -8.33398 -39.333 -23.001 -54s-33 -22 -55 -22c-21.333 0 -39 7.33301 -53 22c-14.667 14.667 -22.334 32.667 -23.001 54c0.666992 21.333 8.33398 39.333 23.001 54c14.667 14 33 21.333 55 22
c21.333 -0.666992 39 -8 53 -22c14.667 -14.667 22.334 -32.667 23.001 -54v1z" />
    <glyph glyph-name="j" unicode="j" horiz-adv-x="258" 
d="M189 530l-0.00195312 -518c0 -26.667 -1.33301 -50.667 -4 -72s-7 -40 -13 -56c-9.33301 -24 -22.666 -44.333 -39.999 -61c-17.333 -17.333 -39.333 -32.666 -66 -45.999l-52 68c16 10.667 28 22.667 36 36c8.66699 13.333 14.334 29.666 17.001 48.999
c3.33301 18.667 5 42 5 70v514l116 16h1zM202.998 665v-1v0v0c-0.666992 -21.333 -8.33398 -39.333 -23.001 -54s-33 -22 -55 -22c-21.333 0 -39.333 7.33301 -54 22s-22.334 32.667 -23.001 54c0.666992 21.333 8.33398 39.333 23.001 54c14.667 14 33 21.333 55 22
c21.333 -0.666992 39.333 -8 54 -22c14.667 -14.667 22.334 -32.667 23.001 -54v1z" />
    <glyph glyph-name="k" unicode="k" horiz-adv-x="485" 
d="M188 -1l-118.001 0.000976562v613c0 26.667 -1 50 -3 70s-4.33301 34.667 -7 44l116 18c2.66699 -9.33301 5.33398 -25.333 8.00098 -48s4 -49.334 4 -80.001v-616v-1zM489.999 1.00098v-1v0h-142l-158 284l121 236h134l-136 -227l181 -293v1z" />
    <glyph glyph-name="l" unicode="l" horiz-adv-x="259" 
d="M257 2l-0.00292969 -1.00098v0v0c-9.33301 -4.66699 -20.666 -8.33398 -33.999 -11.001c-12.667 -2.66699 -27 -4 -43 -4c-19.333 0 -35.666 2.66699 -48.999 8s-24 12.666 -32 21.999c-10.667 12 -17.667 27.333 -21 46c-4 18.667 -6 40.667 -6 66v483
c0 28 -1.33301 51.333 -4 70c-2 18.667 -3.66699 33.334 -5 44.001l114 18c2 -10 4.33301 -25.667 7 -47s4 -48 4 -80v-447c0 -33.333 2 -56.333 6 -69c4 -13.333 12.667 -19.666 26 -18.999c2.66699 0 5.33398 0.333008 8.00098 1s4.66699 1.33398 6 2.00098l20 -82h3z" />
    <glyph glyph-name="m" unicode="m" horiz-adv-x="745" 
d="M673 1l0.00390625 -0.998047v0h-116v360c0 26 -4 44.333 -12 55s-20 16 -36 16c-12 0 -24.667 -3.33301 -38 -10s-28 -18 -44 -34v-387h-116v354c0 13.333 -0.666992 25.666 -2 36.999s-5.33301 20.333 -12 27s-18 10 -34 10c-10.667 0 -22.334 -3.33301 -35.001 -10
c-12 -6.66699 -26.333 -18 -43 -34v-386h-116v382c0 30.667 -1.66699 56 -5 76s-6.66602 37 -9.99902 51l108 24l6 -24c2.66699 -10.667 4.66699 -22.667 6 -36c12.667 17.333 29.667 31.666 51 42.999s46.666 17 75.999 17c26.667 0 50 -5.33301 70 -16s34 -25.667 42 -45
c17.333 18.667 37.666 33.667 60.999 45c23.333 12 49.666 18 78.999 18s52.666 -6.66699 69.999 -20c18 -12.667 31 -29.667 39 -51s12 -45 12 -71v-391z" />
    <glyph glyph-name="n" unicode="n" horiz-adv-x="508" 
d="M438 1l0.000976562 -1.00098v0h-116v350c0 20 -1 35 -3 45c-2.66699 10.667 -6.33398 18.667 -11.001 24c-4 5.33301 -9.33301 9 -16 11c-6.66699 1.33301 -14 2 -22 2c-12 0 -25.333 -4 -40 -12c-15.333 -8 -30 -19.333 -44 -34v-385h-116v382
c0 30.667 -1.66699 56 -5 76s-6.66602 37 -9.99902 51l108 24c2 -5.33301 4.66699 -13.333 8 -24c3.33301 -11.333 5.66602 -23.666 6.99902 -36.999c15.333 16 35 29.333 59 40c24 11.333 49.667 17 77 17c20 0 38 -3.33301 54 -10s29.333 -15.667 40 -27
c11.333 -13.333 19 -28 23 -44c4 -16.667 6 -33.667 6 -51v-398z" />
    <glyph glyph-name="o" unicode="o" horiz-adv-x="475" 
d="M445 263c0 -33.333 -3.33105 -66.333 -9.99805 -99s-18 -62.334 -34 -89.001s-37.333 -48 -64 -64s-59.334 -24 -98.001 -24c-40 0 -73.333 8.33301 -100 25s-47.334 38.667 -62.001 66c-15.333 26.667 -26 56.334 -32 89.001c-6.66699 32.667 -10 65 -10 97
s3.33301 63.667 10 95c7.33301 32 19 61 35 87s37 47 63 63s57.667 24 95 24c40 0 75.333 -10 106 -30c30.667 -20.667 54.667 -51 72 -91s26 -89.667 26 -149h3zM315.002 264v-1v0v0c0 18.667 -0.666992 38 -2 58c-1.33301 20.667 -4.66602 40 -9.99902 58
c-5.33301 18.667 -13.333 33.667 -24 45s-25.334 17 -44.001 17s-33.334 -6 -44.001 -18s-18.334 -27.333 -23.001 -46c-5.33301 -19.333 -8.66602 -39.666 -9.99902 -60.999s-2 -41 -2 -59c0 -15.333 0.666992 -33 2 -53s4.66602 -39.333 9.99902 -58
s13.333 -34.334 24 -47.001s26 -19 46 -19c18.667 0.666992 33.334 7.66699 44.001 21s18.334 30 23.001 50s7.66699 40.333 9 61c1.33301 20 2 37 2 51z" />
    <glyph glyph-name="p" unicode="p" horiz-adv-x="504" 
d="M463 277c0 -30.667 -2.66992 -62.6699 -8.00293 -96.0029s-14.666 -64.666 -27.999 -93.999s-32 -53.333 -56 -72c-24 -18 -55.333 -27.333 -94 -28c-19.333 0 -36.333 3.33301 -51 10c-15.333 6.66699 -29.666 15.334 -42.999 26.001c1.33301 -12 2.33301 -25.333 3 -40
c1.33301 -14.667 2 -27 2 -37v-146l-116 -24v606c0 32 -1.33301 58.667 -4 80c-2.66699 20.667 -5.66699 38 -9 52l110 20c1.33301 -4 3 -10.667 5 -20c1.33301 -9.33301 2 -20.333 2 -33v-6c12 17.333 28 31.333 48 42s42 16 66 16c36 0 65.333 -7.66699 88 -23
s40 -35.666 52 -60.999c12.667 -25.333 21.334 -53.333 26.001 -84c5.33301 -30 8 -59.667 8 -89zM340.997 264.997l0.00390625 -1v0v0c0 25.333 -1.33301 51 -4 77s-9.33398 47.667 -20.001 65s-27.334 26.333 -50.001 27c-17.333 0 -32.333 -4 -45 -12
s-24.334 -19.333 -35.001 -34v-263c8 -12 17.333 -21.333 28 -28s23 -10 37 -10c21.333 0 38 6 50 18s20.667 27.333 26 46s8.66602 38 9.99902 58s2 38 2 54z" />
    <glyph glyph-name="q" unicode="q" horiz-adv-x="502" 
d="M444 520c-2.66699 -21.333 -4.99902 -42.6641 -6.99902 -63.9971c-2.66699 -21.333 -4 -43 -4 -65v-594l-114 -20v200v28c0.666992 9.33301 1 18.333 1 27c-14 -14.667 -29.333 -25.334 -46 -32.001s-35 -10 -55 -10c-38.667 0 -71.334 10.667 -98.001 32
s-46.667 51.666 -60 90.999c-13.333 38.667 -20 84.667 -20 138c0 35.333 3.33301 70.333 10 105s19.667 67 39 97c16 24 35.333 43.333 58 58s48.667 22 78 22c23.333 0 43.333 -5.33301 60 -16c16 -10 30.667 -24.333 44 -43c0 8 0.666992 16 2 24
c1.33301 7.33301 3.33301 14.666 6 21.999h104h2zM318.001 133.002l-0.00195312 -1.00098v0v260c-8 13.333 -18 23.333 -30 30s-25.667 10 -41 10c-20 0 -35.667 -5.66699 -47 -17s-19.666 -25.666 -24.999 -42.999s-8.66602 -35.333 -9.99902 -54s-2 -35.667 -2 -51
c-0.666992 -58.667 5 -104 17 -136c12 -31.333 33.667 -47 65 -47c16.667 0 30.667 4.33301 42 13c11.333 9.33301 21 21 29 35z" />
    <glyph glyph-name="r" unicode="r" horiz-adv-x="324" 
d="M327 524l-0.000976562 -1v0l-34 -113c-5.33301 2.66699 -10.666 4.66699 -15.999 6c-5.33301 2 -11.333 3 -18 3c-20 0 -37 -6.66699 -51 -20s-21.333 -30 -22 -50v-350h-116v381c0 31.333 -1.66699 57 -5 77s-6.66602 37.333 -9.99902 52l110 24
c2 -5.33301 4.33301 -13.666 7 -24.999s4 -24.333 4 -39v-4c9.33301 22.667 23.666 40 42.999 52s40.333 18 63 18c9.33301 0 18 -1 26 -3c8 -2.66699 15 -5.33398 21 -8.00098h-2z" />
    <glyph glyph-name="s" unicode="s" horiz-adv-x="430" 
d="M396 160l-0.000976562 -1v0v0c-1.33301 -54.667 -18.666 -97.667 -51.999 -129c-33.333 -30.667 -78 -46.334 -134 -47.001c-30 0 -60.333 5.33301 -91 16c-30.667 10 -60 24.333 -88 43l41 90c20.667 -15.333 43.667 -28.333 69 -39s50 -16 74 -16
c20 0 36 5.66699 48 17c12 10.667 18 25.334 18 44.001c-0.666992 20 -9 35 -25 45c-15.333 10 -34.333 19 -57 27l-38 14c-20 7.33301 -38.333 17 -55 29s-30 27.333 -40 46c-10.667 18.667 -16 40.667 -16 66c0.666992 51.333 16.334 92.333 47.001 123
s72 46.334 124 47.001c30.667 0 58.667 -3.66699 84 -11s49 -18 71 -32l-36 -85c-18.667 11.333 -36.667 20.333 -54 27s-35.333 10 -54 10s-33.334 -4.66699 -44.001 -14s-16 -21.333 -16 -36c0 -20 5.33301 -35.333 16 -46c11.333 -10.667 29 -20 53 -28l42 -16
c18.667 -6.66699 36.667 -16 54 -28s31.333 -27.333 42 -46s16 -41.334 16 -68.001z" />
    <glyph glyph-name="t" unicode="t" horiz-adv-x="310" 
d="M291 7l0.00195312 -1.00195v0v0c-16 -9.33301 -32 -16 -48 -20s-32.667 -6 -50 -6c-12.667 0 -24.334 1.33301 -35.001 4s-20.667 6 -30 10c-18.667 6.66699 -33 19.334 -43 38.001c-10.667 18 -16 42.333 -16 73v324h-47v88h47c0 17.333 0.666992 35 2 53
c1.33301 17.333 2.66602 33.333 3.99902 48s2.66602 25.334 3.99902 32.001l114 20c-1.33301 -16 -2.66602 -38 -3.99902 -66s-2 -56.667 -2 -86h98l-20 -88h-79v-274c0 -32 4 -54 12 -66s22 -17.667 42 -17c8 0 15 1 21 3c6.66699 1.33301 12.667 3.33301 18 6l16 -72z" />
    <glyph glyph-name="u" unicode="u" horiz-adv-x="506" 
d="M461 38l-0.00292969 -1v0l-94 -53c-9.33301 10.667 -16.333 21 -21 31c-5.33301 10 -8.66602 20.333 -9.99902 31c-15.333 -20 -33.666 -35.333 -54.999 -46s-46 -16 -74 -16c-44 -0.666992 -78.667 13 -104 41s-38 75.333 -38 142v346l116 18v-374
c0 -16 1.33301 -30 4 -42s8 -21.333 16 -28s20.667 -10 38 -10c16.667 0 31 5 43 15s24 24.333 36 43v376l116 18v-378c0 -29.333 2.66699 -53 8 -71c4.66699 -17.333 11.334 -32 20.001 -44z" />
    <glyph glyph-name="v" unicode="v" horiz-adv-x="422" 
d="M430 521v-1.00098v0l-160 -522h-120l-158 513l126 18l72 -274c4 -15.333 7.66699 -31.666 11 -48.999c4 -17.333 8.66699 -39.333 14 -66c2.66699 16 6 34.667 10 56s8.66699 42 14 62l70 262h121v1z" />
    <glyph glyph-name="w" unicode="w" horiz-adv-x="638" 
d="M636 521l-0.00390625 -1.00098v0l-125 -522h-116l-59 272c-2.66699 9.33301 -5.33398 20.666 -8.00098 33.999c-2.66699 14 -4.66699 27.333 -6 40c-2 12.667 -3 21.667 -3 27c-1.33301 -5.33301 -3.33301 -14.333 -6 -27c-2 -12.667 -4.33301 -25.667 -7 -39
c-2.66699 -14 -5 -25.667 -7 -35l-60 -272h-112l-120 513l116 18l47 -262c2.66699 -16.667 5.33398 -35 8.00098 -55s4.66699 -37.333 6 -52s2 -23 2 -25c0 1.33301 0.666992 7.33301 2 18s3.33301 23.334 6 38.001l8 44c2.66699 14.667 5 26.667 7 36l53 248h114l54 -258
c2.66699 -11.333 5.33398 -25.666 8.00098 -42.999c2.66699 -18 5.33398 -35 8.00098 -51s4.33398 -26.667 5.00098 -32c0 4 1.33301 14 4 30s5.33398 33.333 8.00098 52s5 34 7 46l44 257h119z" />
    <glyph glyph-name="x" unicode="x" horiz-adv-x="442" 
d="M450 3v-1.00098v0h-140l-50 100l-39 82c-2.66699 -8 -7.66699 -20 -15 -36c-6.66699 -16 -14 -32 -22 -48l-54 -100h-138l162 278l-134 232l124 20l46 -88c2.66699 -5.33301 6 -12.666 10 -21.999c4.66699 -10 9 -20 13 -30l10 -26c1.33301 6 3.33301 13.667 6 23
s6 19 10 29s8 18.667 12 26l38 78h134l-136 -238l163 -282v3z" />
    <glyph glyph-name="y" unicode="y" horiz-adv-x="430" 
d="M438 518l-0.000976562 -1.00195v0l-162 -530c-20 -65.333 -45.667 -115.333 -77 -150s-71 -56 -119 -64l-40 85c25.333 6.66699 46 15.334 62 26.001c16 10 29.333 24 40 42s20.667 42.333 30 73l-38 -2c-2 12.667 -5 28.334 -9 47.001l-15 58l-14 54l-104 356l116 20
l80 -304c2.66699 -12 5.33398 -25.667 8.00098 -41c3.33301 -15.333 6.33301 -30.333 9 -45s4.66699 -26.667 6 -36c2.66699 13.333 6 28 10 44s7.66699 31.333 11 46s6.33301 26.667 9 36l77 288h120v-2z" />
    <glyph glyph-name="z" unicode="z" horiz-adv-x="388" 
d="M359 93v-1v0l-22 -92h-306v87l197 341h-186v92h305v-94l-192 -334h203z" />
    <glyph glyph-name="braceleft" unicode="{" horiz-adv-x="289" 
d="M273 -161v-0.998047v0h-68c-32.667 0 -59.667 11.333 -81 34c-20.667 22.667 -31.334 60.334 -32.001 113.001v169c0 33.333 -5.66699 56.666 -17 69.999c-12 13.333 -29 19.666 -51 18.999v100c22.667 0 39.334 7.33301 50.001 22s16 37 16 67v170
c0.666992 53.333 11 91.333 31 114s46.667 33.667 80 33h68v-108h-34c-18.667 -0.666992 -30.667 -7.33398 -36 -20.001s-7.66602 -26.334 -6.99902 -41.001v-175c-0.666992 -31.333 -5.66699 -54.666 -15 -69.999c-8.66699 -15.333 -18.334 -25.666 -29.001 -30.999
s-19.334 -8 -26.001 -8v-2c6.66699 0 15.334 -2.33301 26.001 -7c10.667 -5.33301 20.334 -15.666 29.001 -30.999c9.33301 -15.333 14.333 -39 15 -71v-176c-0.666992 -14.667 1.66602 -28.334 6.99902 -41.001s17 -19.334 35 -20.001h34v-108z" />
    <glyph glyph-name="bar" unicode="|" horiz-adv-x="249" 
d="M178 -212v-1v0h-108v987h108v-987v1z" />
    <glyph glyph-name="braceright" unicode="}" horiz-adv-x="289" 
d="M271 249l-0.00195312 -1.00195v0v0c-22 0.666992 -39 -5.66602 -51 -18.999c-11.333 -13.333 -17 -36.666 -17 -69.999v-169c-0.666992 -52.667 -11.667 -90.334 -33 -113.001s-48.333 -34 -81 -34h-67v108h33c18 0.666992 30 7.33398 36 20.001
c5.33301 12.667 8 26.334 8 41.001v176c0.666992 32 5.66699 55.667 15 71c8.66699 15.333 18.334 25.666 29.001 30.999c10.667 4.66699 19.334 7 26.001 7v2c-6.66699 0 -15.334 2.66699 -26.001 8s-20.334 15.666 -29.001 30.999
c-9.33301 15.333 -14.333 38.666 -15 69.999v175c0.666992 14.667 -2 28.334 -8 41.001c-5.33301 12.667 -17.333 19.334 -36 20.001h-33v108h67c33.333 0.666992 60.333 -10.333 81 -33s31.334 -60.667 32.001 -114v-170c0 -30 5.33301 -52.333 16 -67
s27.334 -22 50.001 -22v-100z" />
    <glyph glyph-name="asciitilde" unicode="~" horiz-adv-x="515" 
d="M466 291l0.00292969 -1v0v0c-12.667 -20 -28.334 -36 -47.001 -48s-41 -18 -67 -18c-26.667 0.666992 -50.334 5.66699 -71.001 15c-21.333 9.33301 -41.333 18.666 -60 27.999s-38.667 14.333 -60 15c-18 0 -33 -4.33301 -45 -13s-23 -20.667 -33 -36l-32 104
c12 17.333 26.667 32 44 44s40 18.333 68 19c24 -1.33301 46.333 -6.66602 67 -15.999l60 -28c20 -9.33301 41.333 -14.333 64 -15c17.333 0 33 5 47 15c13.333 9.33301 24.666 22 33.999 38l30 -104z" />
    <glyph glyph-name="exclamdown" unicode="&#xa1;" horiz-adv-x="274" 
d="M208 -181l-138 -20l25 519h86l28 -498zM213 459v-1v0v0c-0.666992 -21.333 -8.33398 -39.333 -23.001 -54s-32.667 -22.334 -54 -23.001c-21.333 0.666992 -39.333 8.33398 -54 23.001s-22.334 32.667 -23.001 54c0.666992 22 8.33398 40.333 23.001 55
s32.667 22.334 54 23.001c21.333 -0.666992 39.333 -8.33398 54 -23.001s22.334 -33 23.001 -55v1z" />
    <glyph glyph-name="cent" unicode="&#xa2;" horiz-adv-x="404" 
d="M389 57l0.000976562 -1v0v0c-17.333 -19.333 -35.333 -34 -54 -44c-18.667 -10.667 -37.667 -17.667 -57 -21v-101h-77v99c-24 4 -45.667 12 -65 24s-36 28 -50 48c-16 24 -28 51.667 -36 83c-8 32 -12 68.333 -12 109c0 53.333 6.66699 98.333 20 135
c13.333 37.333 31.333 67.333 54 90c12.667 13.333 26.334 24 41.001 32c14.667 8.66699 30.667 15 48 19v99h77v-98c19.333 -4 36.666 -10.667 51.999 -20c16 -9.33301 31.333 -21.333 46 -36l-55 -75c-11.333 12 -23 21.333 -35 28s-25.333 10 -40 10
c-13.333 0 -25.333 -4 -36 -12s-19.667 -20.667 -27 -38c-6.66699 -18 -11.334 -37.667 -14.001 -59s-4 -47 -4 -77c0 -53.333 6.66699 -95 20 -125s34.333 -45 63 -45c17.333 0 33.333 4 48 12s28 19.667 40 35l54 -72z" />
    <glyph glyph-name="sterling" unicode="&#xa3;" horiz-adv-x="515" 
d="M496 678v-1v0l-67 -89c-12 12 -25 21.333 -39 28c-14 6 -29 9 -45 9c-24 0 -43.333 -5.33301 -58 -16c-14 -11.333 -24.333 -26.333 -31 -45c-6 -18.667 -9 -40 -9 -64v-78h135v-98h-135v-217h217v-106h-424v106h78v217h-72v98h72v74c0 46 7.66699 87 23 123
c16 36 40 64.333 72 85c32 21.333 73 32 123 32c32 0 60.667 -4.33301 86 -13c26 -8.66699 50.333 -23.667 73 -45h1z" />
    <glyph glyph-name="currency" unicode="&#xa4;" horiz-adv-x="512" 
d="M502 87l-71.001 -81l-56 58c-16.667 -12 -35 -20.667 -55 -26c-19.333 -6 -39.333 -9 -60 -9c-21.333 0 -42 3.33301 -62 10c-20 6 -38.667 15 -56 27l-58 -58l-70 81l60 60c-8 16 -13.667 33 -17 51s-5 36.333 -5 55s2 37.334 6 56.001s10 36.667 18 54l-60 60l70 81
l58 -58c16.667 12 34.667 20.667 54 26c20 5.33301 40 8 60 8s39.667 -2.66699 59 -8c18.667 -5.33301 36.334 -14 53.001 -26l60 58l70 -81l-60 -60c8 -17.333 14 -35.333 18 -54s6 -37.334 6 -56.001s-2 -37 -6 -55s-10 -35.667 -18 -53l60 -60h2zM349.999 255v-1v0v0
c0 19.333 -3 39 -9 59s-15.667 36.667 -29 50s-31.333 20 -54 20s-40.667 -6.66699 -54 -20s-23.333 -30 -30 -50c-6 -20 -9 -39.667 -9 -59s3 -39 9 -59c6.66699 -20 16.667 -36.667 30 -50s31.333 -20.333 54 -21c22.667 0.666992 40.667 7.66699 54 21s23 30 29 50
s9 39.667 9 59v1z" />
    <glyph glyph-name="yen" unicode="&#xa5;" horiz-adv-x="516" 
d="M515 710l0.000976562 -1.00098v0l-134 -299h89v-98h-132l-22 -47v-32h154v-98h-154v-133h-124v133h-148v98h148v34l-20 46h-127v98h84l-130 299h144l85 -238l10 -37l13 -41l8 -25c1.33301 2.66699 3.66602 10.334 6.99902 23.001l11 41c4 14.667 8 27 12 37l86 238h141z
" />
    <glyph glyph-name="brokenbar" unicode="&#xa6;" horiz-adv-x="249" 
d="M70 -213v437h108v-437h-108zM178 347v-1v0h-108v428h108v-428v1z" />
    <glyph glyph-name="section" unicode="&#xa7;" horiz-adv-x="509" 
d="M478 278c0 -29.333 -6.3291 -55.665 -18.9961 -78.998s-29.334 -42.333 -50.001 -57c16 -14.667 28.333 -31.667 37 -51c8 -20 12 -42 12 -66c-1.33301 -42.667 -12.666 -77.667 -33.999 -105s-48 -47.666 -80 -60.999c-32 -12.667 -64.667 -19 -98 -19
c-44 -0.666992 -84 9.33301 -120 30s-64.667 56.667 -86 108l112 58c8 -30.667 20.667 -52 38 -64s36.666 -18 57.999 -18c20 0 37.333 5.33301 52 16s22.334 26.667 23.001 48c-0.666992 18.667 -9.33398 33.667 -26.001 45s-38.334 23.666 -65.001 36.999l-84 46
c-30 16.667 -53 38 -69 64s-24 55 -24 87c0 33.333 6.66699 62 20 86s32.666 44 57.999 60c-18 13.333 -32 29.666 -42 48.999s-15 41.666 -15 66.999c0.666992 40 10 72.667 28 98c18.667 25.333 42.667 44.333 72 57c29.333 12 60.666 18 93.999 18
c25.333 0 50.333 -3.33301 75 -10c24 -6.66699 46.333 -18.334 67 -35.001c20.667 -17.333 37.667 -40.666 51 -69.999l-110 -66c-8.66699 24 -20.334 41.333 -35.001 52s-30.334 16 -47.001 16c-16 0 -30.667 -4.66699 -44 -14s-20.666 -24 -21.999 -44
c0 -13.333 3.66699 -24.666 11 -33.999s17 -17.333 29 -24l104 -56c23.333 -12 44.333 -25.667 63 -41s33.334 -33.333 44.001 -54c11.333 -20.667 17 -45.334 17 -74.001h5zM352.004 260.001v-0.999023v0v0c0 18.667 -5.33301 33.667 -16 45s-23.667 21 -39 29l-88 49
c-11.333 -6 -20.666 -14 -27.999 -24c-8 -10.667 -12 -24.334 -12 -41.001c0.666992 -20 7.66699 -36.333 21 -49c13.333 -12 28.666 -22.333 45.999 -31l83 -43c9.33301 6 17.333 15 24 27s10 24.667 10 38z" />
    <glyph glyph-name="dieresis" unicode="&#xa8;" horiz-adv-x="427" 
d="M178 652c0 -18.667 -5.99902 -34 -17.999 -46c-12 -12.667 -27.333 -19 -46 -19s-34.667 6.33301 -48 19c-13.333 12 -20.333 27.333 -21 46c0.666992 18.667 7 34 19 46s27.333 18 46 18c19.333 0 35.666 -6 48.999 -18s20 -27.333 20 -46h-1zM382.001 653v-1v0v0
c-0.666992 -18.667 -7 -34 -19 -46c-12 -12.667 -27.333 -19 -46 -19s-34.667 6.33301 -48 19c-13.333 12 -20 27.333 -20 46s6 34 18 46s27.333 18 46 18s34.667 -6 48 -18s20.333 -27.333 21 -46v1z" />
    <glyph glyph-name="copyright" unicode="&#xa9;" horiz-adv-x="802" 
d="M762 362c-0.666992 -70.667 -16.667 -134.667 -48 -192s-74.333 -102.666 -129 -135.999c-54.667 -34 -116.667 -51.333 -186 -52c-69.333 0.666992 -131 18 -185 52c-54 33.333 -96.667 78.666 -128 135.999c-30.667 57.333 -46.334 121.333 -47.001 192
c0.666992 70.667 16.334 134.667 47.001 192c31.333 57.333 74 102.666 128 135.999c54 34 115.667 51.333 185 52c69.333 -0.666992 131.333 -18 186 -52c54.667 -33.333 97.667 -78.666 129 -135.999s47.333 -121.333 48 -192zM662 362c0 54.667 -11.333 104 -34 148
s-53.667 79.333 -93 106c-39.333 26 -84.666 39.333 -135.999 40c-50.667 -0.666992 -95.667 -14 -135 -40c-39.333 -26.667 -70 -62 -92 -106c-22.667 -44 -34 -93.333 -34 -148s11.333 -104 34 -148c22 -44 52.667 -79.333 92 -106c39.333 -26 84.333 -39.333 135 -40
c51.333 0.666992 96.666 14 135.999 40c39.333 26.667 70.333 62 93 106s34 93.333 34 148zM529 204l0.00488281 -0.999023v0v0c-18.667 -16 -38 -28 -58 -36s-42 -12 -66 -12c-26.667 0 -51.334 4.66699 -74.001 14s-42.334 23.333 -59.001 42
c-15.333 17.333 -27 38 -35 62s-12 51.667 -12 83c0 24 2.66699 46.333 8 67c5.33301 21.333 12.666 40.666 21.999 57.999c16 28 37.333 49.667 64 65s57 23 91 23c20.667 0 40.667 -3.33301 60 -10s36.333 -16.334 51 -29.001l-44 -66
c-10.667 9.33301 -21.334 16 -32.001 20s-22 6 -34 6c-16 0 -29.667 -3.33301 -41 -10c-12 -6.66699 -21 -17 -27 -31c-4.66699 -9.33301 -8 -20.666 -10 -33.999c-1.33301 -13.333 -2 -29 -2 -47c0 -17.333 0.666992 -32.333 2 -45s3.33301 -23.667 6 -33
c6.66699 -20 16 -34.667 28 -44s27.333 -14 46 -14c13.333 0 25.666 2.33301 36.999 7c10.667 4.66699 20.667 11.667 30 21l48 -60z" />
    <glyph glyph-name="ordfeminine" unicode="&#xaa;" horiz-adv-x="381" 
d="M344 425l-45.998 -57c-10.667 5.33301 -20 12 -28 20s-14 17.333 -18 28c-12 -14.667 -25.333 -25.334 -40 -32.001s-32 -10 -52 -10c-38 0 -67 10.667 -87 32s-30 50.666 -30 87.999c0 33.333 7.33301 60 22 80s34.334 34.333 59.001 43c24 9.33301 51.333 14 82 14h12
h12v13c0.666992 22.667 -1.33301 39.334 -6 50.001c-4.66699 11.333 -16.334 17 -35.001 17s-36.667 -4.66699 -54 -14c-17.333 -8.66699 -33 -18.667 -47 -30l-38 70c21.333 16 44.666 28.667 69.999 38s51.333 14 78 14c42 0 71.667 -11.333 89 -34s25.666 -54 24.999 -94
c0 -26 -0.333008 -52 -1 -78c-0.666992 -26.667 -1 -53 -1 -79c0 -17.333 2 -31.666 6 -42.999s12.667 -22.333 26 -33zM30.002 232v81h322v-81h-322zM224.002 566l-0.000976562 -1v0v0h-8h-8c-23.333 0 -41.666 -4.66699 -54.999 -14s-20 -26 -20 -50
c0 -14 3 -26.667 9 -38c6 -10.667 17 -16.334 33 -17.001c12 0 22 3.33301 30 10s14.667 15.334 20 26.001l1 84h-2z" />
    <glyph glyph-name="guillemotleft" unicode="&#xab;" horiz-adv-x="490" 
d="M462 73l-80 -58l-142 238l142 238l80 -56l-106 -181l106 -180v-1zM250 73l-80 -58l-142 238l142 238l80 -56l-106 -181l106 -180v-1z" />
    <glyph glyph-name="logicalnot" unicode="&#xac;" horiz-adv-x="482" 
d="M436 61h-106v146h-284v106h390v-251v-1z" />
    <glyph glyph-name="uni00AD" unicode="&#xad;" horiz-adv-x="301" 
d="M255 227v-1v0h-209v106h209v-106v1z" />
    <glyph glyph-name="registered" unicode="&#xae;" horiz-adv-x="802" 
d="M762 362c0 -52 -8.66699 -100.667 -26 -146s-42 -85.666 -74 -120.999c-32 -34.667 -70 -62 -114 -82s-92.667 -30 -146 -30s-102 10 -146 30s-82 47.333 -114 82c-32 35.333 -56.667 75.666 -74 120.999s-26 94 -26 146s8.66699 100.667 26 146s42 85.333 74 120
c32 35.333 70 63 114 83s92.667 30 146 30s102 -10 146 -30s82 -47.667 114 -83c32 -34.667 56.667 -74.667 74 -120s26 -94 26 -146zM662 362c0 51.333 -10.667 99 -32 143s-51.333 79.667 -90 107c-38.667 28 -85 42.333 -139 43
c-53.333 -0.666992 -99.666 -15 -138.999 -43c-38.667 -27.333 -68.667 -63 -90 -107s-32 -91.667 -32 -143s10.667 -99 32 -143s51.333 -79.667 90 -107c39.333 -28 85.666 -42.333 138.999 -43c54 0.666992 100.333 15 139 43c38.667 27.333 68.667 63 90 107
s32 91.667 32 143zM564 168h-104.001c-6.66699 18.667 -13 37.334 -19 56.001c-6 18 -13.667 35 -23 51s-22 30 -38 42c-2.66699 2 -5.66699 3.66699 -9 5c-2.66699 1.33301 -6 2.66602 -10 3.99902v-159h-91v394h150c23.333 0 44.333 -4 63 -12s33.334 -20.333 44.001 -37
c11.333 -16 17 -36.667 17 -62c0 -18.667 -3.33301 -36 -10 -52s-16.667 -29.333 -30 -40s-30 -17 -50 -19c9.33301 -4 17.333 -9.33301 24 -16s14.667 -18.667 24 -36l22 -41c6.66699 -12 13 -24.667 19 -38c6 -12.667 12.333 -25 19 -37zM446.999 446
l0.000976562 -1.00098v0v0c0 16.667 -5 28.334 -15 35.001c-10 7.33301 -23 11 -39 11h-32v-95h30c17.333 0 30.666 3.66699 39.999 11c10 7.33301 15 20.333 15 39h1z" />
    <glyph glyph-name="macron" unicode="&#xaf;" horiz-adv-x="318" 
d="M298 684v-1v0h-278v78h278v-78v1z" />
    <glyph glyph-name="degree" unicode="&#xb0;" horiz-adv-x="372" 
d="M346 550c-0.666992 -49.333 -15.332 -88 -43.999 -116s-68 -42.333 -118 -43c-48 0 -86.333 13.333 -115 40c-28 26.667 -42.333 65.667 -43 117c1.33301 50 16.666 89 45.999 117s68 42.333 116 43c30.667 0 58 -6.33301 82 -19c24 -12 42.667 -30 56 -54s20 -53 20 -87
v2zM246.002 550l-0.000976562 -1.00098v0v0c0 28.667 -4.66699 51 -14 67s-24.666 24 -45.999 24s-36.666 -7.66699 -45.999 -23s-14 -38.333 -14 -69c0 -28.667 4.66699 -50.667 14 -66s24 -23 44 -23c21.333 0 36.666 7.33301 45.999 22s14 37.334 14 68.001z" />
    <glyph glyph-name="plusminus" unicode="&#xb1;" horiz-adv-x="453" 
d="M278 293v-148h-104v148h-134v108h134v141h104v-141h134v-108h-134zM410 5v-1v0h-368v104h368v-104v1z" />
    <glyph glyph-name="twosuperior" unicode="&#xb2;" horiz-adv-x="305" 
d="M281 548l0.00195312 -1.00293v0l-13 -82h-234v70c12 10.667 24 22 36 34s24.667 25.667 38 41c25.333 29.333 44.333 55 57 77c12 22 18 42.333 18 61c0 17.333 -3.33301 30 -10 38s-15.334 12 -26.001 12c-13.333 0 -26.333 -3.66699 -39 -11s-26 -17 -40 -29l-41 58
c23.333 21.333 45.666 37.333 66.999 48s43.666 16 66.999 16c34.667 -0.666992 62 -11.667 82 -33s30.333 -50.666 31 -87.999c-0.666992 -29.333 -7.66699 -56.666 -21 -81.999s-29.666 -48.666 -48.999 -69.999l-31 -32c-10.667 -10.667 -21 -20 -31 -28
c5.33301 0 10 0.333008 14 1h8h116h1z" />
    <glyph glyph-name="threesuperior" unicode="&#xb3;" horiz-adv-x="303" 
d="M276 587v-1.00586v0v0c0 -25.333 -5.66699 -47.666 -17 -66.999s-25.666 -35 -42.999 -47c-18.667 -12 -39 -20.667 -61 -26s-43.667 -8 -65 -8c-7.33301 0 -15 0.666992 -23 2c-8 0.666992 -15 1.66699 -21 3l-14 72c6.66699 -0.666992 14.667 -1.33398 24 -2.00098
s17.333 -1 24 -1c33.333 0 58.666 7.33301 75.999 22c16.667 14.667 25 33.334 25 56.001c0 10.667 -2.66699 19.334 -8 26.001s-12 11.334 -20 14.001c-6.66699 2.66699 -13.334 4.66699 -20.001 6s-14.667 2 -24 2h-8h-18v76h18h18c8.66699 0 17 0.666992 25 2
c7.33301 1.33301 13 4 17 8c5.33301 4 9.33301 9.33301 12 16c2.66699 6 4 13.333 4 22c0 13.333 -2.66699 23 -8 29c-5.33301 6.66699 -14.666 10 -27.999 10s-26 -2.66699 -38 -8s-25.333 -14.666 -40 -27.999l-38 60c15.333 14 33.666 26.333 54.999 37
c20.667 10.667 44.334 16.334 71.001 17.001c36 0 64.667 -10 86 -30s32 -46.667 32 -80c0 -18.667 -4 -35.334 -12 -50.001s-18.667 -26.667 -32 -36c16 -9.33301 28.667 -21.666 38 -36.999s14 -32.666 14 -51.999z" />
    <glyph glyph-name="acute" unicode="&#xb4;" horiz-adv-x="292" 
d="M265 673v-1v0l-202 -100l-38 64l188 126l53 -90z" />
    <glyph glyph-name="mu" unicode="&#xb5;" horiz-adv-x="506" 
d="M463 38l-0.000976562 -0.998047v0l-88 -54c-10.667 9.33301 -18.667 18.666 -24 27.999s-9 19.666 -11 30.999c-17.333 -18.667 -36 -33 -56 -43s-42 -15 -66 -15c-7.33301 0 -14.666 1.33301 -21.999 4s-13.333 5.33398 -18 8.00098v-28v-29v-14v-126l-114 -24v738
l116 18v-377c0 -16 1.33301 -28.333 4 -37s8 -15.667 16 -21c5.33301 -4 11.333 -7 18 -9c6.66699 -2.66699 14 -4 22 -4c14.667 0 29 5 43 15c14 10.667 25.667 24 35 40v374l116 18v-372c0 -28.667 2 -52.334 6 -71.001s11.333 -34.667 22 -48z" />
    <glyph glyph-name="paragraph" unicode="&#xb6;" horiz-adv-x="537" 
d="M465 -54l0.000976562 -1v0h-86v685h-82v-685h-86v386c-38.667 0 -72.334 8 -101.001 24s-51 38 -67 66c-15.333 28 -23 60.667 -23 98c0 45.333 9.33301 82 28 110s44.667 48.333 78 61c33.333 12 72 18 116 18h224v-764z" />
    <glyph glyph-name="periodcentered" unicode="&#xb7;" horiz-adv-x="278" 
d="M219 282l0.00195312 -1v0v0c0 -24 -8 -44 -24 -60s-36 -24.333 -60 -25c-22.667 0.666992 -41.334 9 -56.001 25c-15.333 16 -23 36 -23 60s8 44 24 60s36 24.333 60 25c23.333 -0.666992 42.666 -9 57.999 -25s23 -36.333 23 -61z" />
    <glyph glyph-name="cedilla" unicode="&#xb8;" horiz-adv-x="239" 
d="M206 -105l-0.000976562 -0.999023v0v0c0 -16 -3.33301 -31.333 -10 -46s-17.334 -26.667 -32.001 -36s-34 -14 -58 -14c-13.333 0 -26.666 2 -39.999 6s-24.666 9 -33.999 15l25 56c8 -4.66699 15.333 -8.33398 22 -11.001c6.66699 -2 14.667 -3 24 -3
s17.333 2.33301 24 7s10 11.667 10 21s-3.33301 16.333 -10 21s-14.667 7 -24 7h-14c-4 -0.666992 -7.33301 -1 -10 -1l-8 14l22 84l62 -6l-12 -42c22 -2.66699 38.333 -10.667 49 -24s16 -30 16 -50z" />
    <glyph glyph-name="onesuperior" unicode="&#xb9;" horiz-adv-x="273" 
d="M248 465h-194v76h60v218c-8.66699 -6 -18 -11.667 -28 -17l-33 -17l-26 58l112 89h60v-330h49v-76v-1z" />
    <glyph glyph-name="ordmasculine" unicode="&#xba;" horiz-adv-x="381" 
d="M348 575c0 -38.667 -5.33398 -73.333 -16.001 -104c-11.333 -30.667 -29 -55 -53 -73c-23.333 -18 -53.666 -27 -90.999 -27c-49.333 0.666992 -88 19.667 -116 57c-28 36.667 -42.333 87 -43 151c0.666992 64 15 114.667 43 152c28 36.667 66.667 55.334 116 56.001
c30 0 57 -7 81 -21c24 -14.667 43.333 -37.334 58 -68.001s22 -70.667 22 -120zM28.999 232.001v81h322v-81h-322zM245.999 575.001v-0.999023v0v0c0 33.333 -2 59.333 -6 78s-10 31.667 -18 39c-8.66699 7.33301 -19 11 -31 11c-20 0 -34.667 -9.66699 -44 -29
c-8.66699 -19.333 -13 -49 -13 -89c0 -42.667 4.66699 -74.667 14 -96s25 -32 47 -32c17.333 0 30.333 9.66699 39 29c8 19.333 12 49.666 12 90.999v-1z" />
    <glyph glyph-name="guillemotright" unicode="&#xbb;" horiz-adv-x="490" 
d="M462 255l-142 -238l-80 58l106 180l-106 181l80 56l142 -238v1zM250 256v-1v0l-140 -238l-81 58l106 180l-106 181l81 56l140 -238v2z" />
    <glyph glyph-name="onequarter" unicode="&#xbc;" horiz-adv-x="802" 
d="M234 260h-194v76h60v218c-8.66699 -6 -18 -11.667 -28 -17l-33 -17l-26 58l112 89h60v-330h49v-76v-1zM675 759l-448 -893h-96l448 893h98h-2zM784 83v-1.00098v0h-28h-3h-3c0 -2.66699 0.333008 -4.66699 1 -6v-3v-72l-87 -14v82v6c0.666992 2 1 4.33301 1 7h-5h-3h-148
v58l104 268h96l-93 -224l-7 -14l-7 -14h9h5h50c0 9.33301 0.666992 19 2 29l4 29c1.33301 10.667 3 21.334 5 32.001l6 31l68 18v-93v-26c-0.666992 -8 -1 -14.667 -1 -20h34v-76v3z" />
    <glyph glyph-name="onehalf" unicode="&#xbd;" horiz-adv-x="802" 
d="M234 260h-194v76h60v218c-8.66699 -6 -18 -11.667 -28 -17l-33 -17l-26 58l112 89h60v-330h49v-76v-1zM654 759l-448 -893h-96l448 893h98h-2zM775 82l0.00195312 -1.00293v0l-13 -82h-234v70c12 10.667 24 22 36 34s24.667 25.667 38 41c25.333 29.333 44.333 55 57 77
c12 22 18 42.333 18 61c0 17.333 -3.33301 30 -10 38s-15.334 12 -26.001 12c-13.333 0 -26.333 -3.66699 -39 -11s-26 -17 -40 -29l-41 58c23.333 21.333 45.666 37.333 66.999 48s43.666 16 66.999 16c34.667 -0.666992 62 -11.667 82 -33s30.333 -50.666 31 -87.999
c-0.666992 -29.333 -7.66699 -56.666 -21 -81.999s-29.666 -48.666 -48.999 -69.999l-31 -32c-10.667 -10.667 -21 -20 -31 -28c5.33301 0 10 0.333008 14 1h8h116h1z" />
    <glyph glyph-name="threequarters" unicode="&#xbe;" horiz-adv-x="831" 
d="M273 381c0 -25.333 -5.66699 -47.6719 -17 -67.0049s-25.666 -35 -42.999 -47c-18.667 -12 -39 -20.667 -61 -26s-43.667 -8 -65 -8c-7.33301 0 -15 0.666992 -23 2c-8 0.666992 -15 1.66699 -21 3l-14 72c6.66699 -0.666992 14.667 -1.33398 24 -2.00098
s17.333 -1 24 -1c33.333 0 58.666 7.33301 75.999 22c16.667 14.667 25 33.334 25 56.001c0 10.667 -2.66699 19.334 -8 26.001s-12 11.334 -20 14.001c-6.66699 2.66699 -13.334 4.66699 -20.001 6s-14.667 2 -24 2h-8h-18v76h18h18c8.66699 0 17 0.666992 25 2
c7.33301 1.33301 13 4 17 8c5.33301 4 9.33301 9.33301 12 16c2.66699 6 4 13.333 4 22c0 13.333 -2.66699 23 -8 29c-5.33301 6.66699 -14.666 10 -27.999 10s-26 -2.66699 -38 -8s-25.333 -14.666 -40 -27.999l-38 60c15.333 14 33.666 26.333 54.999 37
c20.667 10.667 44.334 16.334 71.001 17.001c36 0 64.667 -10 86 -30s32 -46.667 32 -80c0 -18.667 -4 -35.334 -12 -50.001s-18.667 -26.667 -32 -36c16 -9.33301 28.667 -21.666 38 -36.999s14 -32.666 14 -51.999zM694 758.994l-448 -893h-96l448 893h98h-2zM814 82.9941
v-1.00098v0h-28h-3h-3c0 -2.66699 0.333008 -4.66699 1 -6v-3v-72l-87 -14v82v6c0.666992 2 1 4.33301 1 7h-5h-3h-148v58l104 268h96l-93 -224l-7 -14l-7 -14h9h5h50c0 9.33301 0.666992 19 2 29l4 29c1.33301 10.667 3 21.334 5 32.001l6 31l68 18v-93v-26
c-0.666992 -8 -1 -14.667 -1 -20h34v-76v3z" />
    <glyph glyph-name="questiondown" unicode="&#xbf;" horiz-adv-x="426" 
d="M390 -127c-22 -21.333 -47.332 -38.665 -75.999 -51.998s-60.667 -20 -96 -20c-31.333 0 -59.666 6.66699 -84.999 20s-45.333 32 -60 56c-14.667 24.667 -22 54.334 -22 89.001c0 29.333 4.66699 54.666 14 75.999s20.666 39 33.999 53s25.666 25 36.999 33
c24 18 40.667 37.667 50 59s13.666 45.333 12.999 72v24c-0.666992 8 -1.66699 16 -3 24h98c2 -11.333 3.66699 -22.333 5 -33s2 -20.667 2 -30c0 -34.667 -6 -65.334 -18 -92.001c-11.333 -26.667 -28.333 -50 -51 -70c-13.333 -10.667 -25 -20.667 -35 -30
c-9.33301 -9.33301 -16.666 -19.333 -21.999 -30s-8 -24 -8 -40c0 -22 6.66699 -39 20 -51s30.333 -18 51 -18c21.333 0.666992 40.333 5.66699 57 15c17.333 9.33301 32 19.666 44 30.999l51 -83v-3zM318.001 457.001v-1v0v0c-0.666992 -22 -8.33398 -40.667 -23.001 -56
c-14.667 -14.667 -33.334 -22.334 -56.001 -23.001c-22 0.666992 -40.333 8.33398 -55 23.001c-14.667 15.333 -22 34 -22 56c0 22.667 7.33301 41.334 22 56.001s33 22.334 55 23.001c22.667 -0.666992 41.334 -8.33398 56.001 -23.001s22.334 -33.334 23.001 -56.001v1z
" />
    <glyph glyph-name="Agrave" unicode="&#xc0;" horiz-adv-x="524" 
d="M399 0l-44 176h-188l-46 -176h-125l200 708h142l192 -708h-131zM331 273l-46 191.999l-10 48c-4 19.333 -7.33301 37 -10 53c-2.66699 15.333 -4 24.333 -4 27c0 -2.66699 -1.33301 -11.667 -4 -27s-6 -32.666 -10 -51.999c-4 -18.667 -7.66699 -34.667 -11 -48l-45 -192
h140v-1zM375 821.999v-1v0l-37 -64l-203 98l52 91l188 -126v2z" />
    <glyph glyph-name="Aacute" unicode="&#xc1;" horiz-adv-x="524" 
d="M399 0l-44 176h-188l-46 -176h-125l200 708h142l192 -708h-131zM331 273l-46 191.999l-10 48c-4 19.333 -7.33301 37 -10 53c-2.66699 15.333 -4 24.333 -4 27c0 -2.66699 -1.33301 -11.667 -4 -27s-6 -32.666 -10 -51.999c-4 -18.667 -7.66699 -34.667 -11 -48l-45 -192
h140v-1zM397 856.999v-1v0l-203 -100l-38 64l188 126l54 -90z" />
    <glyph glyph-name="Acircumflex" unicode="&#xc2;" horiz-adv-x="524" 
d="M399 0l-44 176h-188l-46 -176h-125l200 708h142l192 -708h-131zM331 273l-46 191.999l-10 48c-4 19.333 -7.33301 37 -10 53c-2.66699 15.333 -4 24.333 -4 27c0 -2.66699 -1.33301 -11.667 -4 -27s-6 -32.666 -10 -51.999c-4 -18.667 -7.66699 -34.667 -11 -48l-45 -192
h140v-1zM432 821.999v-1v0l-43 -66l-122 77l-120 -77l-38 66l162 130l160 -130z" />
    <glyph glyph-name="Atilde" unicode="&#xc3;" horiz-adv-x="524" 
d="M399 0l-44 176h-188l-46 -176h-125l200 708h142l192 -708h-131zM331 273l-46 191.999l-10 48c-4 19.333 -7.33301 37 -10 53c-2.66699 15.333 -4 24.333 -4 27c0 -2.66699 -1.33301 -11.667 -4 -27s-6 -32.666 -10 -51.999c-4 -18.667 -7.66699 -34.667 -11 -48l-45 -192
h140v-1zM422 821.999v-1.00098v0v0c-13.333 -19.333 -28.666 -33.666 -45.999 -42.999s-38.666 -14 -63.999 -14c-17.333 0.666992 -31.333 3.66699 -42 9l-32 18c-10.667 6 -24.334 9 -41.001 9c-12.667 0 -24 -3.33301 -34 -10c-10.667 -6 -20.334 -14.333 -29.001 -25
l-32 72c13.333 20 28.333 35 45 45c16 10 36 15 60 15c17.333 -0.666992 32 -3.66699 44 -9c11.333 -5.33301 22.333 -11 33 -17c10.667 -5.33301 24 -8 40 -8c13.333 0 25.333 3.33301 36 10c10.667 6 20 13.667 28 23l33 -74h1z" />
    <glyph glyph-name="Adieresis" unicode="&#xc4;" horiz-adv-x="524" 
d="M399 0l-44 176h-188l-46 -176h-125l200 708h142l192 -708h-131zM331 273l-46 191.999l-10 48c-4 19.333 -7.33301 37 -10 53c-2.66699 15.333 -4 24.333 -4 27c0 -2.66699 -1.33301 -11.667 -4 -27s-6 -32.666 -10 -51.999c-4 -18.667 -7.66699 -34.667 -11 -48l-45 -192
h140v-1zM232 835.999c-0.666992 -18.667 -7 -34 -19 -46c-12 -12.667 -27.333 -19 -46 -19s-34.667 6.33301 -48 19c-13.333 12 -20 27.333 -20 46s6 34 18 46s27.333 18 46 18c19.333 0 35.666 -6 48.999 -18c12.667 -12 19.334 -27.333 20.001 -46zM434 836.999
l0.000976562 -1v0v0c0 -18.667 -6 -34 -18 -46c-12 -12.667 -27.333 -19 -46 -19s-34.667 6.33301 -48 19c-13.333 12 -20.333 27.333 -21 46c0.666992 18.667 7 34 19 46s27.333 18 46 18c19.333 0 35.666 -6 48.999 -18s20 -27.333 20 -46z" />
    <glyph glyph-name="Aring" unicode="&#xc5;" horiz-adv-x="524" 
d="M399 0l-44 176h-188l-46 -176h-125l200 708h142l192 -708h-131zM331 273l-46 191.999l-10 48c-4 19.333 -7.33301 37 -10 53c-2.66699 15.333 -4 24.333 -4 27c0 -2.66699 -1.33301 -11.667 -4 -27s-6 -32.666 -10 -51.999c-4 -18.667 -7.66699 -34.667 -11 -48l-45 -192
h140v-1zM373 836.999c0 -18.667 -4.66699 -35.667 -14 -51s-22 -27.666 -38 -36.999s-33.333 -14 -52 -14c-30.667 0.666992 -56 10.667 -76 30s-30.333 43.666 -31 72.999c0.666992 29.333 11 53.666 31 72.999s44.667 29.333 74 30c29.333 -0.666992 54 -10.667 74 -30
s30.333 -43.666 31 -72.999zM315 838.999l-0.000976562 -1v0v0c-0.666992 13.333 -5.66699 24.666 -15 33.999s-20.666 14 -33.999 14c-14 0 -25 -4.66699 -33 -14s-12 -20.666 -12 -33.999s4.66699 -24.666 14 -33.999c8.66699 -9.33301 19.334 -14 32.001 -14
c13.333 0 24.666 4.66699 33.999 14c8.66699 9.33301 13 20.666 13 33.999z" />
    <glyph glyph-name="AE" unicode="&#xc6;" horiz-adv-x="744" 
d="M723 1h-362v175h-174l-86 -175h-133l370 708h375l-16 -112h-215v-173h181v-110h-181v-200h242v-114zM362 483v0c0 9.33301 0.333008 20 1 32c1.33301 12.667 2 23 2 31l-127 -264h124v202v-1z" />
    <glyph glyph-name="Ccedilla" unicode="&#xc7;" horiz-adv-x="506" 
d="M483 48l-0.00488281 -1.00098v0v0c-21.333 -20 -46.666 -35 -75.999 -45s-63 -15.333 -101 -16l-7 -24c22 -3.33301 38.333 -11.333 49 -24c10.667 -13.333 16 -30 16 -50c0 -16 -3.33301 -31.333 -10 -46s-17.334 -26.667 -32.001 -36s-34 -14 -58 -14
c-13.333 0 -26.666 2 -39.999 6s-24.666 9 -33.999 15l24 56c8 -4.66699 15.333 -8.33398 22 -11.001c6.66699 -2 14.667 -3 24 -3s17.333 2.33301 24 7s10 11.667 10 21s-3.33301 16.333 -10 21s-14.667 7 -24 7c-5.33301 0 -10 -0.333008 -14 -1h-10l-8 14l18 68
c-24.667 6.66699 -47.667 16.667 -69 30c-22 13.333 -40.667 29.666 -56 48.999c-26.667 32 -46.667 69.667 -60 113s-20 96.333 -20 159c0 50 5.33301 97.333 16 142c11.333 44.667 28.333 84.334 51 119.001s51.334 62 86.001 82s75.667 30 123 30c31.333 0 61 -5 89 -15
s50.667 -23.667 68 -41l-58 -90c-16 14 -32.667 24.333 -50 31c-16.667 6.66699 -34.667 10 -54 10c-37.333 -0.666992 -66.333 -13 -87 -37s-35 -54.667 -43 -92s-12 -76.666 -12 -117.999c0 -34.667 1.33301 -64 4 -88c2 -24 5.66699 -44.667 11 -62
s12 -32.666 20 -45.999c14 -23.333 30.333 -42 49 -56c18.667 -13.333 39.334 -20 62.001 -20c21.333 0 41.333 3.33301 60 10s37.334 18 56.001 34l54 -86z" />
    <glyph glyph-name="Egrave" unicode="&#xc8;" horiz-adv-x="449" 
d="M428 1h-358v708h352l-14 -106h-216v-182h180v-104h-180v-209h236v-108v1zM347 822v-1v0l-36 -64l-203 98l51 91l188 -126v2z" />
    <glyph glyph-name="Eacute" unicode="&#xc9;" horiz-adv-x="449" 
d="M428 1h-358v708h352l-14 -106h-216v-182h180v-104h-180v-209h236v-108v1zM358 857v-1v0l-203 -100l-38 64l187 126l54 -90v1z" />
    <glyph glyph-name="Ecircumflex" unicode="&#xca;" horiz-adv-x="449" 
d="M428 1h-358v708h352l-14 -106h-216v-182h180v-104h-180v-209h236v-108v1zM409 822v-1v0l-43 -66l-122 77l-120 -77l-38 66l162 130l160 -130z" />
    <glyph glyph-name="Edieresis" unicode="&#xcb;" horiz-adv-x="449" 
d="M428 1h-358v708h352l-14 -106h-216v-182h180v-104h-180v-209h236v-108v1zM211 836c-0.666992 -18.667 -7 -34 -19 -46c-12 -12.667 -27.333 -19 -46 -19s-34.667 6.33301 -48 19c-13.333 12 -20 27.333 -20 46s6 34 18 46s27.333 18 46 18c19.333 0 35.666 -6 48.999 -18
c12.667 -12 19.334 -27.333 20.001 -46zM413 837l0.000976562 -1v0v0c0 -18.667 -6 -34 -18 -46c-12 -12.667 -27.333 -19 -46 -19s-34.667 6.33301 -48 19c-13.333 12 -20.333 27.333 -21 46c0.666992 18.667 7 34 19 46s27.333 18 46 18c19.333 0 35.666 -6 48.999 -18
s20 -27.333 20 -46z" />
    <glyph glyph-name="Igrave" unicode="&#xcc;" horiz-adv-x="261" 
d="M70 0v708h120v-708h-120zM228 822v-1v0l-37 -64l-203 98l52 91l188 -126v2z" />
    <glyph glyph-name="Iacute" unicode="&#xcd;" horiz-adv-x="261" 
d="M70 0v708h120v-708h-120zM274 857v-1v0l-203 -100l-38 64l187 126l54 -90v1z" />
    <glyph glyph-name="Icircumflex" unicode="&#xce;" horiz-adv-x="261" 
d="M70 0v708h120v-708h-120zM292 822v-1v0l-43 -66l-122 77l-120 -77l-38 66l162 130l161 -130v1z" />
    <glyph glyph-name="Idieresis" unicode="&#xcf;" horiz-adv-x="261" 
d="M70 0v708h120v-708h-120zM95 836c-0.666992 -18.667 -7 -34 -19 -46c-12 -12.667 -27.333 -19 -46 -19s-34.667 6.33301 -48 19c-13.333 12 -20.333 27.333 -21 46c0.666992 18.667 7 34 19 46s27.333 18 46 18c20 0 36.333 -6 49 -18c13.333 -12 20.333 -27.333 21 -46
h-1zM298 837v-1v0v0c0 -18.667 -6.33301 -34 -19 -46c-12 -12.667 -27.333 -19 -46 -19s-34.667 6.33301 -48 19c-13.333 12 -20 27.333 -20 46s6 34 18 46c12.667 12 28.334 18 47.001 18c19.333 0 35.666 -6 48.999 -18s20 -27.333 20 -46z" />
    <glyph glyph-name="Eth" unicode="&#xd0;" horiz-adv-x="559" 
d="M523 360c0 -42.667 -3.99902 -85.333 -11.999 -128c-8 -42 -21.333 -80.333 -40 -115s-44.667 -62.667 -78 -84c-32.667 -21.333 -74.334 -32.333 -125.001 -33h-196v309h-56v106h56v294h170c72 -0.666992 128.333 -15.667 169 -45s69 -70 85 -122
s23.667 -112.667 23 -182h4zM388.001 360.001l0.00292969 -1v0v0c0 23.333 -1.33301 49 -4 77s-8.33398 54.667 -17.001 80s-22 46 -40 62s-42.333 24.333 -73 25h-64v-188h106l-5 -106h-100v-204h68c47.333 0 80.666 21.333 99.999 64s28.666 106 27.999 190z" />
    <glyph glyph-name="Ntilde" unicode="&#xd1;" horiz-adv-x="581" 
d="M513 -3l-125.998 0.000976562l-148 333c-11.333 25.333 -22.333 52.333 -33 81l-30 81c2 -21.333 3.66699 -43.666 5 -66.999c1.33301 -22.667 2.66602 -44 3.99902 -64s2 -36 2 -48v-158c0 -52 0.333008 -104.333 1 -157h-116v708h122l155 -343
c5.33301 -12.667 10.333 -25.334 15 -38.001l18 -45l24 -68c-1.33301 10.667 -2.33301 21 -3 31s-1.33398 19 -2.00098 27l-4 71c-1.33301 24 -2 47.667 -2 71c0 49.333 -0.333008 98.666 -1 147.999v148h116v-708zM445.002 822.001v-1.00098v0v0
c-13.333 -19.333 -28.666 -33.666 -45.999 -42.999s-38.666 -14 -63.999 -14c-17.333 0.666992 -31.333 3.66699 -42 9l-32 18c-10.667 6 -24.334 9 -41.001 9c-12.667 0 -24 -3.33301 -34 -10c-10.667 -6 -20.334 -14.333 -29.001 -25l-32 72c14 20 29 35 45 45
s36 15 60 15c18 -0.666992 32.667 -3.66699 44 -9s22.333 -11 33 -17c10.667 -5.33301 24 -8 40 -8c13.333 0 25.333 3.33301 36 10c10.667 6 20 13.667 28 23l33 -74h1z" />
    <glyph glyph-name="Ograve" unicode="&#xd2;" horiz-adv-x="608" 
d="M571 362c0 -44.667 -3.99902 -89.002 -11.999 -133.002s-21.667 -84.333 -41 -121s-46 -66 -80 -88c-34.667 -22 -78 -33.333 -130 -34c-49.333 0.666992 -91 11.334 -125 32.001c-34.667 20.667 -62.334 48.334 -83.001 83.001c-20 34.667 -34.667 73.334 -44 116.001
c-9.33301 42 -14 84.667 -14 128c0 80 10.667 148 32 204s51.333 98.667 90 128s84.667 44 138 44c49.333 -0.666992 91 -11.667 125 -33c34 -20.667 61.333 -48.334 82 -83.001s35.667 -73 45 -115c9.33301 -41.333 14 -83.333 14 -126zM433.001 363.998
c0 25.333 -1 52.667 -3 82s-7 57.333 -15 84s-21 48.667 -39 66s-43 26.333 -75 27c-30.667 -0.666992 -54.667 -10.334 -72 -29.001s-30 -42 -38 -70s-13 -56.667 -15 -86s-3 -55 -3 -77c0 -24 0.666992 -51.333 2 -82c2 -30.667 7 -60.667 15 -90
s21.333 -53.666 40 -72.999s44.334 -29.333 77.001 -30c31.333 0.666992 55.666 10 72.999 28s30 41 38 69c8 28.667 12.667 59 14 91s2 62 2 90h-1zM398.001 821.999v-1v0l-37 -64l-203 98l52 91l188 -126v2z" />
    <glyph glyph-name="Oacute" unicode="&#xd3;" horiz-adv-x="608" 
d="M571 362c0 -44.667 -3.99902 -89.002 -11.999 -133.002s-21.667 -84.333 -41 -121s-46 -66 -80 -88c-34.667 -22 -78 -33.333 -130 -34c-49.333 0.666992 -91 11.334 -125 32.001c-34.667 20.667 -62.334 48.334 -83.001 83.001c-20 34.667 -34.667 73.334 -44 116.001
c-9.33301 42 -14 84.667 -14 128c0 80 10.667 148 32 204s51.333 98.667 90 128s84.667 44 138 44c49.333 -0.666992 91 -11.667 125 -33c34 -20.667 61.333 -48.334 82 -83.001s35.667 -73 45 -115c9.33301 -41.333 14 -83.333 14 -126zM433.001 363.998
c0 25.333 -1 52.667 -3 82s-7 57.333 -15 84s-21 48.667 -39 66s-43 26.333 -75 27c-30.667 -0.666992 -54.667 -10.334 -72 -29.001s-30 -42 -38 -70s-13 -56.667 -15 -86s-3 -55 -3 -77c0 -24 0.666992 -51.333 2 -82c2 -30.667 7 -60.667 15 -90
s21.333 -53.666 40 -72.999s44.334 -29.333 77.001 -30c31.333 0.666992 55.666 10 72.999 28s30 41 38 69c8 28.667 12.667 59 14 91s2 62 2 90h-1zM418.001 856.999v-1v0l-203 -100l-38 64l188 126l54 -90z" />
    <glyph glyph-name="Ocircumflex" unicode="&#xd4;" horiz-adv-x="608" 
d="M571 362c0 -44.667 -3.99902 -89.002 -11.999 -133.002s-21.667 -84.333 -41 -121s-46 -66 -80 -88c-34.667 -22 -78 -33.333 -130 -34c-49.333 0.666992 -91 11.334 -125 32.001c-34.667 20.667 -62.334 48.334 -83.001 83.001c-20 34.667 -34.667 73.334 -44 116.001
c-9.33301 42 -14 84.667 -14 128c0 80 10.667 148 32 204s51.333 98.667 90 128s84.667 44 138 44c49.333 -0.666992 91 -11.667 125 -33c34 -20.667 61.333 -48.334 82 -83.001s35.667 -73 45 -115c9.33301 -41.333 14 -83.333 14 -126zM433.001 363.998
c0 25.333 -1 52.667 -3 82s-7 57.333 -15 84s-21 48.667 -39 66s-43 26.333 -75 27c-30.667 -0.666992 -54.667 -10.334 -72 -29.001s-30 -42 -38 -70s-13 -56.667 -15 -86s-3 -55 -3 -77c0 -24 0.666992 -51.333 2 -82c2 -30.667 7 -60.667 15 -90
s21.333 -53.666 40 -72.999s44.334 -29.333 77.001 -30c31.333 0.666992 55.666 10 72.999 28s30 41 38 69c8 28.667 12.667 59 14 91s2 62 2 90h-1zM466.001 821.999v-1v0l-43 -66l-122 77l-120 -77l-38 66l162 130l161 -130v1z" />
    <glyph glyph-name="Otilde" unicode="&#xd5;" horiz-adv-x="608" 
d="M571 362c0 -44.667 -3.99902 -89.002 -11.999 -133.002s-21.667 -84.333 -41 -121s-46 -66 -80 -88c-34.667 -22 -78 -33.333 -130 -34c-49.333 0.666992 -91 11.334 -125 32.001c-34.667 20.667 -62.334 48.334 -83.001 83.001c-20 34.667 -34.667 73.334 -44 116.001
c-9.33301 42 -14 84.667 -14 128c0 80 10.667 148 32 204s51.333 98.667 90 128s84.667 44 138 44c49.333 -0.666992 91 -11.667 125 -33c34 -20.667 61.333 -48.334 82 -83.001s35.667 -73 45 -115c9.33301 -41.333 14 -83.333 14 -126zM433.001 363.998
c0 25.333 -1 52.667 -3 82s-7 57.333 -15 84s-21 48.667 -39 66s-43 26.333 -75 27c-30.667 -0.666992 -54.667 -10.334 -72 -29.001s-30 -42 -38 -70s-13 -56.667 -15 -86s-3 -55 -3 -77c0 -24 0.666992 -51.333 2 -82c2 -30.667 7 -60.667 15 -90
s21.333 -53.666 40 -72.999s44.334 -29.333 77.001 -30c31.333 0.666992 55.666 10 72.999 28s30 41 38 69c8 28.667 12.667 59 14 91s2 62 2 90h-1zM456.001 821.999l-0.000976562 -1.00098v0v0c-13.333 -19.333 -28.666 -33.666 -45.999 -42.999s-38.666 -14 -63.999 -14
c-17.333 0.666992 -31.333 3.66699 -42 9l-32 18c-10.667 6 -24 9 -40 9c-12.667 0 -24.334 -3.33301 -35.001 -10c-10 -6 -19.333 -14.333 -28 -25l-33 72c14 20 29 35 45 45s36 15 60 15c18 -0.666992 32.667 -3.66699 44 -9s22.333 -11 33 -17
c10.667 -5.33301 24 -8 40 -8c13.333 0 25.333 3.33301 36 10c10.667 6 20 13.667 28 23l32 -74h2z" />
    <glyph glyph-name="Odieresis" unicode="&#xd6;" horiz-adv-x="608" 
d="M571 362c0 -44.667 -3.99902 -89.002 -11.999 -133.002s-21.667 -84.333 -41 -121s-46 -66 -80 -88c-34.667 -22 -78 -33.333 -130 -34c-49.333 0.666992 -91 11.334 -125 32.001c-34.667 20.667 -62.334 48.334 -83.001 83.001c-20 34.667 -34.667 73.334 -44 116.001
c-9.33301 42 -14 84.667 -14 128c0 80 10.667 148 32 204s51.333 98.667 90 128s84.667 44 138 44c49.333 -0.666992 91 -11.667 125 -33c34 -20.667 61.333 -48.334 82 -83.001s35.667 -73 45 -115c9.33301 -41.333 14 -83.333 14 -126zM433.001 363.998
c0 25.333 -1 52.667 -3 82s-7 57.333 -15 84s-21 48.667 -39 66s-43 26.333 -75 27c-30.667 -0.666992 -54.667 -10.334 -72 -29.001s-30 -42 -38 -70s-13 -56.667 -15 -86s-3 -55 -3 -77c0 -24 0.666992 -51.333 2 -82c2 -30.667 7 -60.667 15 -90
s21.333 -53.666 40 -72.999s44.334 -29.333 77.001 -30c31.333 0.666992 55.666 10 72.999 28s30 41 38 69c8 28.667 12.667 59 14 91s2 62 2 90h-1zM265.001 835.999c0 -18.667 -6 -34 -18 -46c-12 -12.667 -27.333 -19 -46 -19s-34.667 6.33301 -48 19
c-13.333 12 -20.333 27.333 -21 46c0.666992 18.667 7 34 19 46s27.333 18 46 18c20 0 36.333 -6 49 -18c13.333 -12 20 -27.333 20 -46h-1zM468.001 836.999v-1v0v0c0 -18.667 -6.33301 -34 -19 -46c-12 -12.667 -27.333 -19 -46 -19s-34.667 6.33301 -48 19
c-13.333 12 -20 27.333 -20 46s6 34 18 46c12.667 12 28.334 18 47.001 18c19.333 0 35.666 -6 48.999 -18s20 -27.333 20 -46z" />
    <glyph glyph-name="multiply" unicode="&#xd7;" horiz-adv-x="570" 
d="M510 167v-1v0l-87 -87l-140 142l-140 -140l-82 81l140 139l-142 144l86 86l142 -142l140 140l82 -81l-140 -140l142 -140z" />
    <glyph glyph-name="Oslash" unicode="&#xd8;" horiz-adv-x="608" 
d="M569 363c0 -46 -4.00195 -91.001 -12.002 -135.001s-22 -84 -42 -120s-47 -64.667 -81 -86s-76.667 -32.333 -128 -33c-25.333 0 -49 2.66699 -71 8c-21.333 5.33301 -41 14 -59 26l-62 -114l-61 44l64 122c-25.333 30.667 -44.666 69 -57.999 115s-20 98.333 -20 157
c0 81.333 11 150 33 206c21.333 56 52 98 92 126c40 28.667 87 43 141 43c28 0 53 -3.33301 75 -10c22.667 -6.66699 42.334 -15.667 59.001 -27l54 102l64 -41l-60 -114c24.667 -34.667 42.667 -74.667 54 -120s17 -94.666 17 -147.999zM385.998 581.999
c-9.33301 10.667 -20.668 18.6689 -34.001 24.002s-28.666 8 -45.999 8c-24 0 -45.333 -7 -64 -21s-33 -33.667 -43 -59c-8 -20.667 -14 -45 -18 -73s-6 -60 -6 -96c0 -30.667 1.33301 -59.334 4 -86.001s6.66699 -49.334 12 -68.001l194 371h1zM432.996 348.001
l0.000976562 -1.00195v0v0c0 30.667 -1 58 -3 82c-2.66699 23.333 -6.33398 43.666 -11.001 60.999l-191 -365c10.667 -9.33301 23 -16.666 37 -21.999s28.333 -8 43 -8c21.333 0 40 4.66699 56 14c15.333 9.33301 28.333 24 39 44c10 18.667 17.667 43.334 23 74.001
s8 70.334 8 119.001z" />
    <glyph glyph-name="Ugrave" unicode="&#xd9;" horiz-adv-x="571" 
d="M504 711l-0.000976562 -500.999c0 -24 -1 -44 -3 -60c-1.33301 -16 -4 -30 -8 -42s-10 -23.333 -18 -34c-16 -24.667 -39.333 -45 -70 -61c-31.333 -16 -72 -24.333 -122 -25c-48 0 -88 7.33301 -120 22s-56.667 38 -74 70c-6.66699 12 -12 24 -16 36
c-3.33301 12 -5.66602 25.333 -6.99902 40s-2 32.667 -2 54v498h120v-482c0 -24 2 -46.667 6 -68c4 -20.667 13.333 -37.334 28 -50.001s36.667 -19 66 -19c28 0 49.333 5.33301 64 16s24.667 25.667 30 45s8 41.333 8 66v492h120zM407.999 822.001v-1v0l-37 -64l-202 98
l51 91l188 -126v2z" />
    <glyph glyph-name="Uacute" unicode="&#xda;" horiz-adv-x="571" 
d="M504 711l-0.000976562 -500.999c0 -24 -1 -44 -3 -60c-1.33301 -16 -4 -30 -8 -42s-10 -23.333 -18 -34c-16 -24.667 -39.333 -45 -70 -61c-31.333 -16 -72 -24.333 -122 -25c-48 0 -88 7.33301 -120 22s-56.667 38 -74 70c-6.66699 12 -12 24 -16 36
c-3.33301 12 -5.66602 25.333 -6.99902 40s-2 32.667 -2 54v498h120v-482c0 -24 2 -46.667 6 -68c4 -20.667 13.333 -37.334 28 -50.001s36.667 -19 66 -19c28 0 49.333 5.33301 64 16s24.667 25.667 30 45s8 41.333 8 66v492h120zM408.999 857.001v-1v0l-202 -100l-38 64
l188 126l53 -90z" />
    <glyph glyph-name="Ucircumflex" unicode="&#xdb;" horiz-adv-x="571" 
d="M504 711l-0.000976562 -500.999c0 -24 -1 -44 -3 -60c-1.33301 -16 -4 -30 -8 -42s-10 -23.333 -18 -34c-16 -24.667 -39.333 -45 -70 -61c-31.333 -16 -72 -24.333 -122 -25c-48 0 -88 7.33301 -120 22s-56.667 38 -74 70c-6.66699 12 -12 24 -16 36
c-3.33301 12 -5.66602 25.333 -6.99902 40s-2 32.667 -2 54v498h120v-482c0 -24 2 -46.667 6 -68c4 -20.667 13.333 -37.334 28 -50.001s36.667 -19 66 -19c28 0 49.333 5.33301 64 16s24.667 25.667 30 45s8 41.333 8 66v492h120zM452.999 822.001v-1v0l-43 -66l-122 77
l-120 -77l-38 66l162 130l160 -130z" />
    <glyph glyph-name="Udieresis" unicode="&#xdc;" horiz-adv-x="571" 
d="M504 711l-0.000976562 -500.999c0 -24 -1 -44 -3 -60c-1.33301 -16 -4 -30 -8 -42s-10 -23.333 -18 -34c-16 -24.667 -39.333 -45 -70 -61c-31.333 -16 -72 -24.333 -122 -25c-48 0 -88 7.33301 -120 22s-56.667 38 -74 70c-6.66699 12 -12 24 -16 36
c-3.33301 12 -5.66602 25.333 -6.99902 40s-2 32.667 -2 54v498h120v-482c0 -24 2 -46.667 6 -68c4 -20.667 13.333 -37.334 28 -50.001s36.667 -19 66 -19c28 0 49.333 5.33301 64 16s24.667 25.667 30 45s8 41.333 8 66v492h120zM248.999 836.001
c-0.666992 -18.667 -7.00098 -34 -19.001 -46c-12 -12.667 -27.333 -19 -46 -19s-34.667 6.33301 -48 19c-13.333 12 -20.333 27.333 -21 46c0.666992 18.667 7 34 19 46s27.333 18 46 18c20 0 36.667 -6 50 -18c12.667 -12 19.334 -27.333 20.001 -46h-1zM451.998 837.001
l0.00195312 -1v0v0c0 -18.667 -6 -34 -18 -46c-12.667 -12.667 -28.334 -19 -47.001 -19s-34.667 6.33301 -48 19c-13.333 12 -20.333 27.333 -21 46c0 18.667 6.33301 34 19 46c12 12 27.333 18 46 18c19.333 0 35.666 -6 48.999 -18s20 -27.333 20 -46v1z" />
    <glyph glyph-name="Yacute" unicode="&#xdd;" horiz-adv-x="485" 
d="M501 707l-197.999 -444v-264h-124v265l-194 444h144l85 -238l12 -41l18 -62l16 61c5.33301 19.333 9.66602 33.333 12.999 42l86 238h141zM358.001 857v-1v0l-203 -100l-38 64l187 126l54 -90v1z" />
    <glyph glyph-name="Thorn" unicode="&#xde;" horiz-adv-x="506" 
d="M491 371c0 -33.333 -5.00098 -65 -15.001 -95c-9.33301 -29.333 -26 -55.333 -50 -78c-20 -18.667 -43.667 -32.334 -71 -41.001c-28 -9.33301 -60.333 -14 -97 -14h-68v-144h-120v708h120v-123h50c34.667 0 66.334 -2.66699 95.001 -8
c28 -5.33301 52 -14.666 72 -27.999c27.333 -18.667 48.333 -42.667 63 -72s22 -64 22 -104zM359.999 364l0.00195312 -1v0v0c0 40 -9 69 -27 87c-17.333 18.667 -46 28 -86 28h-56v-232h56c41.333 0 70.666 10 87.999 30s25.666 50 24.999 90v-2z" />
    <glyph glyph-name="germandbls" unicode="&#xdf;" horiz-adv-x="537" 
d="M503 196l-0.00488281 -1v0v0c0 -41.333 -8 -77.333 -24 -108s-38.667 -54.667 -68 -72s-64 -26 -104 -26c-17.333 0 -32.666 1.33301 -45.999 4s-24.333 6.33398 -33 11.001l22 94c6.66699 -4 14 -7 22 -9s16 -3 24 -3c26.667 0.666992 47.334 10.667 62.001 30
c14.667 20 22 45.333 22 76c0 22.667 -4 40.667 -12 54s-18 24.666 -30 33.999s-25 18.333 -39 27c-21.333 13.333 -38 26.666 -50 39.999s-18 31.333 -18 54c0.666992 22 6.33398 39.333 17.001 52s22 23.334 34 32.001c12 8 22 18 30 30
c8.66699 11.333 13.334 27.666 14.001 48.999c0 24 -6 42.667 -18 56s-28.667 20 -50 20c-24.667 0 -42.334 -9.66699 -53.001 -29c-10.667 -18.667 -16 -49 -16 -91v-406c0 -20 -0.666992 -39.667 -2 -59c-1.33301 -20 -4 -38 -8 -54h-115c4 20 6.66699 41.333 8 64
s2 45.334 2 68.001v286h-64v100h64c0 72 15.333 125.333 46 160c30.667 35.333 77.667 53 141 53c39.333 0 73.333 -7.33301 102 -22c28 -14.667 50 -34.667 66 -60s24 -54.666 24 -87.999c-0.666992 -29.333 -7.66699 -55 -21 -77s-31.333 -39.667 -54 -53
c-13.333 -6.66699 -23.666 -11.334 -30.999 -14.001s-11 -7.33398 -11 -14.001s6.66699 -12.667 20 -18c13.333 -6 30 -15 50 -27c15.333 -8.66699 30.333 -19.667 45 -33s27.334 -30.666 38.001 -51.999c10 -21.333 15 -48 15 -80z" />
    <glyph glyph-name="agrave" unicode="&#xe0;" horiz-adv-x="467" 
d="M425 58l-63.9961 -78.002c-13.333 5.33301 -25.333 14 -36 26s-18.334 24.667 -23.001 38c-16 -17.333 -33.667 -30.666 -53 -39.999c-20 -9.33301 -43.333 -14 -70 -14c-37.333 0 -67 7.33301 -89 22s-37.667 34 -47 58s-14 50 -14 78
c0.666992 54.667 20 97.334 58 128.001c38.667 31.333 92.667 47.333 162 48h12h14v38c0 15.333 -0.666992 28.333 -2 39s-4.33301 19 -9 25c-4.66699 6.66699 -10.334 11.334 -17.001 14.001s-15 4 -25 4c-26 0 -50.667 -5.33301 -74 -16s-43.666 -24 -60.999 -40l-47 80
c29.333 21.333 60.666 38 93.999 50s67.666 18 102.999 18c38.667 0 70.667 -7.66699 96 -23s42.666 -37.333 51.999 -66c3.33301 -10.667 5.66602 -22.334 6.99902 -35.001s2 -27 2 -43v-57v-67v-58v-30c0 -25.333 2.66699 -46 8 -62
c4.66699 -15.333 14.334 -28 29.001 -38zM280.004 128.998l0.99707 112.001h-10h-6c-40 0 -68.667 -8 -86 -24s-25.666 -37.333 -24.999 -64c0 -22.667 4.66699 -40.334 14 -53.001s23.333 -19 42 -19c14.667 0 28.334 4 41.001 12c12.667 8.66699 22.334 19.667 29.001 33
v3zM326.001 637.999v-1v0l-36 -64l-203 98l51 91l188 -126v2z" />
    <glyph glyph-name="aacute" unicode="&#xe1;" horiz-adv-x="467" 
d="M425 58l-63.9961 -78.002c-13.333 5.33301 -25.333 14 -36 26s-18.334 24.667 -23.001 38c-16 -17.333 -33.667 -30.666 -53 -39.999c-20 -9.33301 -43.333 -14 -70 -14c-37.333 0 -67 7.33301 -89 22s-37.667 34 -47 58s-14 50 -14 78
c0.666992 54.667 20 97.334 58 128.001c38.667 31.333 92.667 47.333 162 48h12h14v38c0 15.333 -0.666992 28.333 -2 39s-4.33301 19 -9 25c-4.66699 6.66699 -10.334 11.334 -17.001 14.001s-15 4 -25 4c-26 0 -50.667 -5.33301 -74 -16s-43.666 -24 -60.999 -40l-47 80
c29.333 21.333 60.666 38 93.999 50s67.666 18 102.999 18c38.667 0 70.667 -7.66699 96 -23s42.666 -37.333 51.999 -66c3.33301 -10.667 5.66602 -22.334 6.99902 -35.001s2 -27 2 -43v-57v-67v-58v-30c0 -25.333 2.66699 -46 8 -62
c4.66699 -15.333 14.334 -28 29.001 -38zM280.004 128.998l0.99707 112.001h-10h-6c-40 0 -68.667 -8 -86 -24s-25.666 -37.333 -24.999 -64c0 -22.667 4.66699 -40.334 14 -53.001s23.333 -19 42 -19c14.667 0 28.334 4 41.001 12c12.667 8.66699 22.334 19.667 29.001 33
v3zM350.001 672.999v-1v0l-202 -100l-38 64l188 126l53 -90z" />
    <glyph glyph-name="acircumflex" unicode="&#xe2;" horiz-adv-x="467" 
d="M425 58l-63.9961 -78.002c-13.333 5.33301 -25.333 14 -36 26s-18.334 24.667 -23.001 38c-16 -17.333 -33.667 -30.666 -53 -39.999c-20 -9.33301 -43.333 -14 -70 -14c-37.333 0 -67 7.33301 -89 22s-37.667 34 -47 58s-14 50 -14 78
c0.666992 54.667 20 97.334 58 128.001c38.667 31.333 92.667 47.333 162 48h12h14v38c0 15.333 -0.666992 28.333 -2 39s-4.33301 19 -9 25c-4.66699 6.66699 -10.334 11.334 -17.001 14.001s-15 4 -25 4c-26 0 -50.667 -5.33301 -74 -16s-43.666 -24 -60.999 -40l-47 80
c29.333 21.333 60.666 38 93.999 50s67.666 18 102.999 18c38.667 0 70.667 -7.66699 96 -23s42.666 -37.333 51.999 -66c3.33301 -10.667 5.66602 -22.334 6.99902 -35.001s2 -27 2 -43v-57v-67v-58v-30c0 -25.333 2.66699 -46 8 -62
c4.66699 -15.333 14.334 -28 29.001 -38zM280.004 128.998l0.99707 112.001h-10h-6c-40 0 -68.667 -8 -86 -24s-25.666 -37.333 -24.999 -64c0 -22.667 4.66699 -40.334 14 -53.001s23.333 -19 42 -19c14.667 0 28.334 4 41.001 12c12.667 8.66699 22.334 19.667 29.001 33
v3zM381.001 637.999v-1v0l-43 -66l-122 77l-120 -77l-38 66l162 129l161 -129v1z" />
    <glyph glyph-name="atilde" unicode="&#xe3;" horiz-adv-x="467" 
d="M425 58l-63.9961 -78.002c-13.333 5.33301 -25.333 14 -36 26s-18.334 24.667 -23.001 38c-16 -17.333 -33.667 -30.666 -53 -39.999c-20 -9.33301 -43.333 -14 -70 -14c-37.333 0 -67 7.33301 -89 22s-37.667 34 -47 58s-14 50 -14 78
c0.666992 54.667 20 97.334 58 128.001c38.667 31.333 92.667 47.333 162 48h12h14v38c0 15.333 -0.666992 28.333 -2 39s-4.33301 19 -9 25c-4.66699 6.66699 -10.334 11.334 -17.001 14.001s-15 4 -25 4c-26 0 -50.667 -5.33301 -74 -16s-43.666 -24 -60.999 -40l-47 80
c29.333 21.333 60.666 38 93.999 50s67.666 18 102.999 18c38.667 0 70.667 -7.66699 96 -23s42.666 -37.333 51.999 -66c3.33301 -10.667 5.66602 -22.334 6.99902 -35.001s2 -27 2 -43v-57v-67v-58v-30c0 -25.333 2.66699 -46 8 -62
c4.66699 -15.333 14.334 -28 29.001 -38zM280.004 128.998l0.99707 112.001h-10h-6c-40 0 -68.667 -8 -86 -24s-25.666 -37.333 -24.999 -64c0 -22.667 4.66699 -40.334 14 -53.001s23.333 -19 42 -19c14.667 0 28.334 4 41.001 12c12.667 8.66699 22.334 19.667 29.001 33
v3zM380.001 657.999v-1.00098v0v0c-13.333 -19.333 -28.666 -33.666 -45.999 -42.999s-38.666 -14 -63.999 -14c-17.333 0.666992 -31.333 3.66699 -42 9l-32 18c-10.667 6 -24.334 9 -41.001 9c-12.667 0 -24 -3.33301 -34 -10c-10.667 -6 -20.334 -14.333 -29.001 -25
l-32 72c14 20 29 35 45 45s36 15 60 15c17.333 -0.666992 32 -3.66699 44 -9c11.333 -5.33301 22.333 -11 33 -17c10.667 -5.33301 24 -8 40 -8c13.333 0 25.333 3.33301 36 10c10.667 6 20 13.667 28 23l33 -74h1z" />
    <glyph glyph-name="adieresis" unicode="&#xe4;" horiz-adv-x="467" 
d="M425 58l-63.9961 -78.002c-13.333 5.33301 -25.333 14 -36 26s-18.334 24.667 -23.001 38c-16 -17.333 -33.667 -30.666 -53 -39.999c-20 -9.33301 -43.333 -14 -70 -14c-37.333 0 -67 7.33301 -89 22s-37.667 34 -47 58s-14 50 -14 78
c0.666992 54.667 20 97.334 58 128.001c38.667 31.333 92.667 47.333 162 48h12h14v38c0 15.333 -0.666992 28.333 -2 39s-4.33301 19 -9 25c-4.66699 6.66699 -10.334 11.334 -17.001 14.001s-15 4 -25 4c-26 0 -50.667 -5.33301 -74 -16s-43.666 -24 -60.999 -40l-47 80
c29.333 21.333 60.666 38 93.999 50s67.666 18 102.999 18c38.667 0 70.667 -7.66699 96 -23s42.666 -37.333 51.999 -66c3.33301 -10.667 5.66602 -22.334 6.99902 -35.001s2 -27 2 -43v-57v-67v-58v-30c0 -25.333 2.66699 -46 8 -62
c4.66699 -15.333 14.334 -28 29.001 -38zM280.004 128.998l0.99707 112.001h-10h-6c-40 0 -68.667 -8 -86 -24s-25.666 -37.333 -24.999 -64c0 -22.667 4.66699 -40.334 14 -53.001s23.333 -19 42 -19c14.667 0 28.334 4 41.001 12c12.667 8.66699 22.334 19.667 29.001 33
v3zM190.001 651.999c-0.666992 -18.667 -7 -34 -19 -46c-12 -12.667 -27.333 -19 -46 -19s-34.667 6.33301 -48 19c-13.333 12 -20 27.333 -20 46s6 34 18 46s27.333 18 46 18c19.333 0 35.666 -6 48.999 -18c12.667 -12 19.334 -27.333 20.001 -46zM391.001 652.999
l0.000976562 -1v0v0c0 -18.667 -6 -34 -18 -46c-12 -12.667 -27.333 -19 -46 -19s-34.667 6.33301 -48 19c-13.333 12 -20.333 27.333 -21 46c0.666992 18.667 7 34 19 46s27.333 18 46 18c19.333 0 35.666 -6 48.999 -18s20 -27.333 20 -46z" />
    <glyph glyph-name="aring" unicode="&#xe5;" horiz-adv-x="467" 
d="M425 58l-63.9961 -78.002c-13.333 5.33301 -25.333 14 -36 26s-18.334 24.667 -23.001 38c-16 -17.333 -33.667 -30.666 -53 -39.999c-20 -9.33301 -43.333 -14 -70 -14c-37.333 0 -67 7.33301 -89 22s-37.667 34 -47 58s-14 50 -14 78
c0.666992 54.667 20 97.334 58 128.001c38.667 31.333 92.667 47.333 162 48h12h14v38c0 15.333 -0.666992 28.333 -2 39s-4.33301 19 -9 25c-4.66699 6.66699 -10.334 11.334 -17.001 14.001s-15 4 -25 4c-26 0 -50.667 -5.33301 -74 -16s-43.666 -24 -60.999 -40l-47 80
c29.333 21.333 60.666 38 93.999 50s67.666 18 102.999 18c38.667 0 70.667 -7.66699 96 -23s42.666 -37.333 51.999 -66c3.33301 -10.667 5.66602 -22.334 6.99902 -35.001s2 -27 2 -43v-57v-67v-58v-30c0 -25.333 2.66699 -46 8 -62
c4.66699 -15.333 14.334 -28 29.001 -38zM280.004 128.998l0.99707 112.001h-10h-6c-40 0 -68.667 -8 -86 -24s-25.666 -37.333 -24.999 -64c0 -22.667 4.66699 -40.334 14 -53.001s23.333 -19 42 -19c14.667 0 28.334 4 41.001 12c12.667 8.66699 22.334 19.667 29.001 33
v3zM324.001 673.999c0 -18.667 -4.66699 -35.667 -14 -51s-22 -27.666 -38 -36.999s-33.333 -14 -52 -14c-30.667 0.666992 -56 10.667 -76 30s-30.333 43.666 -31 72.999c1.33301 29.333 12 53.666 32 72.999s44.667 29.333 74 30c29.333 -0.666992 54 -10.667 74 -30
s30.333 -43.666 31 -72.999v-1zM264.001 675.999l-0.000976562 -1v0v0c0 13.333 -4.66699 24.666 -14 33.999s-20.333 14 -33 14c-14 0 -25 -4.66699 -33 -14s-12 -20.666 -12 -33.999s4.66699 -24.666 14 -33.999c8.66699 -9.33301 19.334 -14 32.001 -14
c13.333 0 24.333 4.66699 33 14c9.33301 9.33301 14 20.666 14 33.999z" />
    <glyph glyph-name="ae" unicode="&#xe6;" horiz-adv-x="689" 
d="M658 220l-268.001 0.000976562c0 -37.333 5 -66 15 -86c9.33301 -20.667 21.666 -35 36.999 -43s31 -12 47 -12c22.667 0 43.667 4.66699 63 14s37 22 53 38l45 -78c-24 -22.667 -50 -40 -78 -52s-58.667 -18 -92 -18c-30.667 0 -59.667 6 -87 18
s-50.666 30.333 -69.999 55c-16 -23.333 -36.667 -41.666 -62 -54.999c-25.333 -12.667 -52 -19 -80 -19c-49.333 0.666992 -86.666 15 -111.999 43s-38 66.667 -38 116c0.666992 42 11.667 76 33 102s48.666 45 81.999 57s69.333 18 108 18h12h13v55
c0 21.333 -5.33301 36.666 -16 45.999s-23.334 14 -38.001 14c-25.333 0 -49.333 -5.33301 -72 -16s-43.334 -24.667 -62.001 -42l-47 84c28.667 21.333 60 38.666 94 51.999c33.333 13.333 68 20.333 104 21c22.667 0 43.334 -3.66699 62.001 -11
c18.667 -8 35.334 -20.667 50.001 -38c14.667 16 31.667 28 51 36c19.333 8.66699 40.333 13 63 13c25.333 0 49.333 -4.33301 72 -13c22 -8.66699 41.667 -22.334 59 -41.001c18 -20 31.333 -42.667 40 -68s14.334 -51.333 17.001 -78c2.66699 -27.333 4 -53.666 4 -78.999
v-29zM281.999 240.001c-2.66699 0 -5.33203 0.333008 -7.99902 1h-8c-32 0.666992 -58.667 -5.66602 -80 -18.999s-32.333 -37.333 -33 -72c0 -20 4.66699 -36.667 14 -50s24.666 -20 45.999 -20c14.667 0 28 4.66699 40 14s21.667 20.666 29 33.999v110v2zM543.001 314.001
l0.00195312 -0.999023v0v0c0 17.333 -1.33301 36 -4 56c-2.66699 19.333 -9.33398 35.666 -20.001 48.999s-27.334 20.333 -50.001 21c-21.333 -0.666992 -37.333 -7.66699 -48 -21c-10.667 -14 -18 -30.667 -22 -50c-4 -20 -6 -38.667 -6 -56h151z" />
    <glyph glyph-name="ccedilla" unicode="&#xe7;" horiz-adv-x="404" 
d="M386 58l-0.000976562 -0.99707v0v0c-22.667 -25.333 -46.667 -43 -72 -53c-25.333 -10.667 -51.666 -16 -78.999 -16l-6 -22c22 -3.33301 38.333 -11.333 49 -24c10.667 -13.333 16 -30 16 -50c0 -16 -3.33301 -31.333 -10 -46s-17.334 -26.667 -32.001 -36
s-34 -14 -58 -14c-13.333 0 -26.666 2 -39.999 6s-24.666 9 -33.999 15l24 56c8 -4.66699 15.333 -8.33398 22 -11.001c6.66699 -2 14.667 -3 24 -3s17.333 2.33301 24 7s10 11.667 10 21s-3.33301 16.333 -10 21s-14.667 7 -24 7c-5.33301 0 -10 -0.333008 -14 -1h-10
l-8 14l18 66c-18.667 5.33301 -35.667 13.333 -51 24c-15.333 11.333 -28.666 25.666 -39.999 42.999c-16 24 -28 51.667 -36 83c-8 32 -12 68.333 -12 109c0 53.333 6.66699 98.333 20 135c13.333 37.333 31.333 67.333 54 90c17.333 17.333 37 30.666 59 39.999
s46.333 14 73 14c28 0 52.333 -5 73 -15c20.667 -9.33301 40.334 -23.333 59.001 -42l-56 -75c-10.667 12 -22 21.333 -34 28s-25.333 10 -40 10c-14 0 -26.333 -4 -37 -12s-19.334 -20.667 -26.001 -38c-6.66699 -18 -11.334 -37.667 -14.001 -59s-4 -47.333 -4 -78
c0 -53.333 6.66699 -95 20 -125s34.666 -45 63.999 -45c17.333 0 33.333 4 48 12s28 19.667 40 35l54 -72z" />
    <glyph glyph-name="egrave" unicode="&#xe8;" horiz-adv-x="460" 
d="M429 231l-267.003 -0.00292969v-10c0 -17.333 1.33301 -33.666 4 -48.999s7.33398 -29.666 14.001 -42.999c8.66699 -16 20.334 -28.333 35.001 -37c14 -8 30.333 -12 49 -12c20.667 0 40.334 4.66699 59.001 14c18.667 8.66699 36.667 21.334 54 38.001l46 -75
c-25.333 -24 -52 -41.333 -80 -52c-28 -11.333 -58 -17 -90 -17c-68 0.666992 -120.667 24.667 -158 72c-37.333 48 -56 115.333 -56 202c0 44.667 4.66699 83.667 14 117s23.333 62 42 86c18 22.667 39 39.667 63 51s50.667 17 80 17c28 0 53.333 -4.66699 76 -14
s42 -23 58 -41c20.667 -22.667 35.667 -51.667 45 -87s14 -81 14 -137v-22zM311.997 313.997c0 20.667 -1 38.999 -3 54.999c-2.66699 16.667 -6.33398 30.334 -11.001 41.001c-5.33301 12 -12.666 21.333 -21.999 28s-21.333 10 -36 10c-26 0 -45 -11 -57 -33
c-12 -21.333 -18.333 -55 -19 -101h150h-2zM346.997 637.996v-1v0l-36 -64l-203 98l51 91l188 -126v2z" />
    <glyph glyph-name="eacute" unicode="&#xe9;" horiz-adv-x="460" 
d="M429 231l-267.003 -0.00292969v-10c0 -17.333 1.33301 -33.666 4 -48.999s7.33398 -29.666 14.001 -42.999c8.66699 -16 20.334 -28.333 35.001 -37c14 -8 30.333 -12 49 -12c20.667 0 40.334 4.66699 59.001 14c18.667 8.66699 36.667 21.334 54 38.001l46 -75
c-25.333 -24 -52 -41.333 -80 -52c-28 -11.333 -58 -17 -90 -17c-68 0.666992 -120.667 24.667 -158 72c-37.333 48 -56 115.333 -56 202c0 44.667 4.66699 83.667 14 117s23.333 62 42 86c18 22.667 39 39.667 63 51s50.667 17 80 17c28 0 53.333 -4.66699 76 -14
s42 -23 58 -41c20.667 -22.667 35.667 -51.667 45 -87s14 -81 14 -137v-22zM311.997 313.997c0 20.667 -1 38.999 -3 54.999c-2.66699 16.667 -6.33398 30.334 -11.001 41.001c-5.33301 12 -12.666 21.333 -21.999 28s-21.333 10 -36 10c-26 0 -45 -11 -57 -33
c-12 -21.333 -18.333 -55 -19 -101h150h-2zM357.997 672.996v-1v0l-203 -100l-38 64l187 126l54 -90v1z" />
    <glyph glyph-name="ecircumflex" unicode="&#xea;" horiz-adv-x="460" 
d="M429 231l-267.003 -0.00292969v-10c0 -17.333 1.33301 -33.666 4 -48.999s7.33398 -29.666 14.001 -42.999c8.66699 -16 20.334 -28.333 35.001 -37c14 -8 30.333 -12 49 -12c20.667 0 40.334 4.66699 59.001 14c18.667 8.66699 36.667 21.334 54 38.001l46 -75
c-25.333 -24 -52 -41.333 -80 -52c-28 -11.333 -58 -17 -90 -17c-68 0.666992 -120.667 24.667 -158 72c-37.333 48 -56 115.333 -56 202c0 44.667 4.66699 83.667 14 117s23.333 62 42 86c18 22.667 39 39.667 63 51s50.667 17 80 17c28 0 53.333 -4.66699 76 -14
s42 -23 58 -41c20.667 -22.667 35.667 -51.667 45 -87s14 -81 14 -137v-22zM311.997 313.997c0 20.667 -1 38.999 -3 54.999c-2.66699 16.667 -6.33398 30.334 -11.001 41.001c-5.33301 12 -12.666 21.333 -21.999 28s-21.333 10 -36 10c-26 0 -45 -11 -57 -33
c-12 -21.333 -18.333 -55 -19 -101h150h-2zM394.997 637.996v-1v0l-43 -66l-122 77l-120 -77l-38 66l162 129l160 -129z" />
    <glyph glyph-name="edieresis" unicode="&#xeb;" horiz-adv-x="460" 
d="M429 231l-267.003 -0.00292969v-10c0 -17.333 1.33301 -33.666 4 -48.999s7.33398 -29.666 14.001 -42.999c8.66699 -16 20.334 -28.333 35.001 -37c14 -8 30.333 -12 49 -12c20.667 0 40.334 4.66699 59.001 14c18.667 8.66699 36.667 21.334 54 38.001l46 -75
c-25.333 -24 -52 -41.333 -80 -52c-28 -11.333 -58 -17 -90 -17c-68 0.666992 -120.667 24.667 -158 72c-37.333 48 -56 115.333 -56 202c0 44.667 4.66699 83.667 14 117s23.333 62 42 86c18 22.667 39 39.667 63 51s50.667 17 80 17c28 0 53.333 -4.66699 76 -14
s42 -23 58 -41c20.667 -22.667 35.667 -51.667 45 -87s14 -81 14 -137v-22zM311.997 313.997c0 20.667 -1 38.999 -3 54.999c-2.66699 16.667 -6.33398 30.334 -11.001 41.001c-5.33301 12 -12.666 21.333 -21.999 28s-21.333 10 -36 10c-26 0 -45 -11 -57 -33
c-12 -21.333 -18.333 -55 -19 -101h150h-2zM202.997 651.996c-0.666992 -18.667 -7 -34 -19 -46c-12 -12.667 -27.333 -19 -46 -19s-34.667 6.33301 -48 19c-13.333 12 -20.333 27.333 -21 46c0.666992 18.667 7 34 19 46s27.333 18 46 18c20 0 36.333 -6 49 -18
c13.333 -12 20.333 -27.333 21 -46h-1zM404.997 652.996v-1v0v0c0 -18.667 -6.33301 -34 -19 -46c-12 -12.667 -27.333 -19 -46 -19s-34.667 6.33301 -48 19c-13.333 12 -20 27.333 -20 46s6 34 18 46c12.667 12 28.334 18 47.001 18c19.333 0 35.666 -6 48.999 -18
s20 -27.333 20 -46z" />
    <glyph glyph-name="igrave" unicode="&#xec;" horiz-adv-x="259" 
d="M70 0v516l118 14v-530h-118zM226 638v-1v0l-37 -64l-203 98l52 91l188 -126v2z" />
    <glyph glyph-name="iacute" unicode="&#xed;" horiz-adv-x="259" 
d="M70 0v516l118 14v-530h-118zM274 673v-1v0l-203 -100l-38 64l187 126l54 -90v1z" />
    <glyph glyph-name="icircumflex" unicode="&#xee;" horiz-adv-x="259" 
d="M70 0v516l118 14v-530h-118zM291 638v-1v0l-43 -66l-122 77l-120 -77l-38 66l162 129l161 -129v1z" />
    <glyph glyph-name="idieresis" unicode="&#xef;" horiz-adv-x="259" 
d="M70 0v516l118 14v-530h-118zM94 652c0 -18.667 -6 -34 -18 -46c-12 -12.667 -27.333 -19 -46 -19s-34.667 6.33301 -48 19c-13.333 12 -20.333 27.333 -21 46c0.666992 18.667 7 34 19 46s27.333 18 46 18c20 0 36.333 -6 49 -18c13.333 -12 20 -27.333 20 -46h-1z
M297 653l-0.000976562 -1v0v0c-0.666992 -18.667 -7 -34 -19 -46c-12 -12.667 -27.333 -19 -46 -19s-34.667 6.33301 -48 19c-13.333 12 -20 27.333 -20 46s6 34 18 46c12.667 12 28.334 18 47.001 18c19.333 0 35.666 -6 48.999 -18c12.667 -12 19.334 -27.333 20.001 -46z
" />
    <glyph glyph-name="eth" unicode="&#xf0;" horiz-adv-x="477" 
d="M437 250c0 -57.333 -8.66699 -105.338 -26 -144.005s-41 -67.667 -71 -87s-64.667 -29 -104 -29c-38.667 0 -72.667 9.33301 -102 28s-52.333 45.334 -69 80.001s-25 76 -25 124c0 37.333 6.66699 71.333 20 102s33 55.334 59 74.001s58.333 28.334 97 29.001
c14.667 0 27.334 -0.666992 38.001 -2c10.667 -2 19.334 -3.33301 26.001 -4c-5.33301 15.333 -13.333 30.333 -24 45s-23.334 28.667 -38.001 42l-47 -54l-70 40l55 62c-26 16.667 -52.333 30.334 -79 41.001s-51.334 17.334 -74.001 20.001l60 79
c29.333 -4 58 -10.667 86 -20s55 -21.333 81 -36l34 39l70 -40l-40 -46c14.667 -13.333 28 -27.666 40 -42.999c34 -44 59.667 -91.333 77 -142s26 -104.334 26 -161.001v3zM322 241.995v-1.00098v0v0c0 8 -0.333008 16.667 -1 26s-1.66699 18.333 -3 27l-3 20
c-8 5.33301 -19 10 -33 14c-13.333 4 -28 6 -44 6c-28 0 -48.667 -10.667 -62 -32s-20 -50 -20 -86c0 -37.333 7.33301 -67.333 22 -90c14.667 -22 36 -33.333 64 -34c28 0.666992 48.333 14.334 61 41.001s19 61.667 19 105v4z" />
    <glyph glyph-name="ntilde" unicode="&#xf1;" horiz-adv-x="508" 
d="M438 0l-115.999 -0.000976562v350c0 20 -1 35 -3 45c-2.66699 10.667 -6.33398 18.667 -11.001 24c-4 5.33301 -9.33301 9 -16 11c-6.66699 1.33301 -14 2 -22 2c-12 0 -25.333 -4 -40 -12c-15.333 -8 -30 -19.333 -44 -34v-385h-116v382c0 30.667 -1.66699 56 -5 76
s-6.66602 37 -9.99902 51l108 24c2 -5.33301 4.66699 -13.333 8 -24c3.33301 -11.333 5.66602 -23.666 6.99902 -36.999c15.333 16 35 29.333 59 40c24 11.333 49.667 17 77 17c20 0 38 -3.33301 54 -10s29.333 -15.667 40 -27c11.333 -13.333 19 -28 23 -44
c4 -16.667 6 -33.667 6 -51v-398h1zM410.001 657.999l-0.00195312 -1.00098v0v0c-13.333 -19.333 -28.666 -33.666 -45.999 -42.999s-38.666 -14 -63.999 -14c-17.333 0.666992 -31.333 3.66699 -42 9l-32 18c-10.667 6 -24 9 -40 9c-13.333 0 -25 -3.33301 -35 -10
c-10.667 -6 -20 -14.333 -28 -25l-33 72c14 20 29 35 45 45s36 15 60 15c18 -0.666992 32.667 -3.66699 44 -9s22.333 -11 33 -17c10.667 -5.33301 24 -8 40 -8c13.333 0 25.333 3.33301 36 10c10.667 6 20 13.667 28 23l32 -74h2z" />
    <glyph glyph-name="ograve" unicode="&#xf2;" horiz-adv-x="475" 
d="M445 263c0 -33.333 -3.33105 -66.333 -9.99805 -99s-18 -62.334 -34 -89.001s-37.333 -48 -64 -64s-59.334 -24 -98.001 -24c-40 0 -73.333 8.33301 -100 25s-47.334 38.667 -62.001 66c-15.333 26.667 -26 56.334 -32 89.001c-6.66699 32.667 -10 65 -10 97
s3.33301 63.667 10 95c7.33301 32 19 61 35 87s37 47 63 63s57.667 24 95 24c40 0 75.333 -10 106 -30c30.667 -20.667 54.667 -51 72 -91s26 -89.667 26 -149h3zM315.002 263c0 18.667 -0.666992 38 -2 58c-1.33301 20.667 -4.66602 40 -9.99902 58
c-5.33301 18.667 -13.333 33.667 -24 45s-25.334 17 -44.001 17s-33.334 -6 -44.001 -18s-18.334 -27.333 -23.001 -46c-5.33301 -19.333 -8.66602 -39.666 -9.99902 -60.999s-2 -41 -2 -59c0 -15.333 0.666992 -33 2 -53s4.66602 -39.333 9.99902 -58
s13.333 -34.334 24 -47.001s26 -19 46 -19c18.667 0.666992 33.334 7.66699 44.001 21s18.334 30 23.001 50s7.66699 40.333 9 61c1.33301 20 2 37 2 51h-1zM336.002 638v-1v0l-37 -64l-202 98l51 91l188 -126v2z" />
    <glyph glyph-name="oacute" unicode="&#xf3;" horiz-adv-x="475" 
d="M445 263c0 -33.333 -3.33105 -66.333 -9.99805 -99s-18 -62.334 -34 -89.001s-37.333 -48 -64 -64s-59.334 -24 -98.001 -24c-40 0 -73.333 8.33301 -100 25s-47.334 38.667 -62.001 66c-15.333 26.667 -26 56.334 -32 89.001c-6.66699 32.667 -10 65 -10 97
s3.33301 63.667 10 95c7.33301 32 19 61 35 87s37 47 63 63s57.667 24 95 24c40 0 75.333 -10 106 -30c30.667 -20.667 54.667 -51 72 -91s26 -89.667 26 -149h3zM315.002 263c0 18.667 -0.666992 38 -2 58c-1.33301 20.667 -4.66602 40 -9.99902 58
c-5.33301 18.667 -13.333 33.667 -24 45s-25.334 17 -44.001 17s-33.334 -6 -44.001 -18s-18.334 -27.333 -23.001 -46c-5.33301 -19.333 -8.66602 -39.666 -9.99902 -60.999s-2 -41 -2 -59c0 -15.333 0.666992 -33 2 -53s4.66602 -39.333 9.99902 -58
s13.333 -34.334 24 -47.001s26 -19 46 -19c18.667 0.666992 33.334 7.66699 44.001 21s18.334 30 23.001 50s7.66699 40.333 9 61c1.33301 20 2 37 2 51h-1zM346.002 673v-1v0l-202 -100l-38 64l188 126l53 -90z" />
    <glyph glyph-name="ocircumflex" unicode="&#xf4;" horiz-adv-x="475" 
d="M445 263c0 -33.333 -3.33105 -66.333 -9.99805 -99s-18 -62.334 -34 -89.001s-37.333 -48 -64 -64s-59.334 -24 -98.001 -24c-40 0 -73.333 8.33301 -100 25s-47.334 38.667 -62.001 66c-15.333 26.667 -26 56.334 -32 89.001c-6.66699 32.667 -10 65 -10 97
s3.33301 63.667 10 95c7.33301 32 19 61 35 87s37 47 63 63s57.667 24 95 24c40 0 75.333 -10 106 -30c30.667 -20.667 54.667 -51 72 -91s26 -89.667 26 -149h3zM315.002 263c0 18.667 -0.666992 38 -2 58c-1.33301 20.667 -4.66602 40 -9.99902 58
c-5.33301 18.667 -13.333 33.667 -24 45s-25.334 17 -44.001 17s-33.334 -6 -44.001 -18s-18.334 -27.333 -23.001 -46c-5.33301 -19.333 -8.66602 -39.666 -9.99902 -60.999s-2 -41 -2 -59c0 -15.333 0.666992 -33 2 -53s4.66602 -39.333 9.99902 -58
s13.333 -34.334 24 -47.001s26 -19 46 -19c18.667 0.666992 33.334 7.66699 44.001 21s18.334 30 23.001 50s7.66699 40.333 9 61c1.33301 20 2 37 2 51h-1zM400.002 638v-1v0l-43 -66l-122 77l-120 -77l-38 66l162 129l161 -129v1z" />
    <glyph glyph-name="otilde" unicode="&#xf5;" horiz-adv-x="475" 
d="M445 263c0 -33.333 -3.33105 -66.333 -9.99805 -99s-18 -62.334 -34 -89.001s-37.333 -48 -64 -64s-59.334 -24 -98.001 -24c-40 0 -73.333 8.33301 -100 25s-47.334 38.667 -62.001 66c-15.333 26.667 -26 56.334 -32 89.001c-6.66699 32.667 -10 65 -10 97
s3.33301 63.667 10 95c7.33301 32 19 61 35 87s37 47 63 63s57.667 24 95 24c40 0 75.333 -10 106 -30c30.667 -20.667 54.667 -51 72 -91s26 -89.667 26 -149h3zM315.002 263c0 18.667 -0.666992 38 -2 58c-1.33301 20.667 -4.66602 40 -9.99902 58
c-5.33301 18.667 -13.333 33.667 -24 45s-25.334 17 -44.001 17s-33.334 -6 -44.001 -18s-18.334 -27.333 -23.001 -46c-5.33301 -19.333 -8.66602 -39.666 -9.99902 -60.999s-2 -41 -2 -59c0 -15.333 0.666992 -33 2 -53s4.66602 -39.333 9.99902 -58
s13.333 -34.334 24 -47.001s26 -19 46 -19c18.667 0.666992 33.334 7.66699 44.001 21s18.334 30 23.001 50s7.66699 40.333 9 61c1.33301 20 2 37 2 51h-1zM391.002 658l-0.000976562 -1.00098v0v0c-13.333 -19.333 -28.666 -33.666 -45.999 -42.999
s-38.666 -14 -63.999 -14c-17.333 0.666992 -31.333 3.66699 -42 9l-32 18c-10.667 6 -24 9 -40 9c-12.667 0 -24.334 -3.33301 -35.001 -10c-10 -6 -19.333 -14.333 -28 -25l-33 72c14 20 29 35 45 45s36 15 60 15c18 -0.666992 32.667 -3.66699 44 -9s22.333 -11 33 -17
c10.667 -5.33301 24 -8 40 -8c13.333 0 25.333 3.33301 36 10c10.667 6 20 13.667 28 23l32 -74h2z" />
    <glyph glyph-name="odieresis" unicode="&#xf6;" horiz-adv-x="475" 
d="M445 263c0 -33.333 -3.33105 -66.333 -9.99805 -99s-18 -62.334 -34 -89.001s-37.333 -48 -64 -64s-59.334 -24 -98.001 -24c-40 0 -73.333 8.33301 -100 25s-47.334 38.667 -62.001 66c-15.333 26.667 -26 56.334 -32 89.001c-6.66699 32.667 -10 65 -10 97
s3.33301 63.667 10 95c7.33301 32 19 61 35 87s37 47 63 63s57.667 24 95 24c40 0 75.333 -10 106 -30c30.667 -20.667 54.667 -51 72 -91s26 -89.667 26 -149h3zM315.002 263c0 18.667 -0.666992 38 -2 58c-1.33301 20.667 -4.66602 40 -9.99902 58
c-5.33301 18.667 -13.333 33.667 -24 45s-25.334 17 -44.001 17s-33.334 -6 -44.001 -18s-18.334 -27.333 -23.001 -46c-5.33301 -19.333 -8.66602 -39.666 -9.99902 -60.999s-2 -41 -2 -59c0 -15.333 0.666992 -33 2 -53s4.66602 -39.333 9.99902 -58
s13.333 -34.334 24 -47.001s26 -19 46 -19c18.667 0.666992 33.334 7.66699 44.001 21s18.334 30 23.001 50s7.66699 40.333 9 61c1.33301 20 2 37 2 51h-1zM199.002 652c0 -18.667 -5.99902 -34 -17.999 -46c-12 -12.667 -27.333 -19 -46 -19s-34.667 6.33301 -48 19
c-13.333 12 -20.333 27.333 -21 46c0.666992 18.667 7 34 19 46s27.333 18 46 18c19.333 0 35.666 -6 48.999 -18s20 -27.333 20 -46h-1zM404.003 653v-1v0v0c-0.666992 -18.667 -7 -34 -19 -46c-12 -12.667 -27.333 -19 -46 -19s-34.667 6.33301 -48 19
c-13.333 12 -20 27.333 -20 46s6 34 18 46s27.333 18 46 18c19.333 0 35.666 -6 48.999 -18c12.667 -12 19.334 -27.333 20.001 -46v1z" />
    <glyph glyph-name="divide" unicode="&#xf7;" horiz-adv-x="573" 
d="M40 240v100h494v-100h-494zM366 100c-0.666992 -24 -8.66699 -44 -24 -60c-16 -16 -36 -24.333 -60 -25c-24 0.666992 -44 9 -60 25s-24.333 36 -25 60c0.666992 24 9 43.667 25 59c15.333 16 35 24.333 59 25c24 -0.666992 44 -9 60 -25c16 -15.333 24.333 -35 25 -59z
M366 487v-1v0v0c-0.666992 -24 -8.66699 -44 -24 -60c-16 -16 -36 -24.333 -60 -25c-24 0.666992 -44 9 -60 25s-24.333 36 -25 60c0.666992 24 9 44 25 60c15.333 15.333 35 23.333 59 24c24 -0.666992 44 -8.66699 60 -24c16 -16 24.333 -36 25 -60v1z" />
    <glyph glyph-name="oslash" unicode="&#xf8;" horiz-adv-x="475" 
d="M441 262c0 -33.333 -3.33496 -66.333 -10.002 -99s-18 -62.334 -34 -89.001s-37.333 -48 -64 -64s-59.334 -24 -98.001 -24c-18.667 0 -36 2 -52 6s-30.667 9.66699 -44 17l-40 -74l-44 39l38 72c-22.667 28 -38.667 61.333 -48 100c-9.33301 38 -14 76.333 -14 115
c0 32 3.33301 64 10 96c7.33301 32 19 61.333 35 88s37 48 63 64c26.667 16 58.667 24 96 24c18.667 0 36.334 -2 53.001 -6s32.334 -10.333 47.001 -19l40 76l50 -38l-43 -80c18.667 -22.667 33.334 -51 44.001 -85c10.667 -33.333 16 -72.666 16 -117.999zM290.998 415
c-5.33301 8 -12.332 14.333 -20.999 19c-9.33301 4.66699 -20 7 -32 7c-19.333 0 -34.333 -6.66699 -45 -20s-18.334 -29.333 -23.001 -48c-4.66699 -19.333 -7.66699 -39 -9 -59c-1.33301 -19.333 -2 -36 -2 -50v-48c0 -14.667 1 -28 3 -40l126 240zM315.999 264
l-0.00195312 -1v0v0v40c0 13.333 -0.666992 24.333 -2 33l-124 -233c5.33301 -7.33301 12 -13 20 -17s17.333 -6 28 -6c18.667 0.666992 33.334 7.66699 44.001 21s18.334 30 23.001 50s7.66699 40.333 9 61c1.33301 20 2 37 2 51v1z" />
    <glyph glyph-name="ugrave" unicode="&#xf9;" horiz-adv-x="506" 
d="M461 37l-94.0029 -53c-9.33301 10.667 -16.333 21 -21 31c-5.33301 10 -8.66602 20.333 -9.99902 31c-15.333 -20 -33.666 -35.333 -54.999 -46s-46 -16 -74 -16c-44 -0.666992 -78.667 13 -104 41s-38 75.333 -38 142v346l116 18v-374c0 -16 1.33301 -30 4 -42
s8 -21.333 16 -28s20.667 -10 38 -10c16.667 0 31 5 43 15s24 24.333 36 43v376l116 18v-378c0 -29.333 2.66699 -53 8 -71c4.66699 -17.333 11.334 -32 20.001 -44zM357.997 638v-1v0l-37 -64l-202 98l51 91l188 -126v2z" />
    <glyph glyph-name="uacute" unicode="&#xfa;" horiz-adv-x="506" 
d="M461 37l-94.0029 -53c-9.33301 10.667 -16.333 21 -21 31c-5.33301 10 -8.66602 20.333 -9.99902 31c-15.333 -20 -33.666 -35.333 -54.999 -46s-46 -16 -74 -16c-44 -0.666992 -78.667 13 -104 41s-38 75.333 -38 142v346l116 18v-374c0 -16 1.33301 -30 4 -42
s8 -21.333 16 -28s20.667 -10 38 -10c16.667 0 31 5 43 15s24 24.333 36 43v376l116 18v-378c0 -29.333 2.66699 -53 8 -71c4.66699 -17.333 11.334 -32 20.001 -44zM380.997 673v-1v0l-203 -100l-38 64l187 126l54 -90v1z" />
    <glyph glyph-name="ucircumflex" unicode="&#xfb;" horiz-adv-x="506" 
d="M461 37l-94.0029 -53c-9.33301 10.667 -16.333 21 -21 31c-5.33301 10 -8.66602 20.333 -9.99902 31c-15.333 -20 -33.666 -35.333 -54.999 -46s-46 -16 -74 -16c-44 -0.666992 -78.667 13 -104 41s-38 75.333 -38 142v346l116 18v-374c0 -16 1.33301 -30 4 -42
s8 -21.333 16 -28s20.667 -10 38 -10c16.667 0 31 5 43 15s24 24.333 36 43v376l116 18v-378c0 -29.333 2.66699 -53 8 -71c4.66699 -17.333 11.334 -32 20.001 -44zM416.997 638v-1v0l-43 -66l-122 77l-120 -77l-38 66l162 129l160 -129z" />
    <glyph glyph-name="udieresis" unicode="&#xfc;" horiz-adv-x="506" 
d="M461 37l-94.0029 -53c-9.33301 10.667 -16.333 21 -21 31c-5.33301 10 -8.66602 20.333 -9.99902 31c-15.333 -20 -33.666 -35.333 -54.999 -46s-46 -16 -74 -16c-44 -0.666992 -78.667 13 -104 41s-38 75.333 -38 142v346l116 18v-374c0 -16 1.33301 -30 4 -42
s8 -21.333 16 -28s20.667 -10 38 -10c16.667 0 31 5 43 15s24 24.333 36 43v376l116 18v-378c0 -29.333 2.66699 -53 8 -71c4.66699 -17.333 11.334 -32 20.001 -44zM215.997 652c0 -18.667 -6.33301 -34 -19 -46c-12 -12.667 -27.333 -19 -46 -19s-34.667 6.33301 -48 19
c-13.333 12 -20.333 27.333 -21 46c0 18.667 6 34 18 46c12.667 12 28.334 18 47.001 18c19.333 0 35.666 -6 48.999 -18s20 -27.333 20 -46zM417.997 653v-1v0v0c-0.666992 -18.667 -7 -34 -19 -46c-12 -12.667 -27.333 -19 -46 -19s-34.667 6.33301 -48 19
c-13.333 12 -20.333 27.333 -21 46c0.666992 18.667 7 34 19 46s27.333 18 46 18c20 0 36.333 -6 49 -18c13.333 -12 20.333 -27.333 21 -46z" />
    <glyph glyph-name="yacute" unicode="&#xfd;" horiz-adv-x="430" 
d="M438 517l-162.001 -530.002c-20 -65.333 -45.667 -115.333 -77 -150s-71 -56 -119 -64l-40 85c25.333 6.66699 46 15.334 62 26.001c16 10 29.333 24 40 42s20.667 42.333 30 73l-38 -2c-2 12.667 -5 28.334 -9 47.001l-15 58l-14 54l-104 356l116 20l80 -304
c2.66699 -12 5.33398 -25.667 8.00098 -41c3.33301 -15.333 6.33301 -30.333 9 -45s4.66699 -26.667 6 -36c2.66699 13.333 6 28 10 44s7.66699 31.333 11 46s6.33301 26.667 9 36l77 288h120v-3zM337.999 672.998v-1v0l-203 -100l-38 64l187 126l54 -90v1z" />
    <glyph glyph-name="thorn" unicode="&#xfe;" horiz-adv-x="503" 
d="M461 266c0 -28 -3.33398 -58 -10.001 -90c-6 -32.667 -16.333 -63.667 -31 -93s-34 -53.333 -58 -72s-53.333 -28.334 -88 -29.001c-24 0.666992 -43.333 5 -58 13s-25.667 16 -33 24v-222l-116 -24v840c0 28 -1 50.667 -3 68l-5 42l116 22
c1.33301 -5.33301 3.33301 -16 6 -32c2.66699 -15.333 4 -35.333 4 -60v-132v-18c-0.666992 -6.66699 -1 -12.667 -1 -18c10.667 12 24.334 22.667 41.001 32c16 9.33301 36.667 14.333 62 15c56 -0.666992 99.333 -23.667 130 -69s46 -109.666 46 -192.999zM336.999 266v-1
v0v0c0 28 -1.33301 52 -4 72c-2.66699 19.333 -6.66699 35.666 -12 48.999c-6.66699 14.667 -15.334 25.334 -26.001 32.001c-10.667 7.33301 -22.667 11 -36 11c-16 0 -30 -4 -42 -12s-21.667 -18 -29 -30v-262c8 -10.667 18 -19.334 30 -26.001s25.333 -10 40 -10
c12 0 23.333 3.33301 34 10s20 18.334 28 35.001c6.66699 15.333 11.334 33 14.001 53s4 46.667 4 80z" />
    <glyph glyph-name="ydieresis" unicode="&#xff;" horiz-adv-x="430" 
d="M438 517l-162.001 -530.002c-20 -65.333 -45.667 -115.333 -77 -150s-71 -56 -119 -64l-40 85c25.333 6.66699 46 15.334 62 26.001c16 10 29.333 24 40 42s20.667 42.333 30 73l-38 -2c-2 12.667 -5 28.334 -9 47.001l-15 58l-14 54l-104 356l116 20l80 -304
c2.66699 -12 5.33398 -25.667 8.00098 -41c3.33301 -15.333 6.33301 -30.333 9 -45s4.66699 -26.667 6 -36c2.66699 13.333 6 28 10 44s7.66699 31.333 11 46s6.33301 26.667 9 36l77 288h120v-3zM177.999 651.998c0 -18.667 -5.99902 -34 -17.999 -46
c-12 -12.667 -27.333 -19 -46 -19s-34.667 6.33301 -48 19c-13.333 12 -20.333 27.333 -21 46c0.666992 18.667 7 34 19 46s27.333 18 46 18c19.333 0 35.666 -6 48.999 -18s20 -27.333 20 -46h-1zM382 652.998v-1v0v0c-0.666992 -18.667 -7 -34 -19 -46
c-12 -12.667 -27.333 -19 -46 -19s-34.667 6.33301 -48 19c-13.333 12 -20 27.333 -20 46s6 34 18 46s27.333 18 46 18c19.333 0 35.666 -6 48.999 -18c12.667 -12 19.334 -27.333 20.001 -46v1z" />
    <glyph glyph-name="Amacron" unicode="&#x100;" horiz-adv-x="524" 
d="M399 0l-44 176h-188l-46 -176h-125l200 708h142l192 -708h-131zM331 273l-46 191.999l-10 48c-4 19.333 -7.33301 37 -10 53c-2.66699 15.333 -4 24.333 -4 27c0 -2.66699 -1.33301 -11.667 -4 -27s-6 -32.666 -10 -51.999c-4 -18.667 -7.66699 -34.667 -11 -48l-45 -192
h140v-1zM406 770.999v-1v0h-278v78h278v-78v1z" />
    <glyph glyph-name="amacron" unicode="&#x101;" horiz-adv-x="467" 
d="M425 58l-63.9961 -78.002c-13.333 5.33301 -25.333 14 -36 26s-18.334 24.667 -23.001 38c-16 -17.333 -33.667 -30.666 -53 -39.999c-20 -9.33301 -43.333 -14 -70 -14c-37.333 0 -67 7.33301 -89 22s-37.667 34 -47 58s-14 50 -14 78
c0.666992 54.667 20 97.334 58 128.001c38.667 31.333 92.667 47.333 162 48h12h14v38c0 15.333 -0.666992 28.333 -2 39s-4.33301 19 -9 25c-4.66699 6.66699 -10.334 11.334 -17.001 14.001s-15 4 -25 4c-26 0 -50.667 -5.33301 -74 -16s-43.666 -24 -60.999 -40l-47 80
c29.333 21.333 60.666 38 93.999 50s67.666 18 102.999 18c38.667 0 70.667 -7.66699 96 -23s42.666 -37.333 51.999 -66c3.33301 -10.667 5.66602 -22.334 6.99902 -35.001s2 -27 2 -43v-57v-67v-58v-30c0 -25.333 2.66699 -46 8 -62
c4.66699 -15.333 14.334 -28 29.001 -38zM280.004 128.998l0.99707 112.001h-10h-6c-40 0 -68.667 -8 -86 -24s-25.666 -37.333 -24.999 -64c0 -22.667 4.66699 -40.334 14 -53.001s23.333 -19 42 -19c14.667 0 28.334 4 41.001 12c12.667 8.66699 22.334 19.667 29.001 33
v3zM368.001 586.999v-1v0h-278v78h278v-78v1z" />
    <glyph glyph-name="Abreve" unicode="&#x102;" horiz-adv-x="524" 
d="M399 0l-44 176h-188l-46 -176h-125l200 708h142l192 -708h-131zM331 273l-46 191.999l-10 48c-4 19.333 -7.33301 37 -10 53c-2.66699 15.333 -4 24.333 -4 27c0 -2.66699 -1.33301 -11.667 -4 -27s-6 -32.666 -10 -51.999c-4 -18.667 -7.66699 -34.667 -11 -48l-45 -192
h140v-1zM428 904.999l0.00390625 -0.999023v0v0c-7.33301 -12 -19.333 -26.667 -36 -44c-16 -17.333 -35 -32.666 -57 -45.999c-22 -14 -45 -21.333 -69 -22c-24.667 0.666992 -48.334 8 -71.001 22s-42.334 29.667 -59.001 47s-28.334 31.666 -35.001 42.999l44 52
c7.33301 -8 17.333 -16.667 30 -26s27 -17.333 43 -24s33 -10 51 -10c16 0 32 4 48 12c16 7.33301 30.667 15.666 44 24.999s23.666 17.333 30.999 24l37 -52h-1z" />
    <glyph glyph-name="abreve" unicode="&#x103;" horiz-adv-x="467" 
d="M425 58l-63.9961 -78.002c-13.333 5.33301 -25.333 14 -36 26s-18.334 24.667 -23.001 38c-16 -17.333 -33.667 -30.666 -53 -39.999c-20 -9.33301 -43.333 -14 -70 -14c-37.333 0 -67 7.33301 -89 22s-37.667 34 -47 58s-14 50 -14 78
c0.666992 54.667 20 97.334 58 128.001c38.667 31.333 92.667 47.333 162 48h12h14v38c0 15.333 -0.666992 28.333 -2 39s-4.33301 19 -9 25c-4.66699 6.66699 -10.334 11.334 -17.001 14.001s-15 4 -25 4c-26 0 -50.667 -5.33301 -74 -16s-43.666 -24 -60.999 -40l-47 80
c29.333 21.333 60.666 38 93.999 50s67.666 18 102.999 18c38.667 0 70.667 -7.66699 96 -23s42.666 -37.333 51.999 -66c3.33301 -10.667 5.66602 -22.334 6.99902 -35.001s2 -27 2 -43v-57v-67v-58v-30c0 -25.333 2.66699 -46 8 -62
c4.66699 -15.333 14.334 -28 29.001 -38zM280.004 128.998l0.99707 112.001h-10h-6c-40 0 -68.667 -8 -86 -24s-25.666 -37.333 -24.999 -64c0 -22.667 4.66699 -40.334 14 -53.001s23.333 -19 42 -19c14.667 0 28.334 4 41.001 12c12.667 8.66699 22.334 19.667 29.001 33
v3zM392.001 719.999l0.000976562 -0.999023v0v0c-7.33301 -12 -19 -26.667 -35 -44c-16.667 -17.333 -36 -32.666 -58 -45.999c-22 -14 -45 -21.333 -69 -22c-25.333 0.666992 -49.333 8 -72 22s-42.667 29.667 -60 47c-16.667 17.333 -28.334 31.666 -35.001 42.999l44 52
c7.33301 -8 17.333 -16.667 30 -26s27 -17.333 43 -24s33 -10 51 -10c16 0 32 4 48 12c16 7.33301 30.667 15.666 44 24.999s24 17.333 32 24l36 -52h1z" />
    <glyph glyph-name="Aogonek" unicode="&#x104;" horiz-adv-x="524" 
d="M534 -179c-13.333 -7.33301 -27.998 -13.668 -43.998 -19.001s-33.333 -8 -52 -8c-28 0 -50.333 8.66699 -67 26s-25.334 40.333 -26.001 69c0.666992 24 6.33398 45.333 17.001 64c10.667 19.333 22.667 35 36 47l-44 176h-188l-46 -176h-125l200 708h142l192 -708
c-11.333 -1.33301 -24.333 -6.66602 -39 -15.999s-27.334 -21.333 -38.001 -36s-16.334 -30.667 -17.001 -48c0 -8 2.33301 -14.667 7 -20s11.667 -8 21 -8c8 0 15.667 1.33301 23 4c8 2.66699 16.667 6.66699 26 12l24 -66zM331.002 272.998l-46 191.999l-10 48
c-4 19.333 -7.33301 37 -10 53c-2.66699 15.333 -4 24.333 -4 27c0 -2.66699 -1.33301 -11.667 -4 -27s-6 -32.666 -10 -51.999c-4 -18.667 -7.66699 -34.667 -11 -48l-45 -192h140v-1z" />
    <glyph glyph-name="aogonek" unicode="&#x105;" horiz-adv-x="467" 
d="M432 -180c-15.333 -8 -31.002 -14.3379 -47.002 -19.0049c-16 -5.33301 -32.667 -8 -50 -8c-28 0.666992 -50 9.66699 -66 27c-16.667 17.333 -25 40 -25 68c0.666992 26.667 8 51.334 22 74.001s31.333 42.334 52 59.001c-2.66699 2.66699 -4.66699 5.66699 -6 9
c-1.33301 4 -2.66602 7.66699 -3.99902 11c-16.667 -17.333 -35 -30.666 -55 -39.999s-42.667 -14 -68 -14c-50 0.666992 -87.667 15 -113 43c-25.333 28.667 -38 67.334 -38 116.001c0.666992 42 11.334 76 32.001 102s47.667 45 81 57s69 18 107 18h13h14v38
c0 14.667 -0.666992 28 -2 40s-6 22 -14 30c-8 7.33301 -21 11 -39 11c-25.333 0 -49.666 -5.33301 -72.999 -16c-22.667 -10.667 -43.334 -24.334 -62.001 -41.001l-47 80c28.667 20.667 59.667 37.334 93 50.001s68 19 104 19c33.333 0 63.333 -6.66699 90 -20
s46 -36 58 -68c4 -12.667 6.66699 -25.667 8 -39s2 -26.666 2 -39.999c0 -34.667 -0.666992 -69.667 -2 -105c-1.33301 -34.667 -2 -69.334 -2 -104.001c-0.666992 -19.333 1 -37.666 5 -54.999s14.667 -32 32 -44c-12 -12 -25.667 -27 -41 -45s-29 -37 -41 -57
s-18.333 -38 -19 -54c0 -8.66699 2.33301 -15.667 7 -21s11.667 -8 21 -8c8.66699 0 17 1.33301 25 4s16 6 24 10l24 -66v-2zM278.998 241.995l-0.000976562 -0.999023v0v0h-8h-8c-20 0 -38.333 -2.66699 -55 -8c-17.333 -5.33301 -31 -14.333 -41 -27
s-15 -30.334 -15 -53.001c0 -20 4.66699 -37 14 -51c8.66699 -13.333 23.667 -20.333 45 -21c14.667 0 28 4 40 12c12.667 8.66699 22.334 19.667 29.001 33v56v56z" />
    <glyph glyph-name="Cacute" unicode="&#x106;" horiz-adv-x="506" 
d="M488 47c-22 -20 -48.334 -35.0029 -79.001 -45.0029c-30.667 -10.667 -65.334 -16 -104.001 -16c-34.667 0 -68.334 7.33301 -101.001 22c-33.333 14.667 -61 35.667 -83 63c-26.667 32 -46.667 69.667 -60 113s-20 96.333 -20 159c0 50 5.33301 97.333 16 142
c11.333 44.667 28.333 84.334 51 119.001s51.334 62 86.001 82s75.667 30 123 30c31.333 0 61 -5 89 -15s50.667 -23.667 68 -41l-58 -90c-16 14 -32.667 24.333 -50 31c-16.667 6.66699 -34.667 10 -54 10c-37.333 -0.666992 -66.333 -13 -87 -37s-35 -54.667 -43 -92
s-12 -76.666 -12 -117.999c0 -34.667 1.33301 -64 4 -88c2 -24 5.66699 -44.667 11 -62s12 -32.666 20 -45.999c14 -23.333 30.333 -42 49 -56c18.667 -13.333 39.334 -20 62.001 -20c21.333 0 41.333 3.33301 60 10s37.334 18 56.001 34l54 -86zM433.999 856.997v-1v0
l-202 -100l-38 64l188 126l53 -90z" />
    <glyph glyph-name="cacute" unicode="&#x107;" horiz-adv-x="404" 
d="M388 56c-22.667 -25.333 -46.666 -43.332 -71.999 -53.999c-25.333 -10 -52 -15 -80 -15c-32.667 0 -61.667 6 -87 18s-46.666 30.667 -63.999 56c-16 24 -28 51.667 -36 83c-8 32 -12 68.333 -12 109c0 53.333 6.66699 98.333 20 135c13.333 37.333 31.333 67.333 54 90
c17.333 17.333 37 30.666 59 39.999s46.333 14 73 14c28 0 52.333 -5 73 -15c20.667 -9.33301 40.334 -23.333 59.001 -42l-56 -75c-10.667 12 -22 21.333 -34 28s-25.333 10 -40 10c-14 0 -26.333 -4 -37 -12s-19.334 -20.667 -26.001 -38
c-6.66699 -18 -11.334 -37.667 -14.001 -59s-4 -47.333 -4 -78c0 -53.333 6.66699 -95 20 -125s34.666 -45 63.999 -45c17.333 0 33.333 4 48 12s28 19.667 40 35l54 -72h-2zM357.001 673.001v-1v0l-203 -100l-38 64l188 126l54 -90z" />
    <glyph glyph-name="Ccircumflex" unicode="&#x108;" horiz-adv-x="506" 
d="M488 47c-22 -20 -48.334 -35.0029 -79.001 -45.0029c-30.667 -10.667 -65.334 -16 -104.001 -16c-34.667 0 -68.334 7.33301 -101.001 22c-33.333 14.667 -61 35.667 -83 63c-26.667 32 -46.667 69.667 -60 113s-20 96.333 -20 159c0 50 5.33301 97.333 16 142
c11.333 44.667 28.333 84.334 51 119.001s51.334 62 86.001 82s75.667 30 123 30c31.333 0 61 -5 89 -15s50.667 -23.667 68 -41l-58 -90c-16 14 -32.667 24.333 -50 31c-16.667 6.66699 -34.667 10 -54 10c-37.333 -0.666992 -66.333 -13 -87 -37s-35 -54.667 -43 -92
s-12 -76.666 -12 -117.999c0 -34.667 1.33301 -64 4 -88c2 -24 5.66699 -44.667 11 -62s12 -32.666 20 -45.999c14 -23.333 30.333 -42 49 -56c18.667 -13.333 39.334 -20 62.001 -20c21.333 0 41.333 3.33301 60 10s37.334 18 56.001 34l54 -86zM481.999 821.997v-1v0
l-43 -66l-122 77l-120 -77l-38 66l162 130l161 -130v1z" />
    <glyph glyph-name="ccircumflex" unicode="&#x109;" horiz-adv-x="404" 
d="M388 56c-22.667 -25.333 -46.666 -43.332 -71.999 -53.999c-25.333 -10 -52 -15 -80 -15c-32.667 0 -61.667 6 -87 18s-46.666 30.667 -63.999 56c-16 24 -28 51.667 -36 83c-8 32 -12 68.333 -12 109c0 53.333 6.66699 98.333 20 135c13.333 37.333 31.333 67.333 54 90
c17.333 17.333 37 30.666 59 39.999s46.333 14 73 14c28 0 52.333 -5 73 -15c20.667 -9.33301 40.334 -23.333 59.001 -42l-56 -75c-10.667 12 -22 21.333 -34 28s-25.333 10 -40 10c-14 0 -26.333 -4 -37 -12s-19.334 -20.667 -26.001 -38
c-6.66699 -18 -11.334 -37.667 -14.001 -59s-4 -47.333 -4 -78c0 -53.333 6.66699 -95 20 -125s34.666 -45 63.999 -45c17.333 0 33.333 4 48 12s28 19.667 40 35l54 -72h-2zM411.001 638.001v-1v0l-43 -66l-122 77l-120 -77l-38 66l162 129l160 -129z" />
    <glyph glyph-name="Cdotaccent" unicode="&#x10a;" horiz-adv-x="506" 
d="M488 47c-22 -20 -48.334 -35.0029 -79.001 -45.0029c-30.667 -10.667 -65.334 -16 -104.001 -16c-34.667 0 -68.334 7.33301 -101.001 22c-33.333 14.667 -61 35.667 -83 63c-26.667 32 -46.667 69.667 -60 113s-20 96.333 -20 159c0 50 5.33301 97.333 16 142
c11.333 44.667 28.333 84.334 51 119.001s51.334 62 86.001 82s75.667 30 123 30c31.333 0 61 -5 89 -15s50.667 -23.667 68 -41l-58 -90c-16 14 -32.667 24.333 -50 31c-16.667 6.66699 -34.667 10 -54 10c-37.333 -0.666992 -66.333 -13 -87 -37s-35 -54.667 -43 -92
s-12 -76.666 -12 -117.999c0 -34.667 1.33301 -64 4 -88c2 -24 5.66699 -44.667 11 -62s12 -32.666 20 -45.999c14 -23.333 30.333 -42 49 -56c18.667 -13.333 39.334 -20 62.001 -20c21.333 0 41.333 3.33301 60 10s37.334 18 56.001 34l54 -86zM399.999 853.997
l0.000976562 -1v0v0c-0.666992 -24 -8.66699 -44 -24 -60c-16 -15.333 -35.333 -23.333 -58 -24c-22.667 0.666992 -41.334 8.66699 -56.001 24c-14.667 16 -22.334 36 -23.001 60c0.666992 24 8.33398 44 23.001 60c15.333 15.333 34.333 23.333 57 24
c22.667 -0.666992 41.667 -8.66699 57 -24c15.333 -16 23.333 -36 24 -60v1z" />
    <glyph glyph-name="cdotaccent" unicode="&#x10b;" horiz-adv-x="404" 
d="M388 56c-22.667 -25.333 -46.666 -43.332 -71.999 -53.999c-25.333 -10 -52 -15 -80 -15c-32.667 0 -61.667 6 -87 18s-46.666 30.667 -63.999 56c-16 24 -28 51.667 -36 83c-8 32 -12 68.333 -12 109c0 53.333 6.66699 98.333 20 135c13.333 37.333 31.333 67.333 54 90
c17.333 17.333 37 30.666 59 39.999s46.333 14 73 14c28 0 52.333 -5 73 -15c20.667 -9.33301 40.334 -23.333 59.001 -42l-56 -75c-10.667 12 -22 21.333 -34 28s-25.333 10 -40 10c-14 0 -26.333 -4 -37 -12s-19.334 -20.667 -26.001 -38
c-6.66699 -18 -11.334 -37.667 -14.001 -59s-4 -47.333 -4 -78c0 -53.333 6.66699 -95 20 -125s34.666 -45 63.999 -45c17.333 0 33.333 4 48 12s28 19.667 40 35l54 -72h-2zM327.001 659.001l0.00195312 -1v0v0c0 -24 -8 -44 -24 -60
c-15.333 -15.333 -34.333 -23.333 -57 -24c-22.667 0.666992 -41.334 8.66699 -56.001 24c-14.667 16 -22.334 36 -23.001 60c0 24 7.66699 44 23 60c14.667 15.333 33.667 23.333 57 24c22.667 -0.666992 41.667 -8.66699 57 -24c16 -16 24 -36 24 -60z" />
    <glyph glyph-name="Ccaron" unicode="&#x10c;" horiz-adv-x="506" 
d="M488 47c-22 -20 -48.334 -35.0029 -79.001 -45.0029c-30.667 -10.667 -65.334 -16 -104.001 -16c-34.667 0 -68.334 7.33301 -101.001 22c-33.333 14.667 -61 35.667 -83 63c-26.667 32 -46.667 69.667 -60 113s-20 96.333 -20 159c0 50 5.33301 97.333 16 142
c11.333 44.667 28.333 84.334 51 119.001s51.334 62 86.001 82s75.667 30 123 30c31.333 0 61 -5 89 -15s50.667 -23.667 68 -41l-58 -90c-16 14 -32.667 24.333 -50 31c-16.667 6.66699 -34.667 10 -54 10c-37.333 -0.666992 -66.333 -13 -87 -37s-35 -54.667 -43 -92
s-12 -76.666 -12 -117.999c0 -34.667 1.33301 -64 4 -88c2 -24 5.66699 -44.667 11 -62s12 -32.666 20 -45.999c14 -23.333 30.333 -42 49 -56c18.667 -13.333 39.334 -20 62.001 -20c21.333 0 41.333 3.33301 60 10s37.334 18 56.001 34l54 -86zM472.999 889.997v-1v0
l-160 -136l-163 136l40 68l124 -78l118 77l40 -66h1z" />
    <glyph glyph-name="ccaron" unicode="&#x10d;" horiz-adv-x="404" 
d="M388 56c-22.667 -25.333 -46.666 -43.332 -71.999 -53.999c-25.333 -10 -52 -15 -80 -15c-32.667 0 -61.667 6 -87 18s-46.666 30.667 -63.999 56c-16 24 -28 51.667 -36 83c-8 32 -12 68.333 -12 109c0 53.333 6.66699 98.333 20 135c13.333 37.333 31.333 67.333 54 90
c17.333 17.333 37 30.666 59 39.999s46.333 14 73 14c28 0 52.333 -5 73 -15c20.667 -9.33301 40.334 -23.333 59.001 -42l-56 -75c-10.667 12 -22 21.333 -34 28s-25.333 10 -40 10c-14 0 -26.333 -4 -37 -12s-19.334 -20.667 -26.001 -38
c-6.66699 -18 -11.334 -37.667 -14.001 -59s-4 -47.333 -4 -78c0 -53.333 6.66699 -95 20 -125s34.666 -45 63.999 -45c17.333 0 33.333 4 48 12s28 19.667 40 35l54 -72h-2zM403.001 707.001v-1v0l-160 -135l-162 135l40 68l124 -78l119 76l40 -66z" />
    <glyph glyph-name="Dcaron" unicode="&#x10e;" horiz-adv-x="559" 
d="M523 360c0 -42.667 -3.99902 -84.999 -11.999 -126.999c-8 -42.667 -21.333 -81.334 -40 -116.001s-44.667 -62.667 -78 -84c-32.667 -21.333 -74.334 -32.333 -125.001 -33h-196v708h170c72 -0.666992 128.333 -15.667 169 -45s69 -70 85 -122s23.667 -112.333 23 -181
h4zM389.001 361.001c0 23.333 -1.33008 48.667 -3.99707 76c-2.66699 28 -8.33398 54.667 -17.001 80s-22 46 -40 62s-42.333 24.333 -73 25h-64v-498h68c47.333 0 80.666 21.333 99.999 64s28.666 106 27.999 190zM435.004 890.002v-1v0l-160 -136l-163 136l40 68l124 -78
l118 77l40 -66h1z" />
    <glyph glyph-name="dcaron" unicode="&#x10f;" horiz-adv-x="594" 
d="M441 1h-104.002c-2.66699 6.66699 -4.66699 13.334 -6 20.001s-2 13.667 -2 21c-13.333 -17.333 -28.666 -30.333 -45.999 -39s-37.333 -13 -60 -13c-36 0 -66 8 -90 24s-42.667 37 -56 63c-13.333 25.333 -22.666 53.333 -27.999 84s-8 61.334 -8 92.001
c0 29.333 3.33301 60 10 92s17.334 62 32.001 90s34 50.667 58 68s53.667 26.333 89 27c16 0 32 -3.33301 48 -10s29.333 -16 40 -28c-1.33301 13.333 -2.33301 26.666 -3 39.999c-1.33301 13.333 -2 26.666 -2 39.999v176l116 -18v-584c0 -24 0.666992 -48.333 2 -73
s4.66602 -49 9.99902 -73v1zM313.998 130l-0.00195312 272c-7.33301 12 -17 20.667 -29 26s-24.667 8 -38 8c-20 0 -35.667 -6.66699 -47 -20c-10.667 -13.333 -18.667 -30 -24 -50c-4.66699 -20 -7.66699 -40 -9 -60s-2 -37.333 -2 -52c0 -14 0.666992 -30.333 2 -49
s4.33301 -36.667 9 -54s12.334 -32 23.001 -44s25.334 -18 44.001 -18c14.667 0 28.667 3.33301 42 10s23 16.667 29 30v1zM611.996 661l-0.000976562 -1.00195v0v0c0 -15.333 -2.66699 -29.666 -8 -42.999s-12.666 -25.666 -21.999 -36.999
c-7.33301 -9.33301 -17.666 -18.333 -30.999 -27c-12.667 -8.66699 -26.334 -15.667 -41.001 -21l-37 39c16 4.66699 28.667 11 38 19c8.66699 8 13 17.333 13 28c0 4 -1.33301 7.33301 -4 10c-2.66699 2 -6 4 -10 6c-10.667 4.66699 -19 11 -25 19
c-5.33301 8.66699 -8 19 -8 31c0.666992 17.333 7 31.333 19 42s26.667 16 44 16c22.667 0 40.667 -7.33301 54 -22s20 -34.667 20 -60z" />
    <glyph glyph-name="Dcroat" unicode="&#x110;" horiz-adv-x="559" 
d="M523 360c0 -42.667 -3.99902 -85.333 -11.999 -128c-8 -42 -21.333 -80.333 -40 -115s-44.667 -62.667 -78 -84c-32.667 -21.333 -74.334 -32.333 -125.001 -33h-196v309h-56v106h56v294h170c72 -0.666992 128.333 -15.667 169 -45s69 -70 85 -122
s23.667 -112.667 23 -182h4zM388.001 360.001l0.00292969 -1v0v0c0 23.333 -1.33301 49 -4 77s-8.33398 54.667 -17.001 80s-22 46 -40 62s-42.333 24.333 -73 25h-64v-188h106l-5 -106h-100v-204h68c47.333 0 80.666 21.333 99.999 64s28.666 106 27.999 190z" />
    <glyph glyph-name="dcroat" unicode="&#x111;" horiz-adv-x="501" 
d="M492 577l-60 0.000976562v-435c0 -32.667 0.666992 -61 2 -85s4 -44.333 8 -61h-104c-1.33301 3.33301 -3 9 -5 17c-1.33301 8 -2.33301 16.667 -3 26c-12 -16 -26.333 -28.667 -43 -38s-37.334 -14 -62.001 -14c-58.667 0.666992 -104 23.667 -136 69s-48 110 -48 194
c0 29.333 3.33301 60 10 92s17.334 62 32.001 90s34 50.667 58 68s53.667 26.333 89 27c17.333 0 34 -3.33301 50 -10s29 -15.334 39 -26.001c-1.33301 12 -2.33301 24.333 -3 37c-1.33301 13.333 -2 27.333 -2 42v10h-102v78h102v88l116 -18v-70h60v-78zM315 132.001v-1v0
v272c-6.66699 10.667 -15.667 18.667 -27 24c-11.333 6 -25 9 -41 9c-20 -0.666992 -35.667 -7.66699 -47 -21c-10.667 -13.333 -18.667 -30 -24 -50c-4.66699 -20 -7.66699 -40 -9 -60s-2 -37 -2 -51c0 -14.667 0.666992 -31.334 2 -50.001s4.33301 -36.667 9 -54
s12.334 -31.666 23.001 -42.999c10.667 -12 25.334 -18 44.001 -18c15.333 0 29.666 3.33301 42.999 10s22.666 16.667 27.999 30z" />
    <glyph glyph-name="Emacron" unicode="&#x112;" horiz-adv-x="449" 
d="M428 1h-358v708h352l-14 -106h-216v-182h180v-104h-180v-209h236v-108v1zM385 771v-1v0h-278v78h278v-78v1z" />
    <glyph glyph-name="emacron" unicode="&#x113;" horiz-adv-x="460" 
d="M429 231l-267.003 -0.00292969v-10c0 -17.333 1.33301 -33.666 4 -48.999s7.33398 -29.666 14.001 -42.999c8.66699 -16 20.334 -28.333 35.001 -37c14 -8 30.333 -12 49 -12c20.667 0 40.334 4.66699 59.001 14c18.667 8.66699 36.667 21.334 54 38.001l46 -75
c-25.333 -24 -52 -41.333 -80 -52c-28 -11.333 -58 -17 -90 -17c-68 0.666992 -120.667 24.667 -158 72c-37.333 48 -56 115.333 -56 202c0 44.667 4.66699 83.667 14 117s23.333 62 42 86c18 22.667 39 39.667 63 51s50.667 17 80 17c28 0 53.333 -4.66699 76 -14
s42 -23 58 -41c20.667 -22.667 35.667 -51.667 45 -87s14 -81 14 -137v-22zM311.997 313.997c0 20.667 -1 38.999 -3 54.999c-2.66699 16.667 -6.33398 30.334 -11.001 41.001c-5.33301 12 -12.666 21.333 -21.999 28s-21.333 10 -36 10c-26 0 -45 -11 -57 -33
c-12 -21.333 -18.333 -55 -19 -101h150h-2zM378.997 586.996v-1v0h-278v78h278v-78v1z" />
    <glyph glyph-name="Ebreve" unicode="&#x114;" horiz-adv-x="449" 
d="M428 1h-358v708h352l-14 -106h-216v-182h180v-104h-180v-209h236v-108v1zM408 904l0.00292969 0.000976562c-7.33301 -12 -19.333 -26.667 -36 -44c-16 -17.333 -35 -32.666 -57 -45.999c-22 -14 -45 -21.333 -69 -22c-25.333 0.666992 -49.333 8 -72 22
s-42.334 29.667 -59.001 47s-28.334 31.666 -35.001 42.999l44 52c7.33301 -8 17.333 -16.667 30 -26s27 -17.333 43 -24s33 -10 51 -10c16 0 32 4 48 12c16 7.33301 30.667 15.666 44 24.999s23.666 17.333 30.999 24l37 -52v-1z" />
    <glyph glyph-name="ebreve" unicode="&#x115;" horiz-adv-x="460" 
d="M429 231l-267.003 -0.00292969v-10c0 -17.333 1.33301 -33.666 4 -48.999s7.33398 -29.666 14.001 -42.999c8.66699 -16 20.334 -28.333 35.001 -37c14 -8 30.333 -12 49 -12c20.667 0 40.334 4.66699 59.001 14c18.667 8.66699 36.667 21.334 54 38.001l46 -75
c-25.333 -24 -52 -41.333 -80 -52c-28 -11.333 -58 -17 -90 -17c-68 0.666992 -120.667 24.667 -158 72c-37.333 48 -56 115.333 -56 202c0 44.667 4.66699 83.667 14 117s23.333 62 42 86c18 22.667 39 39.667 63 51s50.667 17 80 17c28 0 53.333 -4.66699 76 -14
s42 -23 58 -41c20.667 -22.667 35.667 -51.667 45 -87s14 -81 14 -137v-22zM311.997 313.997c0 20.667 -1 38.999 -3 54.999c-2.66699 16.667 -6.33398 30.334 -11.001 41.001c-5.33301 12 -12.666 21.333 -21.999 28s-21.333 10 -36 10c-26 0 -45 -11 -57 -33
c-12 -21.333 -18.333 -55 -19 -101h150h-2zM403.997 718.996l0.00390625 0.000976562c-7.33301 -12 -19.333 -26.667 -36 -44c-16 -17.333 -35 -32.666 -57 -45.999c-22 -14 -45 -21.333 -69 -22c-24.667 0.666992 -48.334 8 -71.001 22s-42.334 29.667 -59.001 47
s-28.334 31.666 -35.001 42.999l44 52c7.33301 -8 17.333 -16.667 30 -26s27 -17.333 43 -24s32.667 -10 50 -10c16 0 32 4 48 12c16 7.33301 30.667 15.666 44 24.999s23.666 17.333 30.999 24l37 -52v-1z" />
    <glyph glyph-name="Edotaccent" unicode="&#x116;" horiz-adv-x="449" 
d="M428 1h-358v708h352l-14 -106h-216v-182h180v-104h-180v-209h236v-108v1zM327 854l0.00195312 -1v0v0c0 -24 -8 -44 -24 -60c-15.333 -15.333 -34.333 -23.333 -57 -24c-22.667 0.666992 -41.334 8.66699 -56.001 24c-14.667 16 -22.334 36 -23.001 60
c0 24 7.66699 44 23 60c14.667 15.333 33.667 23.333 57 24c22.667 -0.666992 41.667 -8.66699 57 -24c16 -16 24 -36 24 -60z" />
    <glyph glyph-name="edotaccent" unicode="&#x117;" horiz-adv-x="460" 
d="M429 231l-267.003 -0.00292969v-10c0 -17.333 1.33301 -33.666 4 -48.999s7.33398 -29.666 14.001 -42.999c8.66699 -16 20.334 -28.333 35.001 -37c14 -8 30.333 -12 49 -12c20.667 0 40.334 4.66699 59.001 14c18.667 8.66699 36.667 21.334 54 38.001l46 -75
c-25.333 -24 -52 -41.333 -80 -52c-28 -11.333 -58 -17 -90 -17c-68 0.666992 -120.667 24.667 -158 72c-37.333 48 -56 115.333 -56 202c0 44.667 4.66699 83.667 14 117s23.333 62 42 86c18 22.667 39 39.667 63 51s50.667 17 80 17c28 0 53.333 -4.66699 76 -14
s42 -23 58 -41c20.667 -22.667 35.667 -51.667 45 -87s14 -81 14 -137v-22zM311.997 313.997c0 20.667 -1 38.999 -3 54.999c-2.66699 16.667 -6.33398 30.334 -11.001 41.001c-5.33301 12 -12.666 21.333 -21.999 28s-21.333 10 -36 10c-26 0 -45 -11 -57 -33
c-12 -21.333 -18.333 -55 -19 -101h150h-2zM321.997 658.996v-1v0v0c-0.666992 -24 -8.66699 -44 -24 -60c-15.333 -15.333 -34.666 -23.333 -57.999 -24c-22.667 0.666992 -41.334 8.66699 -56.001 24c-14.667 16 -22.334 36 -23.001 60c0.666992 24 8.66699 44 24 60
c14.667 15.333 33.334 23.333 56.001 24c22.667 -0.666992 41.667 -8.66699 57 -24c15.333 -16 23.333 -36 24 -60v1z" />
    <glyph glyph-name="Eogonek" unicode="&#x118;" horiz-adv-x="449" 
d="M453 -177v-1.00293v0v0c-13.333 -7.33301 -28 -13.666 -44 -18.999s-33.333 -8 -52 -8c-28 0 -50.333 8.66699 -67 26s-25.334 40.333 -26.001 69c0.666992 24 6.33398 45.333 17.001 64c10.667 19.333 22.667 35 36 47h-248v708h352l-14 -106h-216v-182h180v-104h-180
v-209h236v-108c-6.66699 -4 -15.667 -10.667 -27 -20c-10.667 -9.33301 -20.667 -20.666 -30 -33.999s-14 -28.666 -14 -45.999c0 -8 2 -14.667 6 -20c4.66699 -5.33301 11.667 -8 21 -8c8 0 15.667 1.33301 23 4c8 2.66699 16.667 6.66699 26 12l24 -66z" />
    <glyph glyph-name="eogonek" unicode="&#x119;" horiz-adv-x="460" 
d="M410 -181c-14 -7.33301 -29.0029 -13.668 -45.0029 -19.001s-33.333 -8 -52 -8c-28 0 -50.333 8.66699 -67 26s-25 40.333 -25 69c0 20 4 38.333 12 55c8 17.333 17.333 32 28 44h-10c-68 0.666992 -120.667 24.667 -158 72c-37.333 48 -56 115.333 -56 202
c0 44.667 4.66699 83.667 14 117s23.333 62 42 86c18 22.667 39 39.667 63 51s50.667 17 80 17c28 0 53.333 -4.66699 76 -14s42 -23 58 -41c20.667 -22.667 35.667 -51.667 45 -87s14 -81 14 -137v-22h-267v-10c0 -17.333 1.33301 -33.666 4 -48.999
s7.33398 -29.666 14.001 -42.999c8.66699 -16 20.334 -28.333 35.001 -37c14 -8 30.333 -12 49 -12c20.667 0 40.334 4.66699 59.001 14c18.667 8.66699 36.667 21.334 54 38.001l46 -75c-5.33301 -4 -14 -11.333 -26 -22s-24.667 -23.334 -38 -38.001
s-24.666 -30.334 -33.999 -47.001s-14 -33 -14 -49c0 -8 2.33301 -14.667 7 -20s11.667 -8 21 -8c8 0 16 1.33301 24 4c7.33301 2.66699 15.666 6.66699 24.999 12l25 -66zM311.997 314.998v-1.00098v0v0c0 20.667 -1 39 -3 55
c-2.66699 16.667 -6.33398 30.334 -11.001 41.001c-5.33301 12 -12.666 21.333 -21.999 28s-21.333 10 -36 10c-26 0 -45 -11 -57 -33c-12 -21.333 -18.333 -55 -19 -101h150z" />
    <glyph glyph-name="Ecaron" unicode="&#x11a;" horiz-adv-x="449" 
d="M428 1h-358v708h352l-14 -106h-216v-182h180v-104h-180v-209h236v-108v1zM399 890v-1v0l-160 -136l-162 136l40 68l124 -78l119 77l40 -66h-1z" />
    <glyph glyph-name="ecaron" unicode="&#x11b;" horiz-adv-x="460" 
d="M429 231l-267.003 -0.00292969v-10c0 -17.333 1.33301 -33.666 4 -48.999s7.33398 -29.666 14.001 -42.999c8.66699 -16 20.334 -28.333 35.001 -37c14 -8 30.333 -12 49 -12c20.667 0 40.334 4.66699 59.001 14c18.667 8.66699 36.667 21.334 54 38.001l46 -75
c-25.333 -24 -52 -41.333 -80 -52c-28 -11.333 -58 -17 -90 -17c-68 0.666992 -120.667 24.667 -158 72c-37.333 48 -56 115.333 -56 202c0 44.667 4.66699 83.667 14 117s23.333 62 42 86c18 22.667 39 39.667 63 51s50.667 17 80 17c28 0 53.333 -4.66699 76 -14
s42 -23 58 -41c20.667 -22.667 35.667 -51.667 45 -87s14 -81 14 -137v-22zM311.997 313.997c0 20.667 -1 38.999 -3 54.999c-2.66699 16.667 -6.33398 30.334 -11.001 41.001c-5.33301 12 -12.666 21.333 -21.999 28s-21.333 10 -36 10c-26 0 -45 -11 -57 -33
c-12 -21.333 -18.333 -55 -19 -101h150h-2zM396.997 706.996v-1v0l-160 -135l-162 135l40 68l124 -78l119 76l40 -66z" />
    <glyph glyph-name="Gcircumflex" unicode="&#x11c;" horiz-adv-x="580" 
d="M516 57c-29.333 -21.333 -61 -37.665 -95 -48.998c-34.667 -11.333 -72 -17 -112 -17c-36.667 0 -71 7 -103 21c-32.667 13.333 -61.667 35 -87 65c-24 28 -43 64 -57 108s-21 99 -21 165c0 45.333 4.66699 90 14 134s24.666 84 45.999 120s49.666 64.667 84.999 86
s78.333 32.333 129 33c37.333 0 73.333 -7.33301 108 -22s65.334 -35.334 92.001 -62.001l-66 -80c-20 18.667 -40.667 33 -62 43s-43.666 15 -66.999 15c-33.333 -0.666992 -60 -9.66699 -80 -27c-20 -18 -35 -41 -45 -69c-9.33301 -28 -15.333 -57 -18 -87
s-4 -57.667 -4 -83s1.66699 -52.666 5 -81.999c2.66699 -29.333 9 -57.333 19 -84c9.33301 -26.667 24 -48.334 44 -65.001s46.667 -25.334 80 -26.001c14.667 0 29 2 43 6s26 8.66699 36 14v169h-97l-18 104h232v-334zM482 822.001v-1v0l-43 -66l-122 77l-120 -77l-38 66
l162 130l161 -130v1z" />
    <glyph glyph-name="gcircumflex" unicode="&#x11d;" horiz-adv-x="468" 
d="M476 443c-8 -6 -16.6709 -11.001 -26.0039 -15.001c-10 -4 -20.333 -6 -31 -6c-8 0 -16 1 -24 3c8 -10.667 14 -22.667 18 -36s6 -26.666 6 -39.999c-0.666992 -39.333 -11 -71 -31 -95s-45.333 -41.333 -76 -52c-30 -10.667 -61 -16 -93 -16h-12
c-16 -8 -26.667 -15 -32 -21c-5.33301 -5.33301 -8 -10.666 -8 -15.999c0 -7.33301 3.33301 -12.333 10 -15s16 -4 28 -4c6.66699 0 16 -0.333008 28 -1c12 0 25 -0.666992 39 -2c13.333 -0.666992 26 -1.33398 38 -2.00098c25.333 -1.33301 48.333 -7.33301 69 -18
c20 -10.667 36 -26 48 -46s18 -44.667 18 -74c0 -43.333 -9.33301 -78.666 -28 -105.999c-18.667 -26.667 -44 -46.334 -76 -59.001s-68 -19 -108 -19c-21.333 0 -43.666 2 -66.999 6s-45.333 10.667 -66 20c-20 9.33301 -36.333 22.666 -49 39.999
c-13.333 17.333 -20 39.333 -20 66c0 10.667 0.666992 21 2 31c1.33301 10.667 3.33301 20.667 6 30l110 3c-2 -6.66699 -3.66699 -13.667 -5 -21s-2 -14.333 -2 -21c0 -18.667 4.66699 -32.667 14 -42s21.333 -15.666 36 -18.999s29.667 -5 45 -5c26 0 48 6 66 18
s27.333 32 28 60c0 18.667 -3.66699 32.667 -11 42c-8 9.33301 -19 15.333 -33 18c-14.667 3.33301 -32 5 -52 5h-31h-32h-23c-15.333 1.33301 -29.666 4.66602 -42.999 9.99902s-24 14 -32 26c-8.66699 12 -13 28 -13 48c0.666992 22 8.33398 40 23.001 54
c14.667 14.667 32 26 52 34c-30.667 12 -54 31 -70 57c-16 26.667 -24 56 -24 88c0 38 8 70 24 96s38 45.667 66 59s60.333 20 97 20c11.333 0 22.333 -0.666992 33 -2s21.334 -4 32.001 -8c8.66699 -2.66699 17 -5.66699 25 -9s14.667 -5 20 -5c14.667 0 30 1.33301 46 4
s30 8.33398 42 17.001l46 -77zM290.996 359.999c0 24 -4.66699 44 -14 60s-27 24.333 -53 25c-25.333 -0.666992 -43 -9 -53 -25c-10 -16.667 -15 -37 -15 -61s5.33301 -44 16 -60s28.667 -24.333 54 -25c25.333 0.666992 43 9 53 25c9.33301 16 14 35.667 14 59z
M391.996 637.999v-1v0l-43 -66l-122 77l-120 -77l-38 66l162 129l160 -129z" />
    <glyph glyph-name="Gbreve" unicode="&#x11e;" horiz-adv-x="580" 
d="M516 57c-29.333 -21.333 -61 -37.665 -95 -48.998c-34.667 -11.333 -72 -17 -112 -17c-36.667 0 -71 7 -103 21c-32.667 13.333 -61.667 35 -87 65c-24 28 -43 64 -57 108s-21 99 -21 165c0 45.333 4.66699 90 14 134s24.666 84 45.999 120s49.666 64.667 84.999 86
s78.333 32.333 129 33c37.333 0 73.333 -7.33301 108 -22s65.334 -35.334 92.001 -62.001l-66 -80c-20 18.667 -40.667 33 -62 43s-43.666 15 -66.999 15c-33.333 -0.666992 -60 -9.66699 -80 -27c-20 -18 -35 -41 -45 -69c-9.33301 -28 -15.333 -57 -18 -87
s-4 -57.667 -4 -83s1.66699 -52.666 5 -81.999c2.66699 -29.333 9 -57.333 19 -84c9.33301 -26.667 24 -48.334 44 -65.001s46.667 -25.334 80 -26.001c14.667 0 29 2 43 6s26 8.66699 36 14v169h-97l-18 104h232v-334zM479 904.001l0.000976562 0.000976562
c-7.33301 -12 -19 -26.667 -35 -44c-16.667 -17.333 -36 -32.666 -58 -45.999c-22 -14 -45 -21.333 -69 -22c-25.333 0.666992 -49.333 8 -72 22s-42.334 29.667 -59.001 47c-17.333 17.333 -29.333 31.666 -36 42.999l44 52c7.33301 -8 17.333 -16.667 30 -26
c13.333 -9.33301 28 -17.333 44 -24s33 -10 51 -10c16 0 32 4 48 12c16 7.33301 30.667 15.666 44 24.999s24 17.333 32 24l36 -52v-1z" />
    <glyph glyph-name="gbreve" unicode="&#x11f;" horiz-adv-x="468" 
d="M476 443c-8 -6 -16.6709 -11.001 -26.0039 -15.001c-10 -4 -20.333 -6 -31 -6c-8 0 -16 1 -24 3c8 -10.667 14 -22.667 18 -36s6 -26.666 6 -39.999c-0.666992 -39.333 -11 -71 -31 -95s-45.333 -41.333 -76 -52c-30 -10.667 -61 -16 -93 -16h-12
c-16 -8 -26.667 -15 -32 -21c-5.33301 -5.33301 -8 -10.666 -8 -15.999c0 -7.33301 3.33301 -12.333 10 -15s16 -4 28 -4c6.66699 0 16 -0.333008 28 -1c12 0 25 -0.666992 39 -2c13.333 -0.666992 26 -1.33398 38 -2.00098c25.333 -1.33301 48.333 -7.33301 69 -18
c20 -10.667 36 -26 48 -46s18 -44.667 18 -74c0 -43.333 -9.33301 -78.666 -28 -105.999c-18.667 -26.667 -44 -46.334 -76 -59.001s-68 -19 -108 -19c-21.333 0 -43.666 2 -66.999 6s-45.333 10.667 -66 20c-20 9.33301 -36.333 22.666 -49 39.999
c-13.333 17.333 -20 39.333 -20 66c0 10.667 0.666992 21 2 31c1.33301 10.667 3.33301 20.667 6 30l110 3c-2 -6.66699 -3.66699 -13.667 -5 -21s-2 -14.333 -2 -21c0 -18.667 4.66699 -32.667 14 -42s21.333 -15.666 36 -18.999s29.667 -5 45 -5c26 0 48 6 66 18
s27.333 32 28 60c0 18.667 -3.66699 32.667 -11 42c-8 9.33301 -19 15.333 -33 18c-14.667 3.33301 -32 5 -52 5h-31h-32h-23c-15.333 1.33301 -29.666 4.66602 -42.999 9.99902s-24 14 -32 26c-8.66699 12 -13 28 -13 48c0.666992 22 8.33398 40 23.001 54
c14.667 14.667 32 26 52 34c-30.667 12 -54 31 -70 57c-16 26.667 -24 56 -24 88c0 38 8 70 24 96s38 45.667 66 59s60.333 20 97 20c11.333 0 22.333 -0.666992 33 -2s21.334 -4 32.001 -8c8.66699 -2.66699 17 -5.66699 25 -9s14.667 -5 20 -5c14.667 0 30 1.33301 46 4
s30 8.33398 42 17.001l46 -77zM290.996 359.999c0 24 -4.66699 44 -14 60s-27 24.333 -53 25c-25.333 -0.666992 -43 -9 -53 -25c-10 -16.667 -15 -37 -15 -61s5.33301 -44 16 -60s28.667 -24.333 54 -25c25.333 0.666992 43 9 53 25c9.33301 16 14 35.667 14 59z
M390.996 719.999l0.000976562 -0.999023v0v0c-7.33301 -12 -19 -26.667 -35 -44c-16.667 -17.333 -36 -32.666 -58 -45.999c-22 -14 -45 -21.333 -69 -22c-25.333 0.666992 -49.333 8 -72 22s-42.667 29.667 -60 47c-16.667 17.333 -28.334 31.666 -35.001 42.999l44 52
c7.33301 -8 17.333 -16.667 30 -26s27 -17.333 43 -24s33 -10 51 -10c16 0 32 4 48 12c16 7.33301 30.667 15.666 44 24.999s24 17.333 32 24l36 -52h1z" />
    <glyph glyph-name="Gdotaccent" unicode="&#x120;" horiz-adv-x="580" 
d="M516 57c-29.333 -21.333 -61 -37.665 -95 -48.998c-34.667 -11.333 -72 -17 -112 -17c-36.667 0 -71 7 -103 21c-32.667 13.333 -61.667 35 -87 65c-24 28 -43 64 -57 108s-21 99 -21 165c0 45.333 4.66699 90 14 134s24.666 84 45.999 120s49.666 64.667 84.999 86
s78.333 32.333 129 33c37.333 0 73.333 -7.33301 108 -22s65.334 -35.334 92.001 -62.001l-66 -80c-20 18.667 -40.667 33 -62 43s-43.666 15 -66.999 15c-33.333 -0.666992 -60 -9.66699 -80 -27c-20 -18 -35 -41 -45 -69c-9.33301 -28 -15.333 -57 -18 -87
s-4 -57.667 -4 -83s1.66699 -52.666 5 -81.999c2.66699 -29.333 9 -57.333 19 -84c9.33301 -26.667 24 -48.334 44 -65.001s46.667 -25.334 80 -26.001c14.667 0 29 2 43 6s26 8.66699 36 14v169h-97l-18 104h232v-334zM398 854.001l0.000976562 -1v0v0
c-0.666992 -24 -8.66699 -44 -24 -60c-16 -15.333 -35.333 -23.333 -58 -24c-22.667 0.666992 -41.334 8.66699 -56.001 24c-14.667 16 -22.334 36 -23.001 60c0.666992 24 8.33398 44 23.001 60c15.333 15.333 34.333 23.333 57 24
c22.667 -0.666992 41.667 -8.66699 57 -24c15.333 -16 23.333 -36 24 -60v1z" />
    <glyph glyph-name="gdotaccent" unicode="&#x121;" horiz-adv-x="468" 
d="M476 443c-8 -6 -16.6709 -11.001 -26.0039 -15.001c-10 -4 -20.333 -6 -31 -6c-8 0 -16 1 -24 3c8 -10.667 14 -22.667 18 -36s6 -26.666 6 -39.999c-0.666992 -39.333 -11 -71 -31 -95s-45.333 -41.333 -76 -52c-30 -10.667 -61 -16 -93 -16h-12
c-16 -8 -26.667 -15 -32 -21c-5.33301 -5.33301 -8 -10.666 -8 -15.999c0 -7.33301 3.33301 -12.333 10 -15s16 -4 28 -4c6.66699 0 16 -0.333008 28 -1c12 0 25 -0.666992 39 -2c13.333 -0.666992 26 -1.33398 38 -2.00098c25.333 -1.33301 48.333 -7.33301 69 -18
c20 -10.667 36 -26 48 -46s18 -44.667 18 -74c0 -43.333 -9.33301 -78.666 -28 -105.999c-18.667 -26.667 -44 -46.334 -76 -59.001s-68 -19 -108 -19c-21.333 0 -43.666 2 -66.999 6s-45.333 10.667 -66 20c-20 9.33301 -36.333 22.666 -49 39.999
c-13.333 17.333 -20 39.333 -20 66c0 10.667 0.666992 21 2 31c1.33301 10.667 3.33301 20.667 6 30l110 3c-2 -6.66699 -3.66699 -13.667 -5 -21s-2 -14.333 -2 -21c0 -18.667 4.66699 -32.667 14 -42s21.333 -15.666 36 -18.999s29.667 -5 45 -5c26 0 48 6 66 18
s27.333 32 28 60c0 18.667 -3.66699 32.667 -11 42c-8 9.33301 -19 15.333 -33 18c-14.667 3.33301 -32 5 -52 5h-31h-32h-23c-15.333 1.33301 -29.666 4.66602 -42.999 9.99902s-24 14 -32 26c-8.66699 12 -13 28 -13 48c0.666992 22 8.33398 40 23.001 54
c14.667 14.667 32 26 52 34c-30.667 12 -54 31 -70 57c-16 26.667 -24 56 -24 88c0 38 8 70 24 96s38 45.667 66 59s60.333 20 97 20c11.333 0 22.333 -0.666992 33 -2s21.334 -4 32.001 -8c8.66699 -2.66699 17 -5.66699 25 -9s14.667 -5 20 -5c14.667 0 30 1.33301 46 4
s30 8.33398 42 17.001l46 -77zM290.996 359.999c0 24 -4.66699 44 -14 60s-27 24.333 -53 25c-25.333 -0.666992 -43 -9 -53 -25c-10 -16.667 -15 -37 -15 -61s5.33301 -44 16 -60s28.667 -24.333 54 -25c25.333 0.666992 43 9 53 25c9.33301 16 14 35.667 14 59z
M308.996 658.999l0.000976562 -1v0v0c0 -24 -8 -44 -24 -60c-15.333 -15.333 -34.333 -23.333 -57 -24c-22.667 0.666992 -41.334 8.66699 -56.001 24c-14.667 16 -22.334 36 -23.001 60c0.666992 24 8.33398 44 23.001 60c14.667 15.333 33.667 23.333 57 24
c22.667 -0.666992 41.667 -8.66699 57 -24c15.333 -16 23 -36 23 -60v1z" />
    <glyph glyph-name="Gcommaaccent" unicode="&#x122;" horiz-adv-x="580" 
d="M516 57c-29.333 -21.333 -61 -37.665 -95 -48.998c-34.667 -11.333 -72 -17 -112 -17c-36.667 0 -71 7 -103 21c-32.667 13.333 -61.667 35 -87 65c-24 28 -43 64 -57 108s-21 99 -21 165c0 45.333 4.66699 90 14 134s24.666 84 45.999 120s49.666 64.667 84.999 86
s78.333 32.333 129 33c37.333 0 73.333 -7.33301 108 -22s65.334 -35.334 92.001 -62.001l-66 -80c-20 18.667 -40.667 33 -62 43s-43.666 15 -66.999 15c-33.333 -0.666992 -60 -9.66699 -80 -27c-20 -18 -35 -41 -45 -69c-9.33301 -28 -15.333 -57 -18 -87
s-4 -57.667 -4 -83s1.66699 -52.666 5 -81.999c2.66699 -29.333 9 -57.333 19 -84c9.33301 -26.667 24 -48.334 44 -65.001s46.667 -25.334 80 -26.001c14.667 0 29 2 43 6s26 8.66699 36 14v169h-97l-18 104h232v-334zM383 -123.999l-0.000976562 -1.00293v0v0
c0 -15.333 -2.66699 -29.666 -8 -42.999s-12.666 -25.666 -21.999 -36.999c-8 -9.33301 -18.333 -18.333 -31 -27c-13.333 -8.66699 -27.333 -15.667 -42 -21l-37 39c16 4.66699 28.667 11 38 19c8.66699 8 13 17.333 13 28c0 4 -1.33301 7.33301 -4 10
c-2.66699 2 -6 4 -10 6c-10.667 4.66699 -19 11 -25 19c-5.33301 8.66699 -8 19 -8 31c0 16.667 6 30.334 18 41.001s27 16 45 16c22 0 39.667 -7.33301 53 -22s20 -34.667 20 -60v2z" />
    <glyph glyph-name="gcommaaccent" unicode="&#x123;" horiz-adv-x="468" 
d="M476 443c-8 -6 -16.6709 -11.001 -26.0039 -15.001c-10 -4 -20.333 -6 -31 -6c-8 0 -16 1 -24 3c8 -10.667 14 -22.667 18 -36s6 -26.666 6 -39.999c-0.666992 -39.333 -11 -71 -31 -95s-45.333 -41.333 -76 -52c-30 -10.667 -61 -16 -93 -16h-12
c-16 -8 -26.667 -15 -32 -21c-5.33301 -5.33301 -8 -10.666 -8 -15.999c0 -7.33301 3.33301 -12.333 10 -15s16 -4 28 -4c6.66699 0 16 -0.333008 28 -1c12 0 25 -0.666992 39 -2c13.333 -0.666992 26 -1.33398 38 -2.00098c25.333 -1.33301 48.333 -7.33301 69 -18
c20 -10.667 36 -26 48 -46s18 -44.667 18 -74c0 -43.333 -9.33301 -78.666 -28 -105.999c-18.667 -26.667 -44 -46.334 -76 -59.001s-68 -19 -108 -19c-21.333 0 -43.666 2 -66.999 6s-45.333 10.667 -66 20c-20 9.33301 -36.333 22.666 -49 39.999
c-13.333 17.333 -20 39.333 -20 66c0 10.667 0.666992 21 2 31c1.33301 10.667 3.33301 20.667 6 30l110 3c-2 -6.66699 -3.66699 -13.667 -5 -21s-2 -14.333 -2 -21c0 -18.667 4.66699 -32.667 14 -42s21.333 -15.666 36 -18.999s29.667 -5 45 -5c26 0 48 6 66 18
s27.333 32 28 60c0 18.667 -3.66699 32.667 -11 42c-8 9.33301 -19 15.333 -33 18c-14.667 3.33301 -32 5 -52 5h-31h-32h-23c-15.333 1.33301 -29.666 4.66602 -42.999 9.99902s-24 14 -32 26c-8.66699 12 -13 28 -13 48c0.666992 22 8.33398 40 23.001 54
c14.667 14.667 32 26 52 34c-30.667 12 -54 31 -70 57c-16 26.667 -24 56 -24 88c0 38 8 70 24 96s38 45.667 66 59s60.333 20 97 20c11.333 0 22.333 -0.666992 33 -2s21.334 -4 32.001 -8c8.66699 -2.66699 17 -5.66699 25 -9s14.667 -5 20 -5c14.667 0 30 1.33301 46 4
s30 8.33398 42 17.001l46 -77zM290.996 359.999c0 24 -4.66699 44 -14 60s-27 24.333 -53 25c-25.333 -0.666992 -43 -9 -53 -25c-10 -16.667 -15 -37 -15 -61s5.33301 -44 16 -60s28.667 -24.333 54 -25c25.333 0.666992 43 9 53 25c9.33301 16 14 35.667 14 59z
M155.996 669.999l0.000976562 -0.999023v0v0c0 16 2.66699 30.667 8 44s12.666 25.666 21.999 36.999c7.33301 9.33301 17.666 18.333 30.999 27c12.667 8.66699 26.334 15.667 41.001 21l37 -39c-16 -4.66699 -28.333 -11 -37 -19c-9.33301 -8 -14 -17.333 -14 -28
c0 -4 1.33301 -7 4 -9c2.66699 -2.66699 6 -4.66699 10 -6c10.667 -4.66699 19 -11.334 25 -20.001c5.33301 -8 8 -18 8 -30c-0.666992 -17.333 -7 -31.333 -19 -42s-26.667 -16 -44 -16c-22.667 0 -40.667 7.33301 -54 22s-20 34.334 -20 59.001h2z" />
    <glyph glyph-name="Hcircumflex" unicode="&#x124;" horiz-adv-x="567" 
d="M377 0v320h-187v-320h-120v708h120v-280h187v280h119v-708h-119zM448 822v-1v0l-43 -66l-122 77l-120 -77l-38 66l162 130l161 -130v1z" />
    <glyph glyph-name="hcircumflex" unicode="&#x125;" horiz-adv-x="512" 
d="M328 0v347.999c0 13.333 -1.33301 25.666 -4 36.999c-2 12 -7 21.333 -15 28c-7.33301 6.66699 -19 10 -35 10c-17.333 0 -33.666 -5 -48.999 -15c-14.667 -10 -27.334 -21.667 -38.001 -35v-373h-116v616v34c0 10 -0.666992 21 -2 33s-3.33301 27.333 -6 46l116 18
c3.33301 -21.333 5.66602 -42.666 6.99902 -63.999s2 -42.666 2 -63.999v-88v-27c-0.666992 -9.33301 -1 -18.666 -1 -27.999c16.667 18 36.667 31.667 60 41c22.667 8.66699 46.334 13 71.001 13c42.667 -0.666992 74 -13.334 94 -38.001c20 -24 30 -56.667 30 -98v-394
h-114zM289 814.999v-1v0l-43 -66l-122 77l-120 -77l-38 66l162 129l161 -129v1z" />
    <glyph glyph-name="Hbar" unicode="&#x126;" horiz-adv-x="567" 
d="M377 0v320h-187v-320h-120v532h-56v106h56v72h120v-72h187v72h119v-72h55v-106h-55v-532h-119zM190 430v-1v0h187v102h-187v-102v1z" />
    <glyph glyph-name="hbar" unicode="&#x127;" horiz-adv-x="512" 
d="M11 583l-0.000976562 -0.996094v0v78h60c-0.666992 12 -1.66699 23.667 -3 35l-4 36l116 18c2 -14.667 3.66699 -29.334 5 -44.001s2.33301 -29.334 3 -44.001h129v-78h-128v-49v-29c0 -8 -0.333008 -17.333 -1 -28c16.667 17.333 36.667 30.666 60 39.999
c22.667 9.33301 46.334 14 71.001 14c20 0 39.333 -4 58 -12s34 -22 46 -42s18 -47.667 18 -83v-394h-114v348c0 13.333 -1.33301 25.666 -4 36.999c-2 12 -7 21.333 -15 28c-7.33301 6.66699 -19 10 -35 10c-17.333 0 -33.666 -5 -48.999 -15
c-14.667 -10 -27.334 -21.667 -38.001 -35v-373h-116v580h-60z" />
    <glyph glyph-name="Itilde" unicode="&#x128;" horiz-adv-x="261" 
d="M70 0v708h120v-708h-120zM291 822v-1.00098v0v0c-13.333 -19.333 -28.666 -33.666 -45.999 -42.999s-38.666 -14 -63.999 -14c-17.333 0.666992 -31.333 3.66699 -42 9l-32 18c-10.667 6 -24.334 9 -41.001 9c-12.667 0 -24.334 -3.33301 -35.001 -10
c-10 -6 -19.333 -14.333 -28 -25l-32 72c13.333 20 28 35 44 45s36 15 60 15c18 -0.666992 32.667 -3.66699 44 -9s22.333 -11 33 -17c10.667 -5.33301 24 -8 40 -8c13.333 0 25.333 3.33301 36 10c10.667 6 20 13.667 28 23l33 -74h2z" />
    <glyph glyph-name="itilde" unicode="&#x129;" horiz-adv-x="259" 
d="M70 0v516l118 14v-530h-118zM289 658v-1.00098v0v0c-13.333 -19.333 -28.666 -33.666 -45.999 -42.999s-38.666 -14 -63.999 -14c-17.333 0.666992 -31.333 3.66699 -42 9l-32 18c-10.667 6 -24.334 9 -41.001 9c-12.667 0 -24.334 -3.33301 -35.001 -10
c-10 -6 -19.333 -14.333 -28 -25l-33 72c14 20 29 35 45 45s36 15 60 15c18 -0.666992 32.667 -3.66699 44 -9s22.333 -11 33 -17c10.667 -5.33301 24 -8 40 -8c13.333 0 25.333 3.33301 36 10c10.667 6 20 13.667 28 23l32 -74h3z" />
    <glyph glyph-name="Imacron" unicode="&#x12a;" horiz-adv-x="261" 
d="M70 0v708h120v-708h-120zM270 771v-1v0h-278v78h278v-78v1z" />
    <glyph glyph-name="imacron" unicode="&#x12b;" horiz-adv-x="259" 
d="M70 0v516l118 14v-530h-118zM270 587v-1v0h-278v78h278v-78v1z" />
    <glyph glyph-name="Ibreve" unicode="&#x12c;" horiz-adv-x="261" 
d="M70 0v708h120v-708h-120zM291 905l0.00390625 -0.999023v0v0c-8 -12 -20 -26.667 -36 -44s-35 -32.666 -57 -45.999c-22 -14 -45 -21.333 -69 -22c-25.333 0.666992 -49.333 8 -72 22s-42.334 29.667 -59.001 47s-28.334 31.666 -35.001 42.999l44 52
c7.33301 -8 17.666 -16.667 30.999 -26c12.667 -9.33301 27 -17.333 43 -24s33 -10 51 -10c16 0 32 4 48 12c16 7.33301 30.667 15.666 44 24.999s23.666 17.333 30.999 24l37 -52h-1z" />
    <glyph glyph-name="ibreve" unicode="&#x12d;" horiz-adv-x="259" 
d="M70 0v516l118 14v-530h-118zM290 720l0.00390625 -0.999023v0v0c-8 -12 -20 -26.667 -36 -44s-35 -32.666 -57 -45.999c-22 -14 -45 -21.333 -69 -22c-25.333 0.666992 -49.333 8 -72 22s-42.334 29.667 -59.001 47s-28.334 31.666 -35.001 42.999l44 52
c7.33301 -8 17.666 -16.667 30.999 -26c12.667 -9.33301 27 -17.333 43 -24s33 -10 51 -10c16 0 32 4 48 12c16 7.33301 30.667 15.666 44 24.999s23.666 17.333 30.999 24l37 -52h-1z" />
    <glyph glyph-name="Iogonek" unicode="&#x12e;" horiz-adv-x="261" 
d="M189 -3l0.000976562 -1.00195v0v0c-8 -2.66699 -18.333 -8 -31 -16s-24.334 -18.667 -35.001 -32s-16.334 -29.666 -17.001 -48.999c0 -8 2.33301 -14.667 7 -20s11.667 -8 21 -8c8 0 16 1.33301 24 4c7.33301 2.66699 15.666 6.66699 24.999 12l24 -66
c-14 -7.33301 -29 -13.666 -45 -18.999s-33.333 -8 -52 -8c-28 0 -50.333 8.66699 -67 26s-25 40.333 -25 69c0.666992 24 6.33398 45.333 17.001 64c10.667 19.333 22.334 35 35.001 47v708h120v-708z" />
    <glyph glyph-name="iogonek" unicode="&#x12f;" horiz-adv-x="259" 
d="M209 -182c-14 -7.33301 -29.001 -13.668 -45.001 -19.001s-33.333 -8 -52 -8c-28 0 -50.333 8.66699 -67 26s-25 40.333 -25 69c0.666992 24 6.33398 45.333 17.001 64c10.667 19.333 22.334 35 35.001 47v516l118 14v-530c-7.33301 -2.66699 -17.333 -8 -30 -16
c-12 -8 -23.333 -18.667 -34 -32c-10 -13.333 -15.333 -29.666 -16 -48.999c0 -8 2.33301 -14.667 7 -20s11.667 -8 21 -8c8 0 16 1.33301 24 4c7.33301 2.66699 15.666 6.66699 24.999 12l24 -66zM206.999 664.998v-1v0v0c-0.666992 -21.333 -8.33398 -39.333 -23.001 -54
s-33 -22 -55 -22c-21.333 0 -39 7.33301 -53 22c-14.667 14.667 -22.334 32.667 -23.001 54c0.666992 21.333 8.33398 39.333 23.001 54c14.667 14 33 21.333 55 22c21.333 -0.666992 39 -8 53 -22c14.667 -14.667 22.334 -32.667 23.001 -54v1z" />
    <glyph glyph-name="Idotaccent" unicode="&#x130;" horiz-adv-x="261" 
d="M70 0v708h120v-708h-120zM212 854l0.000976562 -1v0v0c-0.666992 -24 -8.66699 -44 -24 -60c-16 -15.333 -35.333 -23.333 -58 -24c-22.667 0.666992 -41.334 8.66699 -56.001 24c-14.667 16 -22.334 36 -23.001 60c0.666992 24 8.33398 44 23.001 60
c15.333 15.333 34.333 23.333 57 24c22.667 -0.666992 41.667 -8.66699 57 -24c15.333 -16 23.333 -36 24 -60v1z" />
    <glyph glyph-name="dotlessi" unicode="&#x131;" horiz-adv-x="259" 
d="M188 1v-1v0h-118v516l118 14v-530v1z" />
    <glyph glyph-name="IJ" unicode="&#x132;" horiz-adv-x="525" 
d="M70 0v708h120v-708h-120zM456 709l0.00292969 -0.998047v0v-628c0 -38 -3.33301 -69.667 -10 -95c-6.66699 -24.667 -16.334 -46.334 -29.001 -65.001c-13.333 -19.333 -29.333 -36 -48 -50s-39.334 -25.667 -62.001 -35l-58 68c18.667 12 33.667 24 45 36s21 27 29 45
c5.33301 13.333 8.66602 30.666 9.99902 51.999s2 49.333 2 84v588h120z" />
    <glyph glyph-name="ij" unicode="&#x133;" horiz-adv-x="517" 
d="M72 0v516l118 14v-530h-118zM207 664c-0.666992 -21.333 -8.33398 -39.333 -23.001 -54s-33 -22 -55 -22c-21.333 0 -39 7.33301 -53 22c-14.667 14.667 -22.334 32.667 -23.001 54c0.666992 21.333 8.33398 39.333 23.001 54c14.667 14 33 21.333 55 22
c21.333 -0.666992 39 -8 53 -22c14.667 -14.667 22.334 -32.667 23.001 -54zM447 13c0 -27.333 -1.33496 -51.668 -4.00195 -73.001s-7 -40 -13 -56c-9.33301 -24 -22.666 -44.333 -39.999 -61c-17.333 -17.333 -39.333 -32.666 -66 -45.999l-52 68
c16 10.667 28 22.667 36 36c8.66699 13.333 14.334 29.333 17.001 48c3.33301 19.333 5 43 5 71v514l116 16v-518zM461.998 664.998v-1v0v0c-0.666992 -21.333 -8.33398 -39.333 -23.001 -54s-33 -22 -55 -22c-21.333 0 -39.333 7.33301 -54 22s-22.334 32.667 -23.001 54
c0.666992 21.333 8.33398 39.333 23.001 54c14.667 14 33 21.333 55 22c21.333 -0.666992 39.333 -8 54 -22c14.667 -14.667 22.334 -32.667 23.001 -54v1z" />
    <glyph glyph-name="Jcircumflex" unicode="&#x134;" horiz-adv-x="264" 
d="M195 708l0.00292969 -627.998c0 -38 -3.33301 -69.667 -10 -95c-6.66699 -24.667 -16.334 -46.334 -29.001 -65.001c-13.333 -19.333 -29.333 -36 -48 -50s-39.334 -25.667 -62.001 -35l-58 68c18.667 12 33.667 24 45 36s21 27 29 45
c5.33301 13.333 8.66602 30.666 9.99902 51.999s2 49.333 2 84v588h120h1zM298.003 822.002v-1v0l-43 -66l-122 77l-120 -77l-38 66l162 130l161 -130v1z" />
    <glyph glyph-name="jcircumflex" unicode="&#x135;" horiz-adv-x="258" 
d="M189 530l-0.00195312 -518c0 -26.667 -1.33301 -50.667 -4 -72s-7 -40 -13 -56c-9.33301 -24 -22.666 -44.333 -39.999 -61c-17.333 -17.333 -39.333 -32.666 -66 -45.999l-52 68c16 10.667 28 22.667 36 36c8.66699 13.333 14.334 29.666 17.001 48.999
c3.33301 18.667 5 42 5 70v514l116 16h1zM288.998 638v-1v0l-43 -66l-122 77l-120 -77l-38 66l162 129l161 -129v1z" />
    <glyph glyph-name="Kcommaaccent" unicode="&#x136;" horiz-adv-x="529" 
d="M540 -1h-152l-192 376l184 333h145l-202 -330l217 -378v-1zM71 0v708h121v-708h-121zM351 -125l-0.000976562 -1.00293v0v0c0 -15.333 -2.66699 -29.666 -8 -42.999s-12.666 -25.666 -21.999 -36.999c-7.33301 -9.33301 -17.666 -18.333 -30.999 -27
c-12.667 -8.66699 -26.334 -15.667 -41.001 -21l-37 39c16 4.66699 28.333 11 37 19c9.33301 8 14 17.333 14 28c0 4 -1.33301 7.33301 -4 10c-2.66699 2 -6 4 -10 6c-10.667 4.66699 -18.667 11 -24 19c-6 8.66699 -9 19 -9 31c0 16.667 6 30.334 18 41.001
s26.667 16 44 16c22.667 0 40.667 -7.33301 54 -22s20 -34.667 20 -60z" />
    <glyph glyph-name="kcommaaccent" unicode="&#x137;" horiz-adv-x="485" 
d="M188 -1l-118.001 0.000976562v613c0 26.667 -1 50 -3 70s-4.33301 34.667 -7 44l116 18c2.66699 -9.33301 5.33398 -25.333 8.00098 -48s4 -49.334 4 -80.001v-616v-1zM347.999 0.000976562l-158 284l121 236h134l-136 -227l181 -293h-142zM322.999 -124.999
l-0.000976562 -1.00293v0v0c0 -15.333 -2.66699 -29.666 -8 -42.999s-12.666 -25.666 -21.999 -36.999c-8 -9.33301 -18.333 -18.333 -31 -27c-13.333 -8.66699 -27.333 -15.667 -42 -21l-36 39c15.333 4.66699 27.666 11 36.999 19s14 17.333 14 28
c0 4 -1.33301 7.33301 -4 10c-2.66699 2 -6 4 -10 6c-10.667 4.66699 -19 11 -25 19c-5.33301 8.66699 -8 19 -8 31c0 16.667 6 30.334 18 41.001s27 16 45 16c22.667 0 40.334 -7.33301 53.001 -22c13.333 -14.667 20 -34.667 20 -60z" />
    <glyph glyph-name="kgreenlandic" unicode="&#x138;" horiz-adv-x="485" 
d="M348 0l-158 284l121 236h134l-136 -227l181 -293h-142zM70 407l-0.000976562 -0.999023v0v0c0 26.667 -1 50 -3 70s-4.33301 34.667 -7 44l116 18c2.66699 -9.33301 5.33398 -25.333 8.00098 -48s4 -49.334 4 -80.001v-410h-118v406v1z" />
    <glyph glyph-name="Lacute" unicode="&#x139;" horiz-adv-x="416" 
d="M415 106l-20 -106h-324v708h120v-602h225h-1zM247 857v-1v0l-203 -100l-38 64l188 126l54 -90z" />
    <glyph glyph-name="lacute" unicode="&#x13a;" horiz-adv-x="259" 
d="M257 1c-9.33301 -4.66699 -20.6689 -8.33496 -34.002 -11.002c-12.667 -2.66699 -27 -4 -43 -4c-19.333 0 -35.666 2.66699 -48.999 8s-24 12.666 -32 21.999c-10.667 12 -17.667 27.333 -21 46c-4 18.667 -6 40.667 -6 66v483c0 28 -1.33301 51.333 -4 70
c-2 18.667 -3.66699 33.334 -5 44.001l114 18c2 -10 4.33301 -25.667 7 -47s4 -48 4 -80v-447c0 -33.333 2 -56.333 6 -69c4 -13.333 12.667 -19.666 26 -18.999c2.66699 0 5.33398 0.333008 8.00098 1s4.66699 1.33398 6 2.00098l20 -82zM258.997 856.999v-1v0l-202 -100
l-38 64l188 126l53 -90z" />
    <glyph glyph-name="Lcommaaccent" unicode="&#x13b;" horiz-adv-x="416" 
d="M415 106l-20 -106h-324v708h120v-602h225h-1zM305 -125l-0.000976562 -1.00293v0v0c0 -15.333 -2.66699 -29.666 -8 -42.999s-12.666 -25.666 -21.999 -36.999c-7.33301 -9.33301 -17.666 -18.333 -30.999 -27s-27.333 -15.667 -42 -21l-37 39
c15.333 4.66699 27.666 11 36.999 19s14 17.333 14 28c0 4 -1.33301 7.33301 -4 10c-2.66699 2 -6 4 -10 6c-10.667 4.66699 -18.667 11 -24 19c-6 8.66699 -9 19 -9 31c0 16.667 6 30.334 18 41.001s27 16 45 16c22.667 0 40.667 -7.33301 54 -22
c12.667 -14.667 19 -34.667 19 -60v2z" />
    <glyph glyph-name="lcommaaccent" unicode="&#x13c;" horiz-adv-x="259" 
d="M257 1c-9.33301 -4.66699 -20.6689 -8.33496 -34.002 -11.002c-12.667 -2.66699 -27 -4 -43 -4c-19.333 0 -35.666 2.66699 -48.999 8s-24 12.666 -32 21.999c-10.667 12 -17.667 27.333 -21 46c-4 18.667 -6 40.667 -6 66v483c0 28 -1.33301 51.333 -4 70
c-2 18.667 -3.66699 33.334 -5 44.001l114 18c2 -10 4.33301 -25.667 7 -47s4 -48 4 -80v-447c0 -33.333 2 -56.333 6 -69c4 -13.333 12.667 -19.666 26 -18.999c2.66699 0 5.33398 0.333008 8.00098 1s4.66699 1.33398 6 2.00098l20 -82zM224.997 -125.001
l-0.000976562 -1.00293v0v0c0 -15.333 -2.66699 -29.666 -8 -42.999s-12.666 -25.666 -21.999 -36.999c-7.33301 -9.33301 -17.666 -18.333 -30.999 -27c-12.667 -8.66699 -26.334 -15.667 -41.001 -21l-37 39c16 4.66699 28.333 11 37 19c9.33301 8 14 17.333 14 28
c0 4 -1.33301 7.33301 -4 10c-2.66699 2 -6 4 -10 6c-10.667 4.66699 -18.667 11 -24 19c-5.33301 8.66699 -8 19 -8 31c0.666992 16.667 7 30.334 19 41.001s26.667 16 44 16c22.667 0 40.667 -7.33301 54 -22s20 -34.667 20 -60z" />
    <glyph glyph-name="Lcaron" unicode="&#x13d;" horiz-adv-x="416" 
d="M415 106l-20 -106h-324v708h120v-602h225h-1zM392 629l-0.000976562 -1.00195v0v0c0 -15.333 -2.66699 -29.666 -8 -42.999s-12.666 -25.666 -21.999 -36.999c-7.33301 -9.33301 -17.666 -18.333 -30.999 -27c-12.667 -8.66699 -26.334 -15.667 -41.001 -21l-37 39
c16 4.66699 28.333 11 37 19c9.33301 8 14 17.333 14 28c0 4 -1.33301 7.33301 -4 10c-2.66699 2 -6 4 -10 6c-10.667 4.66699 -18.667 11 -24 19c-6 8.66699 -9 19 -9 31c0 17.333 6 31.333 18 42s26.667 16 44 16c22.667 0 40.667 -7.33301 54 -22s20 -34.667 20 -60z" />
    <glyph glyph-name="lcaron" unicode="&#x13e;" horiz-adv-x="351" 
d="M257 1c-9.33301 -4.66699 -20.6689 -8.33496 -34.002 -11.002c-12.667 -2.66699 -27 -4 -43 -4c-19.333 0 -35.666 2.66699 -48.999 8s-24 12.666 -32 21.999c-10.667 12 -17.667 27.333 -21 46c-4 18.667 -6 40.667 -6 66v483c0 28 -1.33301 51.333 -4 70
c-2 18.667 -3.66699 33.334 -5 44.001l114 18c2 -10 4.33301 -25.667 7 -47s4 -48 4 -80v-447c0 -33.333 2 -56.333 6 -69c4 -13.333 12.667 -19.666 26 -18.999c2.66699 0 5.33398 0.333008 8.00098 1s4.66699 1.33398 6 2.00098l20 -82zM370.997 660.999
l-0.000976562 -1.00195v0v0c0 -15.333 -2.66699 -29.666 -8 -42.999s-12.666 -25.666 -21.999 -36.999c-7.33301 -9.33301 -17.666 -18.333 -30.999 -27c-12.667 -8.66699 -26.334 -15.667 -41.001 -21l-37 39c16 4.66699 28.333 11 37 19c9.33301 8 14 17.333 14 28
c0 4 -1.33301 7.33301 -4 10c-2.66699 2 -6 4 -10 6c-10.667 4.66699 -18.667 11 -24 19c-6 8.66699 -9 19 -9 31c0 17.333 6 31.333 18 42s26.667 16 44 16c22.667 0 40.667 -7.33301 54 -22s20 -34.667 20 -60z" />
    <glyph glyph-name="Ldot" unicode="&#x13f;" horiz-adv-x="416" 
d="M415 106l-20 -106h-324v708h120v-602h225h-1zM405 394v-1v0v0c0 -18.667 -6.33301 -34 -19 -46c-12 -12.667 -27.333 -19 -46 -19s-34.667 6.33301 -48 19c-13.333 12 -20 27.333 -20 46s6 34 18 46c12.667 12 28.334 18 47.001 18c19.333 0 35.666 -6 48.999 -18
s20 -27.333 20 -46z" />
    <glyph glyph-name="ldot" unicode="&#x140;" horiz-adv-x="353" 
d="M257 1c-9.33301 -4.66699 -20.6689 -8.33496 -34.002 -11.002c-12.667 -2.66699 -27 -4 -43 -4c-19.333 0 -35.666 2.66699 -48.999 8s-24 12.666 -32 21.999c-10.667 12 -17.667 27.333 -21 46c-4 18.667 -6 40.667 -6 66v483c0 28 -1.33301 51.333 -4 70
c-2 18.667 -3.66699 33.334 -5 44.001l114 18c2 -10 4.33301 -25.667 7 -47s4 -48 4 -80v-447c0 -33.333 2 -56.333 6 -69c4 -13.333 12.667 -19.666 26 -18.999c2.66699 0 5.33398 0.333008 8.00098 1s4.66699 1.33398 6 2.00098l20 -82zM372.997 394.999v-1v0v0
c-0.666992 -18.667 -7 -34 -19 -46c-12 -12.667 -27.333 -19 -46 -19s-34.667 6.33301 -48 19c-13.333 12 -20.333 27.333 -21 46c0.666992 18.667 7 34 19 46s27.333 18 46 18c20 0 36.333 -6 49 -18c13.333 -12 20.333 -27.333 21 -46z" />
    <glyph glyph-name="Lslash" unicode="&#x141;" horiz-adv-x="416" 
d="M415 106v-1v0l-20 -106h-324v303l-60 -20v100l60 20v306h120v-267l126 42v-99l-126 -42v-236h225h-1z" />
    <glyph glyph-name="lslash" unicode="&#x142;" horiz-adv-x="259" 
d="M257 1l-0.00292969 -1.00098v0v0c-9.33301 -4.66699 -20.666 -8.33398 -33.999 -11.001c-12.667 -2.66699 -27 -4 -43 -4c-19.333 0 -35.666 2.66699 -48.999 8s-24 12.666 -32 21.999c-10.667 12 -17.667 27.333 -21 46c-4 18.667 -6 40.667 -6 66v172l-55 -18v100
l55 18v212c0 28 -1.33301 51.333 -4 70c-2 18.667 -3.66699 33.334 -5 44.001l114 18c2 -10 4.33301 -25.667 7 -47s4 -48 4 -80v-174l55 20v-100l-55 -19v-174c0 -33.333 2 -56.333 6 -69c4 -13.333 12.667 -19.666 26 -18.999c2.66699 0 5.33398 0.333008 8.00098 1
s4.66699 1.33398 6 2.00098l20 -82z" />
    <glyph glyph-name="Nacute" unicode="&#x143;" horiz-adv-x="581" 
d="M513 -3l-125.998 0.000976562l-148 333c-11.333 25.333 -22.333 52.333 -33 81l-30 81c2 -21.333 3.66699 -43.666 5 -66.999c1.33301 -22.667 2.66602 -44 3.99902 -64s2 -36 2 -48v-158c0 -52 0.333008 -104.333 1 -157h-116v708h122l155 -343
c5.33301 -12.667 10.333 -25.334 15 -38.001l18 -45l24 -68c-1.33301 10.667 -2.33301 21 -3 31s-1.33398 19 -2.00098 27l-4 71c-1.33301 24 -2 47.667 -2 71c0 49.333 -0.333008 98.666 -1 147.999v148h116v-708zM407.002 857.001v-1v0l-202 -100l-38 64l188 126l53 -90z
" />
    <glyph glyph-name="nacute" unicode="&#x144;" horiz-adv-x="508" 
d="M438 0l-115.999 -0.000976562v350c0 20 -1 35 -3 45c-2.66699 10.667 -6.33398 18.667 -11.001 24c-4 5.33301 -9.33301 9 -16 11c-6.66699 1.33301 -14 2 -22 2c-12 0 -25.333 -4 -40 -12c-15.333 -8 -30 -19.333 -44 -34v-385h-116v382c0 30.667 -1.66699 56 -5 76
s-6.66602 37 -9.99902 51l108 24c2 -5.33301 4.66699 -13.333 8 -24c3.33301 -11.333 5.66602 -23.666 6.99902 -36.999c15.333 16 35 29.333 59 40c24 11.333 49.667 17 77 17c20 0 38 -3.33301 54 -10s29.333 -15.667 40 -27c11.333 -13.333 19 -28 23 -44
c4 -16.667 6 -33.667 6 -51v-398h1zM365.001 672.999v-1v0l-202 -100l-38 64l188 126l53 -90z" />
    <glyph glyph-name="Ncommaaccent" unicode="&#x145;" horiz-adv-x="581" 
d="M513 -3l-125.998 0.000976562l-148 333c-11.333 25.333 -22.333 52.333 -33 81l-30 81c2 -21.333 3.66699 -43.666 5 -66.999c1.33301 -22.667 2.66602 -44 3.99902 -64s2 -36 2 -48v-158c0 -52 0.333008 -104.333 1 -157h-116v708h122l155 -343
c5.33301 -12.667 10.333 -25.334 15 -38.001l18 -45l24 -68c-1.33301 10.667 -2.33301 21 -3 31s-1.33398 19 -2.00098 27l-4 71c-1.33301 24 -2 47.667 -2 71c0 49.333 -0.333008 98.666 -1 147.999v148h116v-708zM362.002 -124.999v-1.00293v0v0
c0 -15.333 -2.66699 -29.666 -8 -42.999s-12.666 -25.666 -21.999 -36.999c-8 -9.33301 -18.333 -18.333 -31 -27c-13.333 -8.66699 -27.333 -15.667 -42 -21l-36 39c15.333 4.66699 27.666 11 36.999 19c8.66699 8 13 17.333 13 28c0 4 -1.33301 7.33301 -4 10
c-2.66699 2 -6 4 -10 6c-10.667 4.66699 -19 11 -25 19c-5.33301 8.66699 -8 19 -8 31c0 16.667 6 30.334 18 41.001s27 16 45 16c22 0 39.667 -7.33301 53 -22s20 -34.667 20 -60v2z" />
    <glyph glyph-name="ncommaaccent" unicode="&#x146;" horiz-adv-x="508" 
d="M438 0l-115.999 -0.000976562v350c0 20 -1 35 -3 45c-2.66699 10.667 -6.33398 18.667 -11.001 24c-4 5.33301 -9.33301 9 -16 11c-6.66699 1.33301 -14 2 -22 2c-12 0 -25.333 -4 -40 -12c-15.333 -8 -30 -19.333 -44 -34v-385h-116v382c0 30.667 -1.66699 56 -5 76
s-6.66602 37 -9.99902 51l108 24c2 -5.33301 4.66699 -13.333 8 -24c3.33301 -11.333 5.66602 -23.666 6.99902 -36.999c15.333 16 35 29.333 59 40c24 11.333 49.667 17 77 17c20 0 38 -3.33301 54 -10s29.333 -15.667 40 -27c11.333 -13.333 19 -28 23 -44
c4 -16.667 6 -33.667 6 -51v-398h1zM326.001 -125.001l-0.000976562 -1.00293v0v0c0 -15.333 -2.66699 -29.666 -8 -42.999s-12.666 -25.666 -21.999 -36.999c-7.33301 -9.33301 -17.666 -18.333 -30.999 -27s-27.333 -15.667 -42 -21l-37 39
c15.333 4.66699 27.666 11 36.999 19s14 17.333 14 28c0 4 -1.33301 7.33301 -4 10c-2.66699 2 -6 4 -10 6c-10.667 4.66699 -18.667 11 -24 19c-6 8.66699 -9 19 -9 31c0 16.667 6 30.334 18 41.001s27 16 45 16c22.667 0 40.667 -7.33301 54 -22
c12.667 -14.667 19 -34.667 19 -60v2z" />
    <glyph glyph-name="Ncaron" unicode="&#x147;" horiz-adv-x="581" 
d="M513 -3l-125.998 0.000976562l-148 333c-11.333 25.333 -22.333 52.333 -33 81l-30 81c2 -21.333 3.66699 -43.666 5 -66.999c1.33301 -22.667 2.66602 -44 3.99902 -64s2 -36 2 -48v-158c0 -52 0.333008 -104.333 1 -157h-116v708h122l155 -343
c5.33301 -12.667 10.333 -25.334 15 -38.001l18 -45l24 -68c-1.33301 10.667 -2.33301 21 -3 31s-1.33398 19 -2.00098 27l-4 71c-1.33301 24 -2 47.667 -2 71c0 49.333 -0.333008 98.666 -1 147.999v148h116v-708zM443.002 890.001v-1v0l-160 -136l-162 136l40 68l124 -78
l119 77l40 -66h-1z" />
    <glyph glyph-name="ncaron" unicode="&#x148;" horiz-adv-x="508" 
d="M438 0l-115.999 -0.000976562v350c0 20 -1 35 -3 45c-2.66699 10.667 -6.33398 18.667 -11.001 24c-4 5.33301 -9.33301 9 -16 11c-6.66699 1.33301 -14 2 -22 2c-12 0 -25.333 -4 -40 -12c-15.333 -8 -30 -19.333 -44 -34v-385h-116v382c0 30.667 -1.66699 56 -5 76
s-6.66602 37 -9.99902 51l108 24c2 -5.33301 4.66699 -13.333 8 -24c3.33301 -11.333 5.66602 -23.666 6.99902 -36.999c15.333 16 35 29.333 59 40c24 11.333 49.667 17 77 17c20 0 38 -3.33301 54 -10s29.333 -15.667 40 -27c11.333 -13.333 19 -28 23 -44
c4 -16.667 6 -33.667 6 -51v-398h1zM413.001 706.999v-1v0l-160 -135l-163 135l40 68l124 -78l118 76l40 -66z" />
    <glyph glyph-name="napostrophe" unicode="&#x149;" horiz-adv-x="600" 
d="M414 0l0.00195312 349.999c0 20 -1 35 -3 45c-2.66699 10.667 -6.33398 18.667 -11.001 24c-4 5.33301 -9.33301 9 -16 11c-6.66699 1.33301 -14 2 -22 2c-12 0 -25.333 -4 -40 -12s-29.334 -19.333 -44.001 -34v-385h-116v382c0 30.667 -1.66699 56 -5 76
s-6.66602 37 -9.99902 51l108 24c2 -5.33301 4.66699 -13.333 8 -24c3.33301 -11.333 5.66602 -23.666 6.99902 -36.999c15.333 16 35 29.333 59 40c24.667 11.333 50.667 17 78 17c20 0 38 -3.33301 54 -10s29.333 -15.667 40 -27c11.333 -13.333 19 -28 23 -44
c4 -16.667 6 -33.667 6 -51v-398h-116zM148.002 638.999l-0.000976562 -1.00195v0v0c0 -15.333 -2.66699 -29.666 -8 -42.999s-12.666 -25.666 -21.999 -36.999c-8 -9.33301 -18.333 -18.333 -31 -27c-13.333 -8.66699 -27.333 -15.667 -42 -21l-37 39
c16 4.66699 28.667 11 38 19c8.66699 8 13 17.333 13 28c0 4 -1.33301 7.33301 -4 10c-2.66699 2 -6 4 -10 6c-10.667 4.66699 -19 11 -25 19c-5.33301 8.66699 -8 19 -8 31c0 17.333 6 31.333 18 42s27 16 45 16c22 0 39.667 -7.33301 53 -22s20 -34.667 20 -60v1z" />
    <glyph glyph-name="Eng" unicode="&#x14a;" horiz-adv-x="581" 
d="M512 711l0.00390625 -1.00098v0v-683c0 -34 -3.66699 -63 -11 -87c-6.66699 -24 -15.334 -44 -26.001 -60c-12.667 -19.333 -28.334 -36 -47.001 -50s-39.334 -25.667 -62.001 -35l-58 68c18 12 33 24 45 36c11.333 12 20.666 27 27.999 45
c2.66699 8 4.66699 15.333 6 22s2 12.667 2 18v10c0 2.66699 -0.666992 4.66699 -2 6l-148 333c-8 18.667 -16.667 40 -26 64l-24 64c-6.66699 18.667 -10.667 30.334 -12 35.001c0 -1.33301 0.666992 -8 2 -20s2.66602 -27.333 3.99902 -46l4 -58
c1.33301 -20 2 -38.667 2 -56v-316h-116v708h122l155 -343c7.33301 -17.333 15 -37.333 23 -60l21 -59c6.66699 -17.333 10.667 -28 12 -32c0 1.33301 -0.666992 9 -2 23c-1.33301 13.333 -2.66602 30.333 -3.99902 51l-4 65c-1.33301 22 -2 42 -2 60v295h116z" />
    <glyph glyph-name="eng" unicode="&#x14b;" horiz-adv-x="508" 
d="M438 400l0.00195312 -1.00195v0v-368c0 -21.333 -0.666992 -39.333 -2 -54c-0.666992 -14.667 -2.33398 -28 -5.00098 -40s-6 -24 -10 -36c-8.66699 -24 -21.667 -44.333 -39 -61c-18 -17.333 -40.333 -32.666 -67 -45.999l-52 68c24 16 40 36 48 60s11.667 56 11 96v332
c0 20 -1 35 -3 45c-2.66699 10.667 -6.33398 18.667 -11.001 24c-4 5.33301 -9.33301 9 -16 11c-6.66699 1.33301 -14 2 -22 2c-12 0 -25.333 -4 -40 -12c-15.333 -8 -30 -19.333 -44 -34v-385h-116v382c0 30.667 -1.66699 56 -5 76s-6.66602 37 -9.99902 51l108 24
c2 -5.33301 4.66699 -13.333 8 -24c3.33301 -11.333 5.66602 -23.666 6.99902 -36.999c15.333 16 35 29.333 59 40c24 11.333 49.667 17 77 17c20 0 38 -3.33301 54 -10s29.333 -15.667 40 -27c11.333 -13.333 19 -28 23 -44c4 -16.667 6 -33.667 6 -51z" />
    <glyph glyph-name="Omacron" unicode="&#x14c;" horiz-adv-x="608" 
d="M571 362c0 -44.667 -3.99902 -89.002 -11.999 -133.002s-21.667 -84.333 -41 -121s-46 -66 -80 -88c-34.667 -22 -78 -33.333 -130 -34c-49.333 0.666992 -91 11.334 -125 32.001c-34.667 20.667 -62.334 48.334 -83.001 83.001c-20 34.667 -34.667 73.334 -44 116.001
c-9.33301 42 -14 84.667 -14 128c0 80 10.667 148 32 204s51.333 98.667 90 128s84.667 44 138 44c49.333 -0.666992 91 -11.667 125 -33c34 -20.667 61.333 -48.334 82 -83.001s35.667 -73 45 -115c9.33301 -41.333 14 -83.333 14 -126zM433.001 363.998
c0 25.333 -1 52.667 -3 82s-7 57.333 -15 84s-21 48.667 -39 66s-43 26.333 -75 27c-30.667 -0.666992 -54.667 -10.334 -72 -29.001s-30 -42 -38 -70s-13 -56.667 -15 -86s-3 -55 -3 -77c0 -24 0.666992 -51.333 2 -82c2 -30.667 7 -60.667 15 -90
s21.333 -53.666 40 -72.999s44.334 -29.333 77.001 -30c31.333 0.666992 55.666 10 72.999 28s30 41 38 69c8 28.667 12.667 59 14 91s2 62 2 90h-1zM442.001 770.999v-1v0h-278v78h278v-78v1z" />
    <glyph glyph-name="omacron" unicode="&#x14d;" horiz-adv-x="475" 
d="M445 263c0 -33.333 -3.33105 -66.333 -9.99805 -99s-18 -62.334 -34 -89.001s-37.333 -48 -64 -64s-59.334 -24 -98.001 -24c-40 0 -73.333 8.33301 -100 25s-47.334 38.667 -62.001 66c-15.333 26.667 -26 56.334 -32 89.001c-6.66699 32.667 -10 65 -10 97
s3.33301 63.667 10 95c7.33301 32 19 61 35 87s37 47 63 63s57.667 24 95 24c40 0 75.333 -10 106 -30c30.667 -20.667 54.667 -51 72 -91s26 -89.667 26 -149h3zM315.002 263c0 18.667 -0.666992 38 -2 58c-1.33301 20.667 -4.66602 40 -9.99902 58
c-5.33301 18.667 -13.333 33.667 -24 45s-25.334 17 -44.001 17s-33.334 -6 -44.001 -18s-18.334 -27.333 -23.001 -46c-5.33301 -19.333 -8.66602 -39.666 -9.99902 -60.999s-2 -41 -2 -59c0 -15.333 0.666992 -33 2 -53s4.66602 -39.333 9.99902 -58
s13.333 -34.334 24 -47.001s26 -19 46 -19c18.667 0.666992 33.334 7.66699 44.001 21s18.334 30 23.001 50s7.66699 40.333 9 61c1.33301 20 2 37 2 51h-1zM376.002 587v-1v0h-278v78h278v-78v1z" />
    <glyph glyph-name="Obreve" unicode="&#x14e;" horiz-adv-x="608" 
d="M571 362c0 -44.667 -3.99902 -89.002 -11.999 -133.002s-21.667 -84.333 -41 -121s-46 -66 -80 -88c-34.667 -22 -78 -33.333 -130 -34c-49.333 0.666992 -91 11.334 -125 32.001c-34.667 20.667 -62.334 48.334 -83.001 83.001c-20 34.667 -34.667 73.334 -44 116.001
c-9.33301 42 -14 84.667 -14 128c0 80 10.667 148 32 204s51.333 98.667 90 128s84.667 44 138 44c49.333 -0.666992 91 -11.667 125 -33c34 -20.667 61.333 -48.334 82 -83.001s35.667 -73 45 -115c9.33301 -41.333 14 -83.333 14 -126zM433.001 363.998
c0 25.333 -1 52.667 -3 82s-7 57.333 -15 84s-21 48.667 -39 66s-43 26.333 -75 27c-30.667 -0.666992 -54.667 -10.334 -72 -29.001s-30 -42 -38 -70s-13 -56.667 -15 -86s-3 -55 -3 -77c0 -24 0.666992 -51.333 2 -82c2 -30.667 7 -60.667 15 -90
s21.333 -53.666 40 -72.999s44.334 -29.333 77.001 -30c31.333 0.666992 55.666 10 72.999 28s30 41 38 69c8 28.667 12.667 59 14 91s2 62 2 90h-1zM467.001 903.999l0.00390625 0.000976562c-7.33301 -12 -19.333 -26.667 -36 -44c-16 -17.333 -35 -32.666 -57 -45.999
c-22 -14 -45 -21.333 -69 -22c-24.667 0.666992 -48.334 8 -71.001 22s-42.334 29.667 -59.001 47s-28.334 31.666 -35.001 42.999l44 52c7.33301 -8 17.333 -16.667 30 -26s27 -17.333 43 -24s32.667 -10 50 -10c16 0 32 4 48 12c16 7.33301 30.667 15.666 44 24.999
s23.666 17.333 30.999 24l37 -52v-1z" />
    <glyph glyph-name="obreve" unicode="&#x14f;" horiz-adv-x="475" 
d="M445 263c0 -33.333 -3.33105 -66.333 -9.99805 -99s-18 -62.334 -34 -89.001s-37.333 -48 -64 -64s-59.334 -24 -98.001 -24c-40 0 -73.333 8.33301 -100 25s-47.334 38.667 -62.001 66c-15.333 26.667 -26 56.334 -32 89.001c-6.66699 32.667 -10 65 -10 97
s3.33301 63.667 10 95c7.33301 32 19 61 35 87s37 47 63 63s57.667 24 95 24c40 0 75.333 -10 106 -30c30.667 -20.667 54.667 -51 72 -91s26 -89.667 26 -149h3zM315.002 263c0 18.667 -0.666992 38 -2 58c-1.33301 20.667 -4.66602 40 -9.99902 58
c-5.33301 18.667 -13.333 33.667 -24 45s-25.334 17 -44.001 17s-33.334 -6 -44.001 -18s-18.334 -27.333 -23.001 -46c-5.33301 -19.333 -8.66602 -39.666 -9.99902 -60.999s-2 -41 -2 -59c0 -15.333 0.666992 -33 2 -53s4.66602 -39.333 9.99902 -58
s13.333 -34.334 24 -47.001s26 -19 46 -19c18.667 0.666992 33.334 7.66699 44.001 21s18.334 30 23.001 50s7.66699 40.333 9 61c1.33301 20 2 37 2 51h-1zM400.002 719l0.00390625 0.000976562c-8 -12 -20 -26.667 -36 -44s-35 -32.666 -57 -45.999
c-22 -14 -45 -21.333 -69 -22c-25.333 0.666992 -49.333 8 -72 22s-42.334 29.667 -59.001 47s-28.334 31.666 -35.001 42.999l44 52c7.33301 -8 17.666 -16.667 30.999 -26c12.667 -9.33301 27 -17.333 43 -24s32.667 -10 50 -10c16 0 32 4 48 12
c16 7.33301 30.667 15.666 44 24.999s23.666 17.333 30.999 24l37 -52v-1z" />
    <glyph glyph-name="Ohungarumlaut" unicode="&#x150;" horiz-adv-x="608" 
d="M571 362c0 -44.667 -3.99902 -89.002 -11.999 -133.002s-21.667 -84.333 -41 -121s-46 -66 -80 -88c-34.667 -22 -78 -33.333 -130 -34c-49.333 0.666992 -91 11.334 -125 32.001c-34.667 20.667 -62.334 48.334 -83.001 83.001c-20 34.667 -34.667 73.334 -44 116.001
c-9.33301 42 -14 84.667 -14 128c0 80 10.667 148 32 204s51.333 98.667 90 128s84.667 44 138 44c49.333 -0.666992 91 -11.667 125 -33c34 -20.667 61.333 -48.334 82 -83.001s35.667 -73 45 -115c9.33301 -41.333 14 -83.333 14 -126zM433.001 363.998
c0 25.333 -1 52.667 -3 82s-7 57.333 -15 84s-21 48.667 -39 66s-43 26.333 -75 27c-30.667 -0.666992 -54.667 -10.334 -72 -29.001s-30 -42 -38 -70s-13 -56.667 -15 -86s-3 -55 -3 -77c0 -24 0.666992 -51.333 2 -82c2 -30.667 7 -60.667 15 -90
s21.333 -53.666 40 -72.999s44.334 -29.333 77.001 -30c31.333 0.666992 55.666 10 72.999 28s30 41 38 69c8 28.667 12.667 59 14 91s2 62 2 90h-1zM392.001 939.999l-152 -183l-68 46l123 202l97 -64v-1zM594.001 914.999v-1v0l-180 -156l-59 58l154 176l84 -78z" />
    <glyph glyph-name="ohungarumlaut" unicode="&#x151;" horiz-adv-x="475" 
d="M445 263c0 -33.333 -3.33105 -66.333 -9.99805 -99s-18 -62.334 -34 -89.001s-37.333 -48 -64 -64s-59.334 -24 -98.001 -24c-40 0 -73.333 8.33301 -100 25s-47.334 38.667 -62.001 66c-15.333 26.667 -26 56.334 -32 89.001c-6.66699 32.667 -10 65 -10 97
s3.33301 63.667 10 95c7.33301 32 19 61 35 87s37 47 63 63s57.667 24 95 24c40 0 75.333 -10 106 -30c30.667 -20.667 54.667 -51 72 -91s26 -89.667 26 -149h3zM315.002 263c0 18.667 -0.666992 38 -2 58c-1.33301 20.667 -4.66602 40 -9.99902 58
c-5.33301 18.667 -13.333 33.667 -24 45s-25.334 17 -44.001 17s-33.334 -6 -44.001 -18s-18.334 -27.333 -23.001 -46c-5.33301 -19.333 -8.66602 -39.666 -9.99902 -60.999s-2 -41 -2 -59c0 -15.333 0.666992 -33 2 -53s4.66602 -39.333 9.99902 -58
s13.333 -34.334 24 -47.001s26 -19 46 -19c18.667 0.666992 33.334 7.66699 44.001 21s18.334 30 23.001 50s7.66699 40.333 9 61c1.33301 20 2 37 2 51h-1zM176.002 573l-76 33l82 221l108 -45zM477.002 765v-1v0l-145 -188l-70 46l118 203l97 -62v2z" />
    <glyph glyph-name="OE" unicode="&#x152;" horiz-adv-x="745" 
d="M725 2h-389c-41.333 0 -76.666 4 -105.999 12c-29.333 8.66699 -57 23.667 -83 45c-34.667 29.333 -61 68 -79 116s-27 104.667 -27 170c0 62.667 7 116.667 21 162s33 82.333 57 111c25.333 30.667 54.666 53.667 87.999 69c33.333 14.667 72 22 116 22h392l-10 -114
h-218v-170h179v-112h-179v-197h238v-116v2zM365 118l0.000976562 -1.00098v0v478c-6.66699 1.33301 -13.334 2 -20.001 2c-7.33301 0.666992 -16 1 -26 1c-28 0 -51.667 -5.66699 -71 -17c-18.667 -11.333 -34 -29.666 -46 -54.999c-10 -21.333 -17.667 -46 -23 -74
c-4.66699 -28 -7 -58.667 -7 -92c0 -47.333 3 -87 9 -119c6.66699 -32 17.334 -58.667 32.001 -80c12.667 -19.333 27 -33 43 -41c16.667 -8 35 -12 55 -12c19.333 0 37.666 2 54.999 6z" />
    <glyph glyph-name="oe" unicode="&#x153;" horiz-adv-x="727" 
d="M700 220l-266.003 -0.000976562v-9c0 -16 1.33301 -30.667 4 -44c2.66699 -14 7.33398 -26.667 14.001 -38c8.66699 -14.667 20 -26 34 -34s30.333 -12 49 -12c20 0 39.667 4 59 12s38 20.667 56 38l44 -79c-25.333 -24 -52 -41.667 -80 -53s-58 -17 -90 -17
c-30.667 0 -58.667 5.66699 -84 17s-45.666 27 -60.999 47c-21.333 -22.667 -43.333 -39.334 -66 -50.001s-48 -16 -76 -16c-64 0.666992 -114 25 -150 73c-35.333 47.333 -53.333 114.333 -54 201c0 54.667 8.33301 102.667 25 144s40.334 73.333 71.001 96
s67.334 34 110.001 34c29.333 0 55.333 -5.33301 78 -16c22.667 -11.333 42 -26.333 58 -45c16 20.667 35.333 36.334 58 47.001c22 10.667 47 16 75 16s52.667 -4.66699 74 -14s40 -22.666 56 -39.999c21.333 -22.667 36.666 -52 45.999 -88s14 -82 14 -138v-28z
M312.997 255.999c0 14.667 -0.664062 31.6689 -1.99707 51.002s-4.33301 38.333 -9 57s-12.334 34 -23.001 46c-11.333 12.667 -27 19 -47 19c-18.667 0 -33.334 -6.33301 -44.001 -19c-10.667 -12 -18.334 -27.333 -23.001 -46s-7.66699 -37.334 -9 -56.001
s-2 -34.667 -2 -48c0 -17.333 0.666992 -36 2 -56s4.66602 -39.333 9.99902 -58s13.333 -34 24 -46c11.333 -12 27 -18 47 -18c18.667 0 33.334 6.66699 44.001 20s18.334 29.666 23.001 48.999c5.33301 20 8.66602 40 9.99902 60s2 37 2 51zM583 314.001v-1v0v0
c0 20 -1 37.333 -3 52c-2.66699 14.667 -6.33398 26.667 -11.001 36c-5.33301 11.333 -13.333 20.333 -24 27c-10 6.66699 -21.667 10 -35 10c-24 0 -42.667 -10 -56 -30s-20.666 -51.333 -21.999 -94h150h1z" />
    <glyph glyph-name="Racute" unicode="&#x154;" horiz-adv-x="526" 
d="M509 1l-141 0.00292969l-16 37l-28 65l-32 72c-10.667 23.333 -20 42.666 -28 57.999c-14 26 -25.667 43.667 -35 53c-10 9.33301 -22.667 13.666 -38 12.999v-299h-120v708h174c45.333 0 85.666 -6.33301 120.999 -19c34.667 -12.667 62.334 -33.667 83.001 -63
s31 -68.666 31 -117.999c0 -37.333 -6.33301 -70 -19 -98s-30.334 -50 -53.001 -66c-22 -16 -47 -25 -75 -27c12.667 -8.66699 24.334 -20.334 35.001 -35.001s19.667 -29.334 27 -44.001l27 -53l37 -73l34 -69c10 -20.667 16.333 -35 19 -43zM349 503.003
c0 36 -9.33301 61.667 -28 77c-18.667 16 -44.667 24 -78 24h-53v-211h57c37.333 0 64 9.66699 80 29c15.333 20 23 47.333 23 82zM381 857.003v-1v0l-203 -100l-38 64l187 126l54 -90v1z" />
    <glyph glyph-name="racute" unicode="&#x155;" horiz-adv-x="324" 
d="M327 523l-34.001 -113c-5.33301 2.66699 -10.666 4.66699 -15.999 6c-5.33301 2 -11.333 3 -18 3c-20 0 -37 -6.66699 -51 -20s-21.333 -30 -22 -50v-350h-116v381c0 31.333 -1.66699 57 -5 77s-6.66602 37.333 -9.99902 52l110 24c2 -5.33301 4.33301 -13.666 7 -24.999
s4 -24.333 4 -39v-4c9.33301 22.667 23.666 40 42.999 52s40.333 18 63 18c9.33301 0 18 -1 26 -3c8 -2.66699 15 -5.33398 21 -8.00098zM273.999 673v-1v0l-203 -100l-38 64l187 126l54 -90v1z" />
    <glyph glyph-name="Rcommaaccent" unicode="&#x156;" horiz-adv-x="526" 
d="M509 1l-141 0.00292969l-16 37l-28 65l-32 72c-10.667 23.333 -20 42.666 -28 57.999c-14 26 -25.667 43.667 -35 53c-10 9.33301 -22.667 13.666 -38 12.999v-299h-120v708h174c45.333 0 85.666 -6.33301 120.999 -19c34.667 -12.667 62.334 -33.667 83.001 -63
s31 -68.666 31 -117.999c0 -37.333 -6.33301 -70 -19 -98s-30.334 -50 -53.001 -66c-22 -16 -47 -25 -75 -27c12.667 -8.66699 24.334 -20.334 35.001 -35.001s19.667 -29.334 27 -44.001l27 -53l37 -73l34 -69c10 -20.667 16.333 -35 19 -43zM349 503.003
c0 36 -9.33301 61.667 -28 77c-18.667 16 -44.667 24 -78 24h-53v-211h57c37.333 0 64 9.66699 80 29c15.333 20 23 47.333 23 82zM340 -124.997l-0.000976562 -1.00293v0v0c0 -15.333 -2.66699 -29.666 -8 -42.999s-12.666 -25.666 -21.999 -36.999
c-8 -9.33301 -18.333 -18.333 -31 -27c-13.333 -8.66699 -27.333 -15.667 -42 -21l-37 39c16 4.66699 28.667 11 38 19c8.66699 8 13 17.333 13 28c0 4 -1.33301 7.33301 -4 10c-2.66699 2 -6 4 -10 6c-10.667 4.66699 -19 11 -25 19c-5.33301 8.66699 -8 19 -8 31
c0 16.667 6 30.334 18 41.001s27 16 45 16c22 0 39.667 -7.33301 53 -22s20 -34.667 20 -60v2z" />
    <glyph glyph-name="rcommaaccent" unicode="&#x157;" horiz-adv-x="324" 
d="M327 523l-34.001 -113c-5.33301 2.66699 -10.666 4.66699 -15.999 6c-5.33301 2 -11.333 3 -18 3c-20 0 -37 -6.66699 -51 -20s-21.333 -30 -22 -50v-350h-116v381c0 31.333 -1.66699 57 -5 77s-6.66602 37.333 -9.99902 52l110 24c2 -5.33301 4.33301 -13.666 7 -24.999
s4 -24.333 4 -39v-4c9.33301 22.667 23.666 40 42.999 52s40.333 18 63 18c9.33301 0 18 -1 26 -3c8 -2.66699 15 -5.33398 21 -8.00098zM200.999 -125l-0.000976562 -1.00293v0v0c0 -15.333 -2.66699 -29.666 -8 -42.999s-12.666 -25.666 -21.999 -36.999
c-7.33301 -9.33301 -17.666 -18.333 -30.999 -27c-12.667 -8.66699 -26.334 -15.667 -41.001 -21l-37 39c16 4.66699 28.333 11 37 19c9.33301 8 14 17.333 14 28c0 4 -1.33301 7.33301 -4 10c-2.66699 2 -6 4 -10 6c-10.667 4.66699 -18.667 11 -24 19
c-6 8.66699 -9 19 -9 31c0 16.667 6 30.334 18 41.001s26.667 16 44 16c22.667 0 40.667 -7.33301 54 -22s20 -34.667 20 -60z" />
    <glyph glyph-name="Rcaron" unicode="&#x158;" horiz-adv-x="526" 
d="M509 1l-141 0.00292969l-16 37l-28 65l-32 72c-10.667 23.333 -20 42.666 -28 57.999c-14 26 -25.667 43.667 -35 53c-10 9.33301 -22.667 13.666 -38 12.999v-299h-120v708h174c45.333 0 85.666 -6.33301 120.999 -19c34.667 -12.667 62.334 -33.667 83.001 -63
s31 -68.666 31 -117.999c0 -37.333 -6.33301 -70 -19 -98s-30.334 -50 -53.001 -66c-22 -16 -47 -25 -75 -27c12.667 -8.66699 24.334 -20.334 35.001 -35.001s19.667 -29.334 27 -44.001l27 -53l37 -73l34 -69c10 -20.667 16.333 -35 19 -43zM349 503.003
c0 36 -9.33301 61.667 -28 77c-18.667 16 -44.667 24 -78 24h-53v-211h57c37.333 0 64 9.66699 80 29c15.333 20 23 47.333 23 82zM418 889.003l-160 -136l-163 136l40 68l124 -78l119 77l40 -66v-1z" />
    <glyph glyph-name="rcaron" unicode="&#x159;" horiz-adv-x="324" 
d="M327 523l-34.001 -113c-5.33301 2.66699 -10.666 4.66699 -15.999 6c-5.33301 2 -11.333 3 -18 3c-20 0 -37 -6.66699 -51 -20s-21.333 -30 -22 -50v-350h-116v381c0 31.333 -1.66699 57 -5 77s-6.66602 37.333 -9.99902 52l110 24c2 -5.33301 4.33301 -13.666 7 -24.999
s4 -24.333 4 -39v-4c9.33301 22.667 23.666 40 42.999 52s40.333 18 63 18c9.33301 0 18 -1 26 -3c8 -2.66699 15 -5.33398 21 -8.00098zM319.999 707v-1v0l-160 -135l-162 135l40 68l124 -78l118 76l40 -66v1z" />
    <glyph glyph-name="Sacute" unicode="&#x15a;" horiz-adv-x="532" 
d="M485 208c-0.666992 -47.333 -12.0029 -87.332 -34.0029 -119.999s-51.667 -57.667 -89 -75s-78.666 -26 -123.999 -26c-42 0 -81 5.66699 -117 17s-69 27.666 -99 48.999l53 96c23.333 -18.667 48.333 -33 75 -43c26.667 -10.667 55.667 -16 87 -16
c34.667 0 62.667 8.33301 84 25c21.333 16 32.333 40 33 72c0 22 -6 40.333 -18 55s-28.667 27 -50 37l-116 56c-20.667 9.33301 -40 21.333 -58 36c-17.333 15.333 -31.666 34.333 -42.999 57c-10.667 22.667 -16 50.667 -16 84c0 40.667 9.33301 76.334 28 107.001
c18.667 31.333 44.667 55.666 78 72.999c32.667 17.333 70.334 26 113.001 26c38.667 0 75 -5.66699 109 -17c34.667 -11.333 66 -27.333 94 -48l-56 -88c-24 17.333 -46.667 30.333 -68 39c-21.333 9.33301 -44 14 -68 14c-29.333 0 -52.666 -7 -69.999 -21
c-17.333 -14.667 -26 -35 -26 -61c0 -20 4.66699 -36.667 14 -50s22.666 -24 39.999 -32l134 -64c34.667 -16 62.667 -38.667 84 -68s32.333 -67.333 33 -114h-7zM392.997 857.001v-1v0l-202 -100l-38 64l188 126l53 -90z" />
    <glyph glyph-name="sacute" unicode="&#x15b;" horiz-adv-x="430" 
d="M396 159c-1.33301 -54.667 -18.667 -97.667 -52 -129c-33.333 -30.667 -78 -46.334 -134 -47.001c-30 0 -60.333 5.33301 -91 16c-30.667 10 -60 24.333 -88 43l41 90c20.667 -15.333 43.667 -28.333 69 -39s50 -16 74 -16c20 0 36 5.66699 48 17
c12 10.667 18 25.334 18 44.001c-0.666992 20 -9 35 -25 45c-15.333 10 -34.333 19 -57 27l-38 14c-20 7.33301 -38.333 17 -55 29s-30 27.333 -40 46c-10.667 18.667 -16 40.667 -16 66c0.666992 51.333 16.334 92.333 47.001 123s72 46.334 124 47.001
c30.667 0 58.667 -3.66699 84 -11s49 -18 71 -32l-36 -85c-18.667 11.333 -36.667 20.333 -54 27s-35.333 10 -54 10s-33.334 -4.66699 -44.001 -14s-16 -21.333 -16 -36c0 -20 5.33301 -35.333 16 -46c11.333 -10.667 29 -20 53 -28l42 -16
c18.667 -6.66699 36.667 -16 54 -28s31.333 -27.333 42 -46s16 -41.334 16 -68.001zM331.999 673v-1v0l-203 -100l-38 64l188 126l54 -90z" />
    <glyph glyph-name="Scircumflex" unicode="&#x15c;" horiz-adv-x="532" 
d="M485 208c-0.666992 -47.333 -12.0029 -87.332 -34.0029 -119.999s-51.667 -57.667 -89 -75s-78.666 -26 -123.999 -26c-42 0 -81 5.66699 -117 17s-69 27.666 -99 48.999l53 96c23.333 -18.667 48.333 -33 75 -43c26.667 -10.667 55.667 -16 87 -16
c34.667 0 62.667 8.33301 84 25c21.333 16 32.333 40 33 72c0 22 -6 40.333 -18 55s-28.667 27 -50 37l-116 56c-20.667 9.33301 -40 21.333 -58 36c-17.333 15.333 -31.666 34.333 -42.999 57c-10.667 22.667 -16 50.667 -16 84c0 40.667 9.33301 76.334 28 107.001
c18.667 31.333 44.667 55.666 78 72.999c32.667 17.333 70.334 26 113.001 26c38.667 0 75 -5.66699 109 -17c34.667 -11.333 66 -27.333 94 -48l-56 -88c-24 17.333 -46.667 30.333 -68 39c-21.333 9.33301 -44 14 -68 14c-29.333 0 -52.666 -7 -69.999 -21
c-17.333 -14.667 -26 -35 -26 -61c0 -20 4.66699 -36.667 14 -50s22.666 -24 39.999 -32l134 -64c34.667 -16 62.667 -38.667 84 -68s32.333 -67.333 33 -114h-7zM441.997 822.001v-1v0l-43 -66l-122 77l-120 -77l-38 66l162 130l161 -130v1z" />
    <glyph glyph-name="scircumflex" unicode="&#x15d;" horiz-adv-x="430" 
d="M396 159c-1.33301 -54.667 -18.667 -97.667 -52 -129c-33.333 -30.667 -78 -46.334 -134 -47.001c-30 0 -60.333 5.33301 -91 16c-30.667 10 -60 24.333 -88 43l41 90c20.667 -15.333 43.667 -28.333 69 -39s50 -16 74 -16c20 0 36 5.66699 48 17
c12 10.667 18 25.334 18 44.001c-0.666992 20 -9 35 -25 45c-15.333 10 -34.333 19 -57 27l-38 14c-20 7.33301 -38.333 17 -55 29s-30 27.333 -40 46c-10.667 18.667 -16 40.667 -16 66c0.666992 51.333 16.334 92.333 47.001 123s72 46.334 124 47.001
c30.667 0 58.667 -3.66699 84 -11s49 -18 71 -32l-36 -85c-18.667 11.333 -36.667 20.333 -54 27s-35.333 10 -54 10s-33.334 -4.66699 -44.001 -14s-16 -21.333 -16 -36c0 -20 5.33301 -35.333 16 -46c11.333 -10.667 29 -20 53 -28l42 -16
c18.667 -6.66699 36.667 -16 54 -28s31.333 -27.333 42 -46s16 -41.334 16 -68.001zM385.999 638v-1v0l-43 -66l-122 77l-120 -77l-38 66l162 129l160 -129z" />
    <glyph glyph-name="Scedilla" unicode="&#x15e;" horiz-adv-x="532" 
d="M325 -107l-0.00292969 -1.00195v0v0c0 -16 -3.33301 -31.333 -10 -46s-17.334 -26.667 -32.001 -36s-34 -14 -58 -14c-13.333 0 -26.666 2 -39.999 6s-24.666 9 -33.999 15l24 56c8 -4.66699 15.333 -8.33398 22 -11.001c6.66699 -2 14.667 -3 24 -3s17.333 2.33301 24 7
s10 11.667 10 21s-3.33301 16.333 -10 21s-14.667 7 -24 7c-5.33301 0 -10 -0.333008 -14 -1h-10l-8 14l16 60c-35.333 2.66699 -68.333 9.33398 -99 20.001s-59 25.334 -85 44.001l53 96c23.333 -18.667 48.333 -33 75 -43c26.667 -10.667 55.667 -16 87 -16
c34.667 0 62.667 8.33301 84 25c21.333 16 32.333 40 33 72c0 22 -6 40.333 -18 55s-28.667 27 -50 37l-116 56c-20.667 9.33301 -40 21.333 -58 36c-17.333 15.333 -31.666 34.333 -42.999 57c-10.667 22.667 -16 50.667 -16 84c0 40.667 9.33301 76.334 28 107.001
c18.667 31.333 44.667 55.666 78 72.999c32.667 17.333 70.334 26 113.001 26c38.667 0 75 -5.66699 109 -17c34.667 -11.333 66 -27.333 94 -48l-56 -88c-24 17.333 -46.667 30.333 -68 39c-21.333 9.33301 -44 14 -68 14c-29.333 0 -52.666 -7 -69.999 -21
c-17.333 -14.667 -26 -35 -26 -61c0 -20 4.66699 -36.667 14 -50s22.666 -24 39.999 -32l134 -64c34.667 -16 62.667 -38.667 84 -68s32.333 -67.333 33 -114c0 -44 -9.33301 -81.333 -28 -112c-18.667 -31.333 -44 -55.666 -76 -72.999s-68 -28 -108 -32l-7 -24
c22 -3.33301 38.333 -11.333 49 -24c10.667 -13.333 16 -30 16 -50z" />
    <glyph glyph-name="scedilla" unicode="&#x15f;" horiz-adv-x="430" 
d="M300 -105l-0.00292969 -0.996094v0v0c0 -16 -3.33301 -31.333 -10 -46s-17.334 -26.667 -32.001 -36s-34 -14 -58 -14c-13.333 0 -26.666 2 -39.999 6s-24.666 9 -33.999 15l24 56c8 -4.66699 15.333 -8.33398 22 -11.001c6.66699 -2 14.667 -3 24 -3
s17.333 2.33301 24 7s10 11.667 10 21s-3.33301 16.333 -10 21s-14.667 7 -24 7c-5.33301 0 -10 -0.333008 -14 -1h-10l-8 14l16 58c-25.333 2.66699 -50.333 8.66699 -75 18c-25.333 9.33301 -49.666 21.666 -72.999 36.999l41 90c20.667 -15.333 43.667 -28.333 69 -39
s50 -16 74 -16c20 0 36 5.33301 48 16c12 11.333 18 26.333 18 45c-0.666992 20 -9 35 -25 45c-15.333 10 -34.333 19 -57 27l-38 14c-20 7.33301 -38.333 17 -55 29s-30 27.333 -40 46c-10.667 18.667 -16 40.667 -16 66c0.666992 51.333 16.334 92.333 47.001 123
s72 46.334 124 47.001c30.667 0 58.667 -3.66699 84 -11s49 -18 71 -32l-36 -85c-18.667 11.333 -36.667 20.333 -54 27s-35.333 10 -54 10s-33.334 -4.66699 -44.001 -14s-16 -21.333 -16 -36c0 -20 5.33301 -35.333 16 -46c11.333 -10.667 29 -20 53 -28l42 -16
c18.667 -6.66699 36.667 -16 54 -28s31.333 -27.333 42 -46s16 -41.334 16 -68.001c-0.666992 -48.667 -15 -88.334 -43 -119.001c-27.333 -30.667 -64.666 -49.334 -111.999 -56.001l-6 -22c22 -3.33301 38.333 -11.333 49 -24c10.667 -13.333 16 -30 16 -50v3z" />
    <glyph glyph-name="Scaron" unicode="&#x160;" horiz-adv-x="532" 
d="M485 208c-0.666992 -47.333 -12.0029 -87.332 -34.0029 -119.999s-51.667 -57.667 -89 -75s-78.666 -26 -123.999 -26c-42 0 -81 5.66699 -117 17s-69 27.666 -99 48.999l53 96c23.333 -18.667 48.333 -33 75 -43c26.667 -10.667 55.667 -16 87 -16
c34.667 0 62.667 8.33301 84 25c21.333 16 32.333 40 33 72c0 22 -6 40.333 -18 55s-28.667 27 -50 37l-116 56c-20.667 9.33301 -40 21.333 -58 36c-17.333 15.333 -31.666 34.333 -42.999 57c-10.667 22.667 -16 50.667 -16 84c0 40.667 9.33301 76.334 28 107.001
c18.667 31.333 44.667 55.666 78 72.999c32.667 17.333 70.334 26 113.001 26c38.667 0 75 -5.66699 109 -17c34.667 -11.333 66 -27.333 94 -48l-56 -88c-24 17.333 -46.667 30.333 -68 39c-21.333 9.33301 -44 14 -68 14c-29.333 0 -52.666 -7 -69.999 -21
c-17.333 -14.667 -26 -35 -26 -61c0 -20 4.66699 -36.667 14 -50s22.666 -24 39.999 -32l134 -64c34.667 -16 62.667 -38.667 84 -68s32.333 -67.333 33 -114h-7zM425.997 889.001l-160 -136l-162 136l40 68l124 -78l118 77l40 -66v-1z" />
    <glyph glyph-name="scaron" unicode="&#x161;" horiz-adv-x="430" 
d="M396 159c-1.33301 -54.667 -18.667 -97.667 -52 -129c-33.333 -30.667 -78 -46.334 -134 -47.001c-30 0 -60.333 5.33301 -91 16c-30.667 10 -60 24.333 -88 43l41 90c20.667 -15.333 43.667 -28.333 69 -39s50 -16 74 -16c20 0 36 5.66699 48 17
c12 10.667 18 25.334 18 44.001c-0.666992 20 -9 35 -25 45c-15.333 10 -34.333 19 -57 27l-38 14c-20 7.33301 -38.333 17 -55 29s-30 27.333 -40 46c-10.667 18.667 -16 40.667 -16 66c0.666992 51.333 16.334 92.333 47.001 123s72 46.334 124 47.001
c30.667 0 58.667 -3.66699 84 -11s49 -18 71 -32l-36 -85c-18.667 11.333 -36.667 20.333 -54 27s-35.333 10 -54 10s-33.334 -4.66699 -44.001 -14s-16 -21.333 -16 -36c0 -20 5.33301 -35.333 16 -46c11.333 -10.667 29 -20 53 -28l42 -16
c18.667 -6.66699 36.667 -16 54 -28s31.333 -27.333 42 -46s16 -41.334 16 -68.001zM370.999 707v-1v0l-160 -135l-163 135l40 68l124 -78l118 76l40 -66z" />
    <glyph glyph-name="Tcommaaccent" unicode="&#x162;" horiz-adv-x="439" 
d="M309 -106l-0.000976562 -0.999023v0v0c0 -16 -3.33301 -31.333 -10 -46s-17.334 -26.667 -32.001 -36s-34 -14 -58 -14c-13.333 0 -26.666 2 -39.999 6s-24.666 9 -33.999 15l24 56c8 -4.66699 15.333 -8.33398 22 -11.001c6.66699 -2 14.667 -3 24 -3
s17.333 2.33301 24 7s10 11.667 10 21s-3.33301 16.333 -10 21s-14.667 7 -24 7h-14c-4 -0.666992 -7.33301 -1 -10 -1l-8 14l18 71h-24v603h-152v106h440l-12 -106h-154v-603h-32l-10 -34c22 -2.66699 38.333 -10.667 49 -24s16 -30 16 -50z" />
    </font>
</defs>
</svg>
