<?xml version="1.0" standalone="no"?>
<!DOCTYPE svg PUBLIC "-//W3C//DTD SVG 1.1//EN" "http://www.w3.org/Graphics/SVG/1.1/DTD/svg11.dtd" >
<svg>
<metadata>
Created by FontForge 20090914 at Sat Jun 22 08:40:02 2013
 By www-data
&#194;&#169;1991,1993 Tilde Ltd. AG Fonts collection.
</metadata>
<defs>
<font id="AGLettericaExtraCompressed-Roman" horiz-adv-x="370" >
  <font-face 
    font-family="AGLettericaExtraCompressed"
    font-weight="400"
    font-stretch="normal"
    units-per-em="1000"
    panose-1="0 0 0 0 0 0 0 0 0 0"
    ascent="800"
    descent="-200"
    x-height="572"
    cap-height="712"
    bbox="-54 -179 1000 892.001"
    underline-thickness="20"
    underline-position="-123"
    unicode-range="U+0020-U+2122"
  />
<missing-glyph horiz-adv-x="800" 
d="M50 0v800h700v-800h-700zM700 50v700h-600v-700h600z" />
    <glyph glyph-name=".notdef" horiz-adv-x="800" 
d="M50 0v800h700v-800h-700zM700 50v700h-600v-700h600z" />
    <glyph glyph-name="space" unicode=" " horiz-adv-x="185" 
 />
    <glyph glyph-name="exclam" unicode="!" horiz-adv-x="259" 
d="M193 183h-127v529h127v-529zM193 0h-127v148h127v-148z" />
    <glyph glyph-name="quotedbl" unicode="&#x22;" horiz-adv-x="333" 
d="M198 441v271h120v-271h-120zM15 441v271h120v-271h-120z" />
    <glyph glyph-name="numbersign" unicode="#" 
d="M229 416h-62l-14 -146h62zM174 486h62l21 226h69l-21 -226h53l-4 -70h-56l-14 -146h54l-4 -70h-57l-19 -200h-69l19 200h-62l-19 -200h-69l19 200h-65l4 70h68l14 146h-60l4 70h63l21 226h69z" />
    <glyph glyph-name="dollar" unicode="$" 
d="M225 778l0.00195312 -52.0039c35.333 0 64.666 -11.667 87.999 -35c11.333 -11.333 20.166 -25.166 26.499 -41.499s9.5 -34.166 9.5 -53.499v-138h-141v115c0 13.333 -1.66699 24.5 -5 33.5s-10 13.5 -20 13.5s-16.667 -4.5 -20 -13.5s-5 -20.167 -5 -33.5
c0 -54 16.667 -98 50 -132l95 -88c34 -42.667 51 -101 51 -175v-62c0 -40 -12.333 -71.667 -37 -95s-55.334 -35 -92.001 -35v-52h-65v52c-39.333 0 -71.666 11 -96.999 33c-27.333 24 -41 56.333 -41 97v164h141v-141c0 -13.333 1.66699 -24.5 5 -33.5s10 -13.5 20 -13.5
s16.667 4.5 20 13.5s5 20.167 5 33.5c0 51.333 -10.333 95 -31 131c-14 24.667 -36.667 50.334 -68 77.001c-36 31.333 -58.333 53 -67 65c-20 26.667 -30 58.334 -30 95.001v89c0 41.333 13.667 73.333 41 96s61.333 34 102 34v52h65z" />
    <glyph glyph-name="percent" unicode="%" horiz-adv-x="537" 
d="M116 -14l248 740h58l-246 -740h-60zM394 306v-218c0 -16 5.66699 -24 17 -24s17 8 17 24v218c0 16 -5.66699 24 -17 24s-17 -8 -17 -24zM304 117v160c0 78 35.667 117 107 117s107 -39 107 -117v-160c0 -78 -35.667 -117 -107 -117s-107 39 -107 117zM19 435v160
c0 78 35.667 117 107 117s107 -39 107 -117v-160c0 -78 -35.667 -117 -107 -117s-107 39 -107 117zM109 624v-218c0 -16 5.66699 -24 17 -24s17 8 17 24v218c0 16 -5.66699 24 -17 24s-17 -8 -17 -24z" />
    <glyph glyph-name="ampersand" unicode="&#x26;" horiz-adv-x="426" 
d="M256 116l-99 183l-2 -137c0 -22 3.66699 -39.167 11 -51.5s20 -18.5 38 -18.5c20.667 0 38 8 52 24zM165 593l-0.000976562 -82.001c0 -6.66699 1.16699 -13.334 3.5 -20.001s5.83301 -13.667 10.5 -21c10.667 1.33301 19.334 6.33301 26.001 15s10 21.334 10 38.001v70
c0 18 -8.33301 27 -25 27c-7.33301 0 -13.333 -2.66699 -18 -8s-7 -11.666 -7 -18.999zM281.999 390.999l113.999 0.000976562v-97c0 -34.667 -1 -63.834 -3 -87.501s-4 -48.834 -6 -75.501c0 -12 6 -18 18 -18h19v-113h-55c-21.333 0 -37.333 7 -48 21
c-14.667 -10.667 -34 -19.167 -58 -25.5s-46.667 -9.5 -68 -9.5c-55.333 0 -98.666 13 -129.999 39c-34 28 -51 69 -51 123v127c0 37.333 3.66699 65.333 11 84c10.667 26.667 31 46 61 58c-18.667 20.667 -31.5 40.834 -38.5 60.501s-10.5 42.5 -10.5 68.5v20
c0 54.667 9.66699 94 29 118c22.667 28 62 42 118 42c61.333 0 104 -14 128 -42c20.667 -24 31 -63.333 31 -118v-20c0 -44 -8 -75.333 -24 -94c-12 -14 -43.667 -34.667 -95 -62l56 -102z" />
    <glyph glyph-name="quotesingle" unicode="'" horiz-adv-x="222" 
d="M51 441v271h120v-271h-120z" />
    <glyph glyph-name="parenleft" unicode="(" horiz-adv-x="296" 
d="M155 726l115.001 -0.000976562c-38.667 -71.333 -67 -138.666 -85 -201.999c-20 -69.333 -30 -141.333 -30 -216c0 -77.333 7.66699 -145.5 23 -204.5s42 -124.833 80 -197.5h-112c-38.667 68 -67.667 132.667 -87 194c-22 69.333 -33 139 -33 209
c0 68 12.667 140 38 216c21.333 63.333 51.666 130.333 90.999 201z" />
    <glyph glyph-name="parenright" unicode=")" horiz-adv-x="296" 
d="M141 -94l-115.001 0.000976562c38.667 71.333 67.5 140.166 86.5 206.499s28.5 136.833 28.5 211.5c0 77.333 -7.66699 145.5 -23 204.5s-42 124.833 -80 197.5h112c38.667 -68 67.667 -132.667 87 -194c22 -69.333 33 -139 33 -209c0 -68 -12.667 -140 -38 -216
c-21.333 -63.333 -51.666 -130.333 -90.999 -201z" />
    <glyph glyph-name="asterisk" unicode="*" 
d="M50 645l92 -33v100h84v-101l92 37l29 -83l-98 -29l70 -89l-66 -48l-68 90l-65 -90l-72 48l69 88l-95 29z" />
    <glyph glyph-name="plus" unicode="+" horiz-adv-x="556" 
d="M220 344v188h116v-188h187v-116h-187v-188h-116v188h-187v116h187z" />
    <glyph glyph-name="comma" unicode="," horiz-adv-x="185" 
d="M9 -126l36 274h130l-85 -274h-81z" />
    <glyph glyph-name="hyphen" unicode="-" horiz-adv-x="259" 
d="M216 264h-173v92h173v-92z" />
    <glyph glyph-name="period" unicode="." horiz-adv-x="185" 
d="M156 0h-127v148h127v-148z" />
    <glyph glyph-name="slash" unicode="/" horiz-adv-x="204" 
d="M-5 -14l134 740h81l-137 -740h-78z" />
    <glyph glyph-name="zero" unicode="0" 
d="M19 116v480c0 44 16.667 77.333 50 100c30 20 68.667 30 116 30c48.667 0 87.334 -9.66699 116.001 -29c33.333 -22 50 -55.667 50 -101v-480c0 -44 -16.667 -77.333 -50 -100c-30 -20 -68.667 -30 -116 -30c-48.667 0 -87.334 9.66699 -116.001 29
c-33.333 22 -50 55.667 -50 101zM210 139v434c0 13.333 -1.66699 24.5 -5 33.5s-10 13.5 -20 13.5s-16.667 -4.5 -20 -13.5s-5 -20.167 -5 -33.5v-434c0 -13.333 1.66699 -24.5 5 -33.5s10 -13.5 20 -13.5s16.667 4.5 20 13.5s5 20.167 5 33.5z" />
    <glyph glyph-name="one" unicode="1" 
d="M119 0v546h-80v86c30 0 53.667 6.33301 71 19s30 33 38 61h112v-712h-141z" />
    <glyph glyph-name="two" unicode="2" 
d="M351 106v-106h-332v147c0 35.333 16.333 77.333 49 126l92 134c33.333 57.333 50 112.666 50 165.999c0 13.333 -1.66699 24.5 -5 33.5s-10 13.5 -20 13.5s-16.667 -4.5 -20 -13.5s-5 -20.167 -5 -33.5v-115h-141v138c0 44 16.667 77.333 50 100c30 20 68.667 30 116 30
c48.667 0 87.334 -9.66699 116.001 -29c33.333 -22 50 -55.667 50 -101v-30c0 -57.333 -16.333 -117.666 -49 -180.999c-0.666992 -2 -31.334 -52 -92.001 -150c-33.333 -54 -50 -97 -50 -129h191z" />
    <glyph glyph-name="three" unicode="3" 
d="M120 316v105.997h28c25.333 0 42 3.33301 50 10s12 21 12 43v98c0 13.333 -1.66699 24.5 -5 33.5s-10 13.5 -20 13.5s-16.667 -4.5 -20 -13.5s-5 -20.167 -5 -33.5v-115h-141v138c0 44 16.667 77.333 50 100c30 20 68.667 30 116 30
c48.667 0 87.334 -9.66699 116.001 -29c33.333 -22 50 -55.667 50 -101v-81c0 -42 -6 -73.333 -18 -94c-14.667 -25.333 -41 -40.666 -79 -45.999v-5c36.667 -5.33301 62.667 -20.666 78 -45.999c12.667 -21.333 19 -52.666 19 -93.999v-114c0 -44 -16.667 -77.333 -50 -100
c-30 -20 -68.667 -30 -116 -30c-48.667 0 -87.334 9.66699 -116.001 29c-33.333 22 -50 55.667 -50 101v164h141v-141c0 -13.333 1.66699 -24.5 5 -33.5s10 -13.5 20 -13.5s16.667 4.5 20 13.5s5 20.167 5 33.5v124c0 22 -3.66699 36.333 -11 43s-24.333 10 -51 10h-28z" />
    <glyph glyph-name="four" unicode="4" 
d="M-3 178v100l131 434h196v-434h45v-100h-45v-178h-136v178h-191zM107 278h81v339z" />
    <glyph glyph-name="five" unicode="5" 
d="M19 282h141.001v-143c0 -13.333 1.66699 -24.5 5 -33.5s10 -13.5 20 -13.5s16.667 4.5 20 13.5s5 20.167 5 33.5v215c0 12.667 -2 21 -6 25s-10.333 6 -19 6c-10 0 -16.667 -2.83301 -20 -8.5s-5 -13.167 -5 -22.5h-141v358h328v-106h-187v-136
c17.333 23.333 45.333 35 84 35c71.333 0 107 -42.333 107 -127v-262c0 -44 -16.667 -77.333 -50 -100c-30 -20 -68.667 -30 -116 -30c-48.667 0 -87.334 9.66699 -116.001 29c-33.333 22 -50 55.667 -50 101v166z" />
    <glyph glyph-name="six" unicode="6" 
d="M351 460h-141.001v113c0 13.333 -1.66699 24.5 -5 33.5s-10 13.5 -20 13.5s-16.667 -4.5 -20 -13.5s-5 -20.167 -5 -33.5v-174c22.667 18.667 48.334 28 77.001 28c41.333 0 71.333 -12.667 90 -38c16 -21.333 24 -53 24 -95v-178c0 -44 -16.667 -77.333 -50 -100
c-30 -20 -68.667 -30 -116 -30c-48.667 0 -87.334 9.66699 -116.001 29c-33.333 22 -50 55.667 -50 101v480c0 44 16.667 77.333 50 100c30 20 68.667 30 116 30c48.667 0 87.334 -9.66699 116.001 -29c33.333 -22 50 -55.667 50 -101v-136zM159.999 256v-117
c0 -13.333 1.66699 -24.5 5 -33.5s10 -13.5 20 -13.5s16.667 4.5 20 13.5s5 20.167 5 33.5v117c0 13.333 -1.66699 24.5 -5 33.5s-10 13.5 -20 13.5s-16.667 -4.5 -20 -13.5s-5 -20.167 -5 -33.5z" />
    <glyph glyph-name="seven" unicode="7" 
d="M9 606v106h357v-106l-175 -606h-152l183 606h-213z" />
    <glyph glyph-name="eight" unicode="8" 
d="M210 479v94c0 13.333 -1.66699 24.5 -5 33.5s-10 13.5 -20 13.5s-16.667 -4.5 -20 -13.5s-5 -20.167 -5 -33.5v-94c0 -13.333 1.66699 -24.5 5 -33.5s10 -13.5 20 -13.5s16.667 4.5 20 13.5s5 20.167 5 33.5zM19 502v94.0029c0 44 16.667 77.333 50 100
c30 20 68.667 30 116 30c48.667 0 87.334 -9.66699 116.001 -29c33.333 -22 50 -55.667 50 -101v-94c0 -36 -6.66699 -64 -20 -84c-15.333 -23.333 -40.333 -38 -75 -44c34.667 -0.666992 60 -14.334 76 -41.001c12.667 -20.667 19 -48.334 19 -83.001v-134
c0 -44 -16.667 -77.333 -50 -100c-30 -20 -68.667 -30 -116 -30c-48.667 0 -87.334 9.66699 -116.001 29c-33.333 22 -50 55.667 -50 101v134c0 33.333 6.66699 60.666 20 81.999c16.667 26.667 40.667 40 72 40c-33.333 7.33301 -57 21.833 -71 43.5s-21 50.5 -21 86.5z
M160 267.003v-128c0 -13.333 1.66699 -24.5 5 -33.5s10 -13.5 20 -13.5s16.667 4.5 20 13.5s5 20.167 5 33.5v128c0 13.333 -1.66699 24.5 -5 33.5s-10 13.5 -20 13.5s-16.667 -4.5 -20 -13.5s-5 -20.167 -5 -33.5z" />
    <glyph glyph-name="nine" unicode="9" 
d="M19 252h141.001v-113c0 -13.333 1.66699 -24.5 5 -33.5s10 -13.5 20 -13.5s16.667 4.5 20 13.5s5 20.167 5 33.5v174c-22.667 -18.667 -48.334 -28 -77.001 -28c-41.333 0 -71.333 12.667 -90 38c-16 21.333 -24 53 -24 95v178c0 44 16.667 77.333 50 100
c30 20 68.667 30 116 30c48.667 0 87.334 -9.66699 116.001 -29c33.333 -22 50 -55.667 50 -101v-480c0 -44 -16.667 -77.333 -50 -100c-30 -20 -68.667 -30 -116 -30c-48.667 0 -87.334 9.66699 -116.001 29c-33.333 22 -50 55.667 -50 101v136zM210.001 456v117
c0 13.333 -1.66699 24.5 -5 33.5s-10 13.5 -20 13.5s-16.667 -4.5 -20 -13.5s-5 -20.167 -5 -33.5v-117c0 -13.333 1.66699 -24.5 5 -33.5s10 -13.5 20 -13.5s16.667 4.5 20 13.5s5 20.167 5 33.5z" />
    <glyph glyph-name="colon" unicode=":" horiz-adv-x="185" 
d="M156 0h-127v148h127v-148zM156 424h-127v148h127v-148z" />
    <glyph glyph-name="semicolon" unicode=";" horiz-adv-x="185" 
d="M9 -126l36 274h130l-85 -274h-81zM165 424h-127v148h127v-148z" />
    <glyph glyph-name="less" unicode="&#x3c;" horiz-adv-x="556" 
d="M497 160v-98l-437 184v80l437 184v-98l-303 -126z" />
    <glyph glyph-name="equal" unicode="=" horiz-adv-x="556" 
d="M523 460v-116h-490v116h490zM523 228v-116h-490v116h490z" />
    <glyph glyph-name="greater" unicode="&#x3e;" horiz-adv-x="556" 
d="M59 160l303 126l-303 126v98l437 -184v-80l-437 -184v98z" />
    <glyph glyph-name="question" unicode="?" horiz-adv-x="426" 
d="M190 455l-127.002 0.00195312v133c0 47.333 14.167 82.166 42.5 104.499s67.166 33.5 116.499 33.5c44.667 0 79.334 -11.333 104.001 -34s37 -57.667 37 -105v-53c0 -36 -4.33301 -66 -13 -90c-5.33301 -16 -14.666 -32 -27.999 -48
c-16 -18.667 -25.667 -31.334 -29 -38.001c-8.66699 -16 -13 -37.333 -13 -64v-111h-127v152c0 18 2.33301 33.167 7 45.5s15.834 30.833 33.501 55.5s29.167 45.5 34.5 62.5s8 35.5 8 55.5v33c0 14.667 -0.666992 24 -2 28c-3.33301 10 -10.333 15 -21 15
c-10 0 -16.333 -3.83301 -19 -11.5s-4 -18.167 -4 -31.5v-132zM279.998 0.00195312h-127v148h127v-148z" />
    <glyph glyph-name="at" unicode="@" horiz-adv-x="800" 
d="M386 252c30 0 54.333 10.001 73 30.001s28 44.667 28 74c0 24 -7 43.333 -21 58s-33 22 -57 22c-27.333 0 -50.333 -10.333 -69 -31s-28 -44.334 -28 -71.001c0 -23.333 6.5 -42.833 19.5 -58.5s31.167 -23.5 54.5 -23.5zM516 486.001l8.99805 48h94l-44 -236
c-1.33301 -5.33301 -2.5 -11 -3.5 -17s-1.5 -11.333 -1.5 -16c0 -14.667 4.33301 -22 13 -22c23.333 0 43.666 11.667 60.999 35c20.667 28 31 66.667 31 116c0 77.333 -24.667 137.333 -74 180c-46.667 40 -109 60 -187 60c-81.333 0 -146.5 -25.833 -195.5 -77.5
s-73.5 -118.834 -73.5 -201.501c0 -86 26 -153.667 78 -203s121.333 -74 208 -74c38 0 72.333 4.83301 103 14.5s59 24.167 85 43.5h97c-72 -100 -169.667 -150 -293 -150c-108 0 -199 34.333 -273 103c-76 70.667 -114 159.334 -114 266.001
c0 105.333 36.833 193.5 110.5 264.5s163.834 106.5 270.501 106.5c92 0 171.667 -27 239 -81c72 -57.333 108 -130.333 108 -219c0 -76 -22 -139.333 -66 -190c-56 -64.667 -119.333 -97 -190 -97c-14.667 0 -27 4.33301 -37 13s-15 20.334 -15 35.001l-2 2
c-12.667 -14 -27.667 -25.833 -45 -35.5s-34 -14.5 -50 -14.5c-43.333 0 -81.666 17.667 -114.999 53s-50 77 -50 125c0 61.333 18 113.666 54 156.999c38.667 46.667 87.334 70 146.001 70c26 0 49.167 -4.5 69.5 -13.5s37.833 -23.833 52.5 -44.5z" />
    <glyph glyph-name="A" unicode="A" 
d="M156 296h46l-19 292h-4zM-4 0l106 712h187l85 -712h-147l-16 194h-67l-22 -194h-126z" />
    <glyph glyph-name="B" unicode="B" 
d="M210 461v104c0 17.333 -2.5 29.166 -7.5 35.499s-13.5 9.5 -25.5 9.5h-17v-194h17c12 0 20.5 3.33301 25.5 10s7.5 18.334 7.5 35.001zM19 0l-0.00195312 712.001h166c48.667 0 87.334 -10.333 116.001 -31c33.333 -24 50 -61.667 50 -113v-54
c0 -38 -6.33301 -66.667 -19 -86c-15.333 -23.333 -44.333 -39.333 -87 -48c38 -5.33301 65.167 -19.333 81.5 -42s24.5 -61.334 24.5 -116.001v-62c0 -59.333 -14 -101.333 -42 -126c-25.333 -22.667 -66.666 -34 -123.999 -34h-166zM159.998 328.001v-226h17
c12.667 0 21.334 2.33301 26.001 7s7 13.667 7 27v158c0 13.333 -2.33301 22.333 -7 27s-13.334 7 -26.001 7h-17z" />
    <glyph glyph-name="C" unicode="C" 
d="M210 280h141v-164c0 -44 -16.667 -77.333 -50 -100c-30 -20 -68.667 -30 -116 -30c-48.667 0 -87.334 9.66699 -116.001 29c-33.333 22 -50 55.667 -50 101v480c0 44 16.667 77.333 50 100c30 20 68.667 30 116 30c48.667 0 87.334 -9.66699 116.001 -29
c33.333 -22 50 -55.667 50 -101v-135h-141v112c0 13.333 -1.66699 24.5 -5 33.5s-10 13.5 -20 13.5s-16.667 -4.5 -20 -13.5s-5 -20.167 -5 -33.5v-434c0 -13.333 1.66699 -24.5 5 -33.5s10 -13.5 20 -13.5s16.667 4.5 20 13.5s5 20.167 5 33.5v141z" />
    <glyph glyph-name="D" unicode="D" 
d="M19 0l-0.000976562 712h166c48.667 0 87.334 -9.66699 116.001 -29c33.333 -22 50 -55.667 50 -101v-452c0 -44 -16.667 -77.333 -50 -100c-30 -20 -68.667 -30 -116 -30h-166zM159.999 610v-508h25c10 0 16.667 4.5 20 13.5s5 20.167 5 33.5v414
c0 13.333 -1.66699 24.5 -5 33.5s-10 13.5 -20 13.5h-25z" />
    <glyph glyph-name="E" unicode="E" horiz-adv-x="296" 
d="M287 0h-264v712h264v-102h-123v-163h118v-102h-118v-243h123v-102z" />
    <glyph glyph-name="F" unicode="F" horiz-adv-x="296" 
d="M164 0h-141v712h264v-102h-123v-163h118v-102h-118v-345z" />
    <glyph glyph-name="G" unicode="G" 
d="M283 0l-10.001 51c-10 -20.667 -25.5 -36.667 -46.5 -48s-42.833 -17 -65.5 -17c-45.333 0 -80.333 11.667 -105 35s-37 55 -37 95v480c0 44 16.667 77.333 50 100c30 20 68.667 30 116 30c48.667 0 87.334 -9.66699 116.001 -29c33.333 -22 50 -55.667 50 -101v-135
h-141v112c0 13.333 -1.66699 24.5 -5 33.5s-10 13.5 -20 13.5s-16.667 -4.5 -20 -13.5s-5 -20.167 -5 -33.5v-434c0 -13.333 1.66699 -24.5 5 -33.5s10 -13.5 20 -13.5s16.667 4.5 20 13.5s5 20.167 5 33.5v122h-35v102h176v-363h-68z" />
    <glyph glyph-name="H" unicode="H" 
d="M160 0h-141v712h141v-258h50v258h141v-712h-141v340h-50v-340z" />
    <glyph glyph-name="I" unicode="I" horiz-adv-x="204" 
d="M172 0h-141v712h141v-712z" />
    <glyph glyph-name="J" unicode="J" 
d="M19 280l141 -0.000976562v-127c0 -20 1.66699 -35.167 5 -45.5s10 -15.5 20 -15.5c12 0 19.667 8.66699 23 26c1.33301 6.66699 2 18.334 2 35.001v559h141v-570c0 -104 -55.333 -156 -166 -156c-56 0 -97.667 12.5 -125 37.5s-41 64.5 -41 118.5v138z" />
    <glyph glyph-name="K" unicode="K" 
d="M154 0h-141v712h141v-315l73 315h139l-86 -295l87 -417h-140l-71 373z" />
    <glyph glyph-name="L" unicode="L" horiz-adv-x="296" 
d="M285 0h-266v712h141v-610h125v-102z" />
    <glyph glyph-name="M" unicode="M" horiz-adv-x="593" 
d="M150 0h-127v712h217l61 -478l72 478h197v-712h-127v522l-2 2l-86 -524h-121l-82 514z" />
    <glyph glyph-name="N" unicode="N" horiz-adv-x="426" 
d="M133 0h-110v712h196l72 -462l2 462h110v-712h-168l-100 560l-2 -2v-558z" />
    <glyph glyph-name="O" unicode="O" 
d="M19 116v480c0 44 16.667 77.333 50 100c30 20 68.667 30 116 30c48.667 0 87.334 -9.66699 116.001 -29c33.333 -22 50 -55.667 50 -101v-480c0 -44 -16.667 -77.333 -50 -100c-30 -20 -68.667 -30 -116 -30c-48.667 0 -87.334 9.66699 -116.001 29
c-33.333 22 -50 55.667 -50 101zM210 139v434c0 13.333 -1.66699 24.5 -5 33.5s-10 13.5 -20 13.5s-16.667 -4.5 -20 -13.5s-5 -20.167 -5 -33.5v-434c0 -13.333 1.66699 -24.5 5 -33.5s10 -13.5 20 -13.5s16.667 4.5 20 13.5s5 20.167 5 33.5z" />
    <glyph glyph-name="P" unicode="P" 
d="M160 610v-230h17c12 0 20.5 3.33301 25.5 10s7.5 18.334 7.5 35.001v140c0 17.333 -2.5 29.166 -7.5 35.499s-13.5 9.5 -25.5 9.5h-17zM160 0h-141v712h166c48.667 0 87.334 -10.333 116.001 -31c33.333 -24 50 -61.667 50 -113v-146c0 -51.333 -16.667 -89 -50 -113
c-28.667 -20.667 -67.334 -31 -116.001 -31h-25v-278z" />
    <glyph glyph-name="Q" unicode="Q" 
d="M351 -22l0.00195312 -106.002h-51c-32 0 -55.833 10.5 -71.5 31.5s-23.5 49.167 -23.5 84.5c-4 -1.33301 -10.667 -2 -20 -2c-48.667 0 -87.334 9.66699 -116.001 29c-33.333 22 -50 55.667 -50 101v480c0 44 16.667 77.333 50 100c30 20 68.667 30 116 30
c48.667 0 87.334 -9.66699 116.001 -29c33.333 -22 50 -55.667 50 -101v-480c0 -29.333 -7.33301 -53.666 -22 -72.999s-34.334 -33.666 -59.001 -42.999c0.666992 -8.66699 4.66699 -14.5 12 -17.5s17.666 -4.5 30.999 -4.5h38zM210.002 138.998v434
c0 13.333 -1.66699 24.5 -5 33.5s-10 13.5 -20 13.5s-16.667 -4.5 -20 -13.5s-5 -20.167 -5 -33.5v-434c0 -13.333 1.66699 -24.5 5 -33.5s10 -13.5 20 -13.5s16.667 4.5 20 13.5s5 20.167 5 33.5z" />
    <glyph glyph-name="R" unicode="R" 
d="M160 0l-141 0.000976562v712h166c48.667 0 87.334 -10.333 116.001 -31c33.333 -24 50 -61.667 50 -113v-63c0 -32 -7.33301 -58 -22 -78c-18.667 -25.333 -47.667 -38 -87 -38c42.667 -0.666992 72 -11 88 -31c14 -17.333 21 -47.666 21 -90.999v-141
c0 -30 2.33301 -56 7 -78l14 -48h-143c-6 11.333 -10.667 24.166 -14 38.499s-5 32.166 -5 53.499v162c0 28 -2 46.667 -6 56c-6.66699 15.333 -21.334 23 -44.001 23v-333zM160 610.001v-195h17c12 0 20.5 3.33301 25.5 10s7.5 18.334 7.5 35.001v105
c0 17.333 -2.5 29.166 -7.5 35.499s-13.5 9.5 -25.5 9.5h-17z" />
    <glyph glyph-name="S" unicode="S" 
d="M349 458h-141v115c0 13.333 -1.66699 24.5 -5 33.5s-10 13.5 -20 13.5s-16.667 -4.5 -20 -13.5s-5 -20.167 -5 -33.5c0 -54 16.667 -98 50 -132l95 -88c34 -42.667 51 -101 51 -175v-62c0 -44 -16.667 -77.333 -50 -100c-30 -20 -68.667 -30 -116 -30
c-48.667 0 -87.334 9.66699 -116.001 29c-33.333 22 -50 55.667 -50 101v164h141v-141c0 -13.333 1.66699 -24.5 5 -33.5s10 -13.5 20 -13.5s16.667 4.5 20 13.5s5 20.167 5 33.5c0 64.667 -16.667 118 -50 160l-95 90c-34 34 -51 73.333 -51 118v89
c0 44 16.667 77.333 50 100c30 20 68.667 30 116 30c48.667 0 87.334 -9.66699 116.001 -29c33.333 -22 50 -55.667 50 -101v-138z" />
    <glyph glyph-name="T" unicode="T" horiz-adv-x="333" 
d="M237 610v-610h-141v610h-95v102h331v-102h-95z" />
    <glyph glyph-name="U" unicode="U" 
d="M351 712l0.000976562 -596c0 -44 -16.667 -77.333 -50 -100c-30 -20 -68.667 -30 -116 -30c-48.667 0 -87.334 9.66699 -116.001 29c-33.333 22 -50 55.667 -50 101v596h141v-573c0 -13.333 1.66699 -24.5 5 -33.5s10 -13.5 20 -13.5s16.667 4.5 20 13.5s5 20.167 5 33.5
v573h141z" />
    <glyph glyph-name="V" unicode="V" 
d="M148 712l39 -582l54 582h127l-95 -712h-187l-84 712h146z" />
    <glyph glyph-name="W" unicode="W" horiz-adv-x="593" 
d="M222 712h153l40 -467l38 467h141l-99 -712h-162l-48 497l-56 -497h-158l-72 712h141l29 -467z" />
    <glyph glyph-name="X" unicode="X" 
d="M1 712h147l45 -257l47 257h128l-78 -324l84 -388h-150l-46 304l-51 -304h-132l85 368z" />
    <glyph glyph-name="Y" unicode="Y" 
d="M119 0v357l-117 355h148l45 -283l46 283h127l-108 -355v-357h-141z" />
    <glyph glyph-name="Z" unicode="Z" horiz-adv-x="296" 
d="M291 102v-102h-281v102l128 508h-134v102h281v-102l-135 -508h141z" />
    <glyph glyph-name="bracketleft" unicode="[" horiz-adv-x="296" 
d="M258 -95h-220v821h215v-100h-95v-621h100v-100z" />
    <glyph glyph-name="backslash" unicode="\" horiz-adv-x="278" 
d="M-54 726h80l306 -740h-79z" />
    <glyph glyph-name="bracketright" unicode="]" horiz-adv-x="296" 
d="M38 -95v100h100v621h-95v100h215v-821h-220z" />
    <glyph glyph-name="asciicircum" unicode="^" horiz-adv-x="556" 
d="M167 347h-116l174 365h106l174 -365h-117l-110 248z" />
    <glyph glyph-name="underscore" unicode="_" horiz-adv-x="500" 
d="M500 -98h-500v68h500v-68z" />
    <glyph glyph-name="grave" unicode="`" horiz-adv-x="167" 
d="M92 620l-137 135h97l95 -135h-55z" />
    <glyph glyph-name="a" unicode="a" horiz-adv-x="333" 
d="M144 221v-104c0 -8.66699 1.66699 -15.834 5 -21.501s9 -8.5 17 -8.5s13.833 2.83301 17.5 8.5s5.5 12.834 5.5 21.501v165l-23 -16c-10 -8.66699 -16.167 -15.167 -18.5 -19.5s-3.5 -12.833 -3.5 -25.5zM17 373l-0.000976562 77c0 41.333 14 73.166 42 95.499
s63.667 33.5 107 33.5c42.667 0 78.334 -11.167 107.001 -33.5s43 -54.166 43 -95.499v-334c0 -16 0.666992 -30.667 2 -44c4.66699 -45.333 7 -69.333 7 -72h-129l-7 58c-18 -43.333 -47 -65 -87 -65c-30.667 0 -52.5 8.66699 -65.5 26s-19.5 43 -19.5 77v123
c0 49.333 28.667 87.333 86 114s86 59.667 86 99v23c0 8 -1.83301 15 -5.5 21s-9.5 9 -17.5 9s-13.667 -3 -17 -9s-5 -13 -5 -21v-82h-127z" />
    <glyph glyph-name="b" unicode="b" horiz-adv-x="333" 
d="M144 445v-318c0 -8.66699 1.66699 -15.834 5 -21.501s9 -8.5 17 -8.5s13.833 2.83301 17.5 8.5s5.5 12.834 5.5 21.501v318c0 8 -1.83301 15 -5.5 21s-9.5 9 -17.5 9s-13.667 -3 -17 -9s-5 -13 -5 -21zM17 0l-0.000976562 711.999h127v-190
c6.66699 16.667 17.5 30.334 32.5 41.001s31.833 16 50.5 16c36 0 60.667 -12.667 74 -38c10 -18.667 15 -47.667 15 -87v-333c0 -50.667 -7.83301 -84.667 -23.5 -102s-37.5 -26 -65.5 -26c-19.333 0 -36.166 6 -50.499 18s-24.5 28.333 -30.5 49l-2 -60h-127z" />
    <glyph glyph-name="c" unicode="c" horiz-adv-x="333" 
d="M316 227l-0.000976562 -105c0 -41.333 -15 -73.666 -45 -96.999c-27.333 -21.333 -62.333 -32 -105 -32c-43.333 0 -78.333 10.667 -105 32c-29.333 23.333 -44 55.666 -44 96.999v328c0 41.333 14 73.166 42 95.499s63.667 33.5 107 33.5
c42.667 0 78.334 -11.167 107.001 -33.5s43 -54.166 43 -95.499v-77h-127v82c0 8 -1.83301 15 -5.5 21s-9.5 9 -17.5 9s-13.667 -3 -17 -9s-5 -13 -5 -21v-338c0 -8.66699 1.66699 -15.834 5 -21.501s9 -8.5 17 -8.5s13.833 2.83301 17.5 8.5s5.5 12.834 5.5 21.501v110h127
z" />
    <glyph glyph-name="d" unicode="d" horiz-adv-x="333" 
d="M189 127v318c0 8 -1.83301 15 -5.5 21s-9.5 9 -17.5 9s-13.667 -3 -17 -9s-5 -13 -5 -21v-318c0 -8.66699 1.66699 -15.834 5 -21.501s9 -8.5 17 -8.5s13.833 2.83301 17.5 8.5s5.5 12.834 5.5 21.501zM189 0l0.000976562 60c-6.66699 -19.333 -17.5 -35.333 -32.5 -48
s-31.833 -19 -50.5 -19c-35.333 0 -60 13.333 -74 40c-10 19.333 -15 48.666 -15 87.999v333c0 50 8.33301 84 25 102c14 15.333 35.333 23 64 23c19.333 0 36.166 -5.16699 50.499 -15.5s24.5 -24.166 30.5 -41.499l2 190h127v-712h-127z" />
    <glyph glyph-name="e" unicode="e" horiz-adv-x="333" 
d="M17 122l-0.000976562 328c0 41.333 14 73.166 42 95.499s63.667 33.5 107 33.5c42.667 0 78.334 -11.167 107.001 -33.5s43 -54.166 43 -95.499v-184h-172v-149c0 -8.66699 1.66699 -15.834 5 -21.501s9 -8.5 17 -8.5s13.833 2.83301 17.5 8.5s5.5 12.834 5.5 21.501v110
h127v-105c0 -41.333 -15 -73.666 -45 -96.999c-27.333 -21.333 -62.333 -32 -105 -32c-43.333 0 -78.333 10.667 -105 32c-29.333 23.333 -44 55.666 -44 96.999zM143.999 352h45v103c0 8 -1.83301 15 -5.5 21s-9.5 9 -17.5 9s-13.667 -3 -17 -9s-5 -13 -5 -21v-103z" />
    <glyph glyph-name="f" unicode="f" horiz-adv-x="204" 
d="M36 0l0.000976562 478h-30v94h30v37c0 39.333 8.33301 66.333 25 81s46 22 88 22h53v-94h-9c-12.667 0 -20.834 -2.5 -24.501 -7.5s-5.5 -14.167 -5.5 -27.5v-11h39v-94h-39v-478h-127z" />
    <glyph glyph-name="g" unicode="g" horiz-adv-x="333" 
d="M189 193v252c0 8 -1.83301 15 -5.5 21s-9.5 9 -17.5 9s-13.667 -3 -17 -9s-5 -13 -5 -21v-252c0 -8.66699 1.66699 -15.834 5 -21.501s9 -8.5 17 -8.5s13.833 2.83301 17.5 8.5s5.5 12.834 5.5 21.501zM316 572l-0.000976562 -570.999
c0 -45.333 -13.667 -78.666 -41 -99.999c-24.667 -19.333 -60.667 -29 -108 -29s-83.333 9.66699 -108 29c-28 21.333 -42 54.666 -42 99.999v43h127v-54c0 -8.66699 1.66699 -15.834 5 -21.501s9 -8.5 17 -8.5s13.833 2.83301 17.5 8.5s5.5 12.834 5.5 21.501v128h-5
c-7.33301 -15.333 -19.166 -28.333 -35.499 -39s-33.5 -16 -51.5 -16c-27.333 0 -47.5 8.66699 -60.5 26s-19.5 41 -19.5 71v317c0 30 6.33301 54.5 19 73.5s33 28.5 61 28.5c18 0 35 -5.83301 51 -17.5s28 -25.834 36 -42.501h5v53h127z" />
    <glyph glyph-name="h" unicode="h" horiz-adv-x="333" 
d="M144 0l-127.001 -0.000976562v712h127v-190h5c2.66699 16.667 12.334 30.334 29.001 41.001s34.667 16 54 16c36.667 0 60.667 -12.333 72 -37c8 -16.667 12 -46 12 -88v-454h-127v445c0 8 -1.83301 15 -5.5 21s-9.5 9 -17.5 9s-13.667 -3 -17 -9s-5 -13 -5 -21v-445z
" />
    <glyph glyph-name="i" unicode="i" horiz-adv-x="167" 
d="M147 0h-127v572h127v-572zM147 604h-127v108h127v-108z" />
    <glyph glyph-name="j" unicode="j" horiz-adv-x="167" 
d="M152 572v-607.001c0 -39.333 -12.667 -65.666 -38 -78.999c-18 -9.33301 -49.333 -14 -94 -14h-48v91h22c13.333 0 21.833 2.66699 25.5 8s5.5 15.333 5.5 30v571h127zM152 603.999h-127v108h127v-108z" />
    <glyph glyph-name="k" unicode="k" horiz-adv-x="333" 
d="M146 0h-127v712h127v-397l53 257h132l-62 -246l60 -326h-130l-51 301z" />
    <glyph glyph-name="l" unicode="l" horiz-adv-x="167" 
d="M147 0h-127v712h127v-712z" />
    <glyph glyph-name="m" unicode="m" horiz-adv-x="500" 
d="M141 572l-0.000976562 -51c12.667 22 23.334 36.333 32.001 43c12.667 10 31 15 55 15c23.333 0 41 -4.16699 53 -12.5s21.667 -23.833 29 -46.5c10 17.333 17.667 29 23 35c14 16 35.333 24 64 24c35.333 0 60 -12.333 74 -37c9.33301 -16.667 14 -39.667 14 -69v-473
h-127v445c0 8 -1.83301 15 -5.5 21s-9.5 9 -17.5 9s-13.667 -3 -17 -9s-5 -13 -5 -21v-445h-127v445c0 8 -1.83301 15 -5.5 21s-9.5 9 -17.5 9s-13.667 -3 -17 -9s-5 -13 -5 -21v-445h-127v572h127z" />
    <glyph glyph-name="n" unicode="n" horiz-adv-x="333" 
d="M144 572l-0.00195312 -50.001c4.66699 16.667 15.834 30.334 33.501 41.001s35.834 16 54.501 16c36.667 0 60.667 -12.333 72 -37c8 -16.667 12 -46 12 -88v-454h-127v445c0 8 -1.83301 15 -5.5 21s-9.5 9 -17.5 9s-13.667 -3 -17 -9s-5 -13 -5 -21v-445h-127v572h127z
" />
    <glyph glyph-name="o" unicode="o" horiz-adv-x="333" 
d="M316 450l-0.000976562 -328c0 -41.333 -15 -73.666 -45 -96.999c-27.333 -21.333 -62.333 -32 -105 -32c-43.333 0 -78.333 10.667 -105 32c-29.333 23.333 -44 55.666 -44 96.999v328c0 41.333 14 73.166 42 95.499s63.667 33.5 107 33.5
c42.667 0 78.334 -11.167 107.001 -33.5s43 -54.166 43 -95.499zM188.999 117v338c0 8 -1.83301 15 -5.5 21s-9.5 9 -17.5 9s-13.667 -3 -17 -9s-5 -13 -5 -21v-338c0 -8.66699 1.66699 -15.834 5 -21.501s9 -8.5 17 -8.5s13.833 2.83301 17.5 8.5s5.5 12.834 5.5 21.501z
" />
    <glyph glyph-name="p" unicode="p" horiz-adv-x="333" 
d="M191 127v318c0 8 -1.83301 15 -5.5 21s-9.5 9 -17.5 9s-13.667 -3 -17 -9s-5 -13 -5 -21v-318c0 -8.66699 1.66699 -15.834 5 -21.501s9 -8.5 17 -8.5s13.833 2.83301 17.5 8.5s5.5 12.834 5.5 21.501zM146 572v-60.001c4.66699 20 14.334 36.167 29.001 48.5
s31.667 18.5 51 18.5c35.333 0 60.333 -13.333 75 -40c11.333 -20.667 17 -50 17 -88v-333c0 -38 -5.33301 -66.667 -16 -86c-14.667 -26 -40 -39 -76 -39c-18.667 0 -35.334 5.33301 -50.001 16s-24 24.334 -28 41.001l-2 -178h-127v700h127z" />
    <glyph glyph-name="q" unicode="q" horiz-adv-x="333" 
d="M144 445v-318c0 -8.66699 1.66699 -15.834 5 -21.501s9 -8.5 17 -8.5s13.833 2.83301 17.5 8.5s5.5 12.834 5.5 21.501v318c0 8 -1.83301 15 -5.5 21s-9.5 9 -17.5 9s-13.667 -3 -17 -9s-5 -13 -5 -21zM316 572l0.000976562 -700h-127v178
c-6.66699 -16.667 -17.5 -30.334 -32.5 -41.001s-31.833 -16 -50.5 -16c-36 0 -60.667 12.667 -74 38c-10 18.667 -15 47.667 -15 87v333c0 50.667 8.33301 85.334 25 104.001c14.667 16 36 24 64 24c19.333 0 36.166 -6 50.499 -18s24.5 -28.333 30.5 -49l2 60h127z" />
    <glyph glyph-name="r" unicode="r" horiz-adv-x="333" 
d="M144 572l0.000976562 -49c11.333 18.667 24.166 32.667 38.499 42s32.5 14 54.5 14c30 0 50.667 -8.16699 62 -24.5s17 -41.5 17 -75.5v-215h-127v181c0 8 -1.83301 15 -5.5 21s-9.5 9 -17.5 9s-13.667 -3 -17 -9s-5 -13 -5 -21v-445h-127v572h127z" />
    <glyph glyph-name="s" unicode="s" horiz-adv-x="333" 
d="M192 373v81.999c0 8.66699 -2 15.834 -6 21.501s-10.667 8.5 -20 8.5s-15.833 -2.66699 -19.5 -8s-5.5 -12.666 -5.5 -21.999v-33c0 -26 15.333 -49.667 46 -71c53.333 -36.667 82 -57 86 -61c30.667 -30.667 46 -71.334 46 -122.001v-46
c0 -41.333 -15 -73.666 -45 -96.999c-27.333 -21.333 -63.333 -32 -108 -32c-42 0 -77 10.667 -105 32c-31.333 24 -47 56.333 -47 97v95h127v-100c0 -8 1.83301 -15 5.5 -21s10.167 -9 19.5 -9s16 3 20 9s6 13 6 21v48c0 30 -29.667 63.667 -89 101s-89 82.666 -89 135.999
v48c0 41.333 14.667 73.166 44 95.499s65.333 33.5 108 33.5c44 0 80.5 -11.167 109.5 -33.5s43.5 -54.166 43.5 -95.499v-77h-127z" />
    <glyph glyph-name="t" unicode="t" horiz-adv-x="204" 
d="M164 676v-104h35v-94h-35v-345c0 -12 1.33301 -21.5 4 -28.5s8.66699 -10.5 18 -10.5h15v-94h-57c-44 0 -72.833 8 -86.5 24s-20.5 46.667 -20.5 92v362h-34v94h34v104h127z" />
    <glyph glyph-name="u" unicode="u" horiz-adv-x="333" 
d="M189 0v64c-0.666992 -18.667 -9.66699 -35.167 -27 -49.5s-36 -21.5 -56 -21.5c-31.333 0 -54 9 -68 27s-21 43 -21 75v477h127v-445c0 -8.66699 1.66699 -15.834 5 -21.501s9 -8.5 17 -8.5s13.833 2.83301 17.5 8.5s5.5 12.834 5.5 21.501v445h127v-572h-127z" />
    <glyph glyph-name="v" unicode="v" horiz-adv-x="333" 
d="M5 572h131l33 -437l42 437h116l-83 -572h-155z" />
    <glyph glyph-name="w" unicode="w" horiz-adv-x="537" 
d="M3 572h130l33 -442l43 442h132l35 -444l39 444h120l-85 -572h-144l-32 416l-46 -416h-144z" />
    <glyph glyph-name="x" unicode="x" horiz-adv-x="333" 
d="M1 0l71 301l-65 271h133l34 -218l36 218h117l-63 -275l68 -297h-134l-36 231l-43 -231h-118z" />
    <glyph glyph-name="y" unicode="y" horiz-adv-x="333" 
d="M210 572h118l-90 -578c-8 -51.333 -21 -84.5 -39 -99.5s-57.667 -22.5 -119 -22.5h-64v94h40c24 0 36 8.66699 36 26l-1 17l-87 563h127l35 -437z" />
    <glyph glyph-name="z" unicode="z" horiz-adv-x="259" 
d="M113 478h-101v94h238v-94l-111 -384h111v-94h-241v94z" />
    <glyph glyph-name="braceleft" unicode="{" horiz-adv-x="333" 
d="M295 726l-0.00292969 -77h-18c-23.333 0 -39.666 -6.33301 -48.999 -19c-6 -8.66699 -9 -21 -9 -37v-181c0 -29.333 -13.667 -51.333 -41 -66c-19.333 -10.667 -41.666 -16 -66.999 -16c34.667 -6 57 -11.667 67 -17c27.333 -14.667 41 -39.667 41 -75v-200
c0 -17.333 2.66699 -29.666 8 -36.999c8.66699 -12.667 25.334 -19 50.001 -19h18v-77h-63c-28 0 -55.333 9 -82 27c-34 23.333 -51 53.666 -51 90.999v211c0 19.333 -6.66699 32.666 -20 39.999c-4 2 -17.667 6 -41 12v85c25.333 6.66699 39 10.334 41 11.001
c13.333 7.33301 20 21 20 41v185c0 37.333 16.667 67.333 50 90c27.333 18.667 55 28 83 28h63z" />
    <glyph glyph-name="bar" unicode="|" horiz-adv-x="222" 
d="M53 0v712h116v-712h-116z" />
    <glyph glyph-name="braceright" unicode="}" horiz-adv-x="333" 
d="M295 364l0.000976562 -84.999c-25.333 -6.66699 -39 -10.334 -41 -11.001c-13.333 -7.33301 -20 -21 -20 -41v-211c0 -37.333 -16.667 -67.333 -50 -90c-27.333 -18.667 -55 -28 -83 -28h-63v77h18c23.333 0 39.666 6.33301 48.999 19c6 8.66699 9 21 9 37v200
c0 35.333 13.667 60 41 74c14 7.33301 36.333 12.333 67 15c-27.333 2 -49.666 8 -66.999 18c-27.333 15.333 -41 37.666 -41 66.999v181c0 17.333 -2.66699 29.666 -8 36.999c-8.66699 12.667 -25.334 19 -50.001 19h-18v77h63c28 0 55.333 -9 82 -27
c34 -23.333 51 -53.666 51 -90.999v-185c0 -19.333 6.66699 -32.666 20 -39.999c4 -2 17.667 -6 41 -12z" />
    <glyph glyph-name="asciitilde" unicode="~" horiz-adv-x="556" 
d="M473 386l36.001 -96c-20.667 -28.667 -37.334 -48.334 -50.001 -59.001c-22 -18 -47 -27 -75 -27c-18 0 -36 3.33301 -54 10c-8.66699 3.33301 -24.334 10.833 -47.001 22.5s-40.667 19.834 -54 24.501c-20.667 7.33301 -41.334 11 -62.001 11
c-19.333 0 -36.666 -7.66699 -51.999 -23c-12 -12 -22.667 -28.333 -32 -49l-36 96c13.333 26 28.333 45.667 45 59c22 18 48.667 27 80 27c13.333 0 28.5 -2.33301 45.5 -7s40.167 -13.667 69.5 -27c22.667 -10 42 -18.167 58 -24.5s29.333 -9.5 40 -9.5
c17.333 0 34 7.66699 50 23c10.667 10 23.334 26.333 38.001 49z" />
    <glyph glyph-name="c128" horiz-adv-x="447" 
d="M428 98c0 -37.333 -9.33301 -65.334 -28 -84.001s-42 -28 -70 -28h-68v106c10.667 0 17.5 3.16699 20.5 9.5s4.5 18.833 4.5 37.5v189c0 16.667 -6.66699 25 -20 25c-4 0 -8 -1.33301 -12 -4c-8 -5.33301 -14 -12.333 -18 -21v-328h-141v610h-95v102h331v-102h-95v-168
c23.333 28.667 54.333 43 93 43c28 0 50.667 -8.33301 68 -25c20 -19.333 30 -47.666 30 -84.999v-277z" />
    <glyph glyph-name="c128" unicode="&#x402;" horiz-adv-x="447" 
d="M428 98c0 -37.333 -9.33301 -65.334 -28 -84.001s-42 -28 -70 -28h-68v106c10.667 0 17.5 3.16699 20.5 9.5s4.5 18.833 4.5 37.5v189c0 16.667 -6.66699 25 -20 25c-4 0 -8 -1.33301 -12 -4c-8 -5.33301 -14 -12.333 -18 -21v-328h-141v610h-95v102h331v-102h-95v-168
c23.333 28.667 54.333 43 93 43c28 0 50.667 -8.33301 68 -25c20 -19.333 30 -47.666 30 -84.999v-277z" />
    <glyph glyph-name="c129" horiz-adv-x="296" 
d="M160 0h-141v712h266v-102h-125v-610zM129 754h-55l95 135h97z" />
    <glyph glyph-name="c129" unicode="&#x403;" horiz-adv-x="296" 
d="M160 0h-141v712h266v-102h-125v-610zM129 754h-55l95 135h97z" />
    <glyph glyph-name="c141" 
d="M154 0h-141v712h141v-315l73 315h139l-86 -295l87 -417h-140l-71 373zM154 754h-55l95 135h97z" />
    <glyph glyph-name="c141" unicode="&#x40c;" 
d="M154 0h-141v712h141v-315l73 315h139l-86 -295l87 -417h-140l-71 373zM154 754h-55l95 135h97z" />
    <glyph glyph-name="c142" horiz-adv-x="447" 
d="M237 328v-328.001h-141v610h-95v102h331v-102h-95v-168c23.333 28.667 54.333 43 93 43c28 0 50.667 -8.33301 68 -25c20 -19.333 30 -47.666 30 -84.999v-375h-141v328c0 16.667 -6.66699 25 -20 25c-4 0 -8 -1.33301 -12 -4c-8 -5.33301 -14 -12.333 -18 -21z" />
    <glyph glyph-name="c142" unicode="&#x40b;" horiz-adv-x="447" 
d="M237 328v-328.001h-141v610h-95v102h331v-102h-95v-168c23.333 28.667 54.333 43 93 43c28 0 50.667 -8.33301 68 -25c20 -19.333 30 -47.666 30 -84.999v-375h-141v328c0 16.667 -6.66699 25 -20 25c-4 0 -8 -1.33301 -12 -4c-8 -5.33301 -14 -12.333 -18 -21z" />
    <glyph glyph-name="c143" 
d="M122 0h-103v712h141v-598h50v598h141v-712h-102v-108h-127v108z" />
    <glyph glyph-name="c143" unicode="&#x40f;" 
d="M122 0h-103v712h141v-598h50v598h141v-712h-102v-108h-127v108z" />
    <glyph glyph-name="c144" horiz-adv-x="352" 
d="M209 -10l-0.000976562 321.998c0 8 -1.83301 15 -5.5 21s-9.5 9 -17.5 9s-13.667 -3 -17 -9s-5 -13 -5 -21v-312h-127v478h-34v94h34v140h127v-140h70v-94h-70v-89h5c2.66699 16.667 12.334 30.334 29.001 41.001s34.667 16 54 16c36.667 0 60.667 -12.333 72 -37
c8 -16.667 12 -46 12 -88v-320c0 -45.333 -13.667 -78.666 -41 -99.999c-24.667 -19.333 -60.667 -29 -108 -29v88c8 0 13.667 3 17 9s5 13 5 21z" />
    <glyph glyph-name="c144" unicode="&#x452;" horiz-adv-x="352" 
d="M209 -10l-0.000976562 321.998c0 8 -1.83301 15 -5.5 21s-9.5 9 -17.5 9s-13.667 -3 -17 -9s-5 -13 -5 -21v-312h-127v478h-34v94h34v140h127v-140h70v-94h-70v-89h5c2.66699 16.667 12.334 30.334 29.001 41.001s34.667 16 54 16c36.667 0 60.667 -12.333 72 -37
c8 -16.667 12 -46 12 -88v-320c0 -45.333 -13.667 -78.666 -41 -99.999c-24.667 -19.333 -60.667 -29 -108 -29v88c8 0 13.667 3 17 9s5 13 5 21z" />
    <glyph glyph-name="c157" horiz-adv-x="333" 
d="M146 0h-127v572h127v-257l53 257h132l-62 -246l60 -326h-130l-51 301zM146 620h-55l95 135h97z" />
    <glyph glyph-name="c157" unicode="&#x45c;" horiz-adv-x="333" 
d="M146 0h-127v572h127v-257l53 257h132l-62 -246l60 -326h-130l-51 301zM146 620h-55l95 135h97z" />
    <glyph glyph-name="c158" horiz-adv-x="352" 
d="M37 572l-0.000976562 139.999h127v-140h70v-94h-70v-89h5c2.66699 16.667 12.334 30.334 29.001 41.001s34.667 16 54 16c36.667 0 60.667 -12.333 72 -37c8 -16.667 12 -46 12 -88v-321h-127v312c0 8 -1.83301 15 -5.5 21s-9.5 9 -17.5 9s-13.667 -3 -17 -9
s-5 -13 -5 -21v-312h-127v478h-34v94h34z" />
    <glyph glyph-name="c158" unicode="&#x45b;" horiz-adv-x="352" 
d="M37 572l-0.000976562 139.999h127v-140h70v-94h-70v-89h5c2.66699 16.667 12.334 30.334 29.001 41.001s34.667 16 54 16c36.667 0 60.667 -12.333 72 -37c8 -16.667 12 -46 12 -88v-321h-127v312c0 8 -1.83301 15 -5.5 21s-9.5 9 -17.5 9s-13.667 -3 -17 -9
s-5 -13 -5 -21v-312h-127v478h-34v94h34z" />
    <glyph glyph-name="nonbreakingspace" unicode="&#xa0;" horiz-adv-x="500" 
 />
    <glyph glyph-name="exclamdown" unicode="&#xa1;" 
d="M108 0l24 115l-136 597h148l47 -377l56 377h127l-145 -712h-121zM43 892l43 0.000976562c3.33301 -24.667 15.333 -42 36 -52c15.333 -7.33301 37.333 -11 66 -11c24.667 0 44.667 4.33301 60 13c18.667 10.667 30.667 26.667 36 48h42c0 -42 -12.833 -73.667 -38.5 -95
s-60.5 -32 -104.5 -32c-42 0 -75.833 11.167 -101.5 33.5s-38.5 54.166 -38.5 95.499z" />
    <glyph glyph-name="exclamdown" unicode="&#x40e;" 
d="M108 0l24 115l-136 597h148l47 -377l56 377h127l-145 -712h-121zM43 892l43 0.000976562c3.33301 -24.667 15.333 -42 36 -52c15.333 -7.33301 37.333 -11 66 -11c24.667 0 44.667 4.33301 60 13c18.667 10.667 30.667 26.667 36 48h42c0 -42 -12.833 -73.667 -38.5 -95
s-60.5 -32 -104.5 -32c-42 0 -75.833 11.167 -101.5 33.5s-38.5 54.166 -38.5 95.499z" />
    <glyph glyph-name="cent" unicode="&#xa2;" horiz-adv-x="333" 
d="M210 572h118l-90 -578c-8 -51.333 -21 -84.5 -39 -99.5s-57.667 -22.5 -119 -22.5h-64v94h40c24 0 36 8.66699 36 26l-1 17l-87 563h127l35 -437zM25 752l43 0.000976562c3.33301 -24.667 15.333 -42 36 -52c15.333 -7.33301 37.333 -11 66 -11
c24.667 0 44.667 4.33301 60 13c18.667 10.667 30.667 26.667 36 48h42c0 -42 -12.833 -73.667 -38.5 -95s-60.5 -32 -104.5 -32c-42 0 -75.833 11.167 -101.5 33.5s-38.5 54.166 -38.5 95.499z" />
    <glyph glyph-name="cent" unicode="&#x45e;" horiz-adv-x="333" 
d="M210 572h118l-90 -578c-8 -51.333 -21 -84.5 -39 -99.5s-57.667 -22.5 -119 -22.5h-64v94h40c24 0 36 8.66699 36 26l-1 17l-87 563h127l35 -437zM25 752l43 0.000976562c3.33301 -24.667 15.333 -42 36 -52c15.333 -7.33301 37.333 -11 66 -11
c24.667 0 44.667 4.33301 60 13c18.667 10.667 30.667 26.667 36 48h42c0 -42 -12.833 -73.667 -38.5 -95s-60.5 -32 -104.5 -32c-42 0 -75.833 11.167 -101.5 33.5s-38.5 54.166 -38.5 95.499z" />
    <glyph glyph-name="sterling" unicode="&#xa3;" 
d="M19 280l141 -0.000976562v-127c0 -20 1.66699 -35.167 5 -45.5s10 -15.5 20 -15.5c12 0 19.667 8.66699 23 26c1.33301 6.66699 2 18.334 2 35.001v559h141v-570c0 -104 -55.333 -156 -166 -156c-56 0 -97.667 12.5 -125 37.5s-41 64.5 -41 118.5v138z" />
    <glyph glyph-name="sterling" unicode="&#x408;" 
d="M19 280l141 -0.000976562v-127c0 -20 1.66699 -35.167 5 -45.5s10 -15.5 20 -15.5c12 0 19.667 8.66699 23 26c1.33301 6.66699 2 18.334 2 35.001v559h141v-570c0 -104 -55.333 -156 -166 -156c-56 0 -97.667 12.5 -125 37.5s-41 64.5 -41 118.5v138z" />
    <glyph glyph-name="currency" unicode="&#xa4;" 
d="M4 156l41 39.999c-21.333 24.667 -32 57 -32 97c0 21.333 2.5 40.333 7.5 57s13.167 30.334 24.5 41.001l-41 40l44 44l40 -40c24 20.667 57 31 99 31c18.667 0 36.334 -2.5 53.001 -7.5s30 -12.167 40 -21.5l40 40l46 -47l-38 -39
c9.33301 -10 16.666 -23.667 21.999 -41s8 -36 8 -56c0 -18.667 -2.66699 -37 -8 -55s-13 -32.667 -23 -44l39 -39l-42 -42l-40 40c-10.667 -10.667 -24.5 -19 -41.5 -25s-35.5 -9 -55.5 -9c-42.667 0 -76 11 -100 33l-40 -40zM187 388.999
c-26 0 -47.5 -9.16699 -64.5 -27.5s-25.5 -41.166 -25.5 -68.499c0 -26.667 8.33301 -49.334 25 -68.001s38.334 -28 65.001 -28c25.333 0 46.166 9.5 62.499 28.5s24.5 41.833 24.5 68.5c0 26 -8 48.333 -24 67s-37 28 -63 28z" />
    <glyph glyph-name="yen" unicode="&#xa5;" horiz-adv-x="296" 
d="M158 712v120h127v-222h-125v-610h-141v712h139z" />
    <glyph glyph-name="yen" unicode="&#x490;" horiz-adv-x="296" 
d="M158 712v120h127v-222h-125v-610h-141v712h139z" />
    <glyph glyph-name="brokenbar" unicode="&#xa6;" horiz-adv-x="222" 
d="M53 0v264h116v-264h-116zM53 448v264h116v-264h-116z" />
    <glyph glyph-name="section" unicode="&#xa7;" horiz-adv-x="426" 
d="M165 419c-15.333 -8 -23 -21.666 -23 -40.999c0 -16.667 16.667 -38.334 50 -65.001l72 -57c4.66699 2.66699 9 9.5 13 20.5s6 19.5 6 25.5c0 16.667 -16 37.667 -48 63zM380 581.001l-116.998 0.000976562c0 14 -4.33301 26 -13 36c-7.33301 10 -19 15 -35 15
c-24.667 0 -37 -13.667 -37 -41c0 -19.333 19 -42.666 57 -69.999c63.333 -46 99.333 -73.333 108 -82c38.667 -38 58 -79 58 -123c0 -53.333 -22.667 -94.666 -68 -123.999c15.333 -12.667 26.166 -28.334 32.499 -47.001s9.5 -39 9.5 -61
c0 -45.333 -15.833 -81 -47.5 -107s-70.834 -39 -117.501 -39c-52 0 -93 13.667 -123 41s-45 67.666 -45 120.999h118c0 -18.667 2.66699 -33.334 8 -44.001c8 -16 21.333 -24 40 -24c14.667 0 26.5 3.5 35.5 10.5s13.5 18.167 13.5 33.5c0 23.333 -20 49.333 -60 78
c-68 49.333 -105.333 77 -112 83c-40.667 38 -61 78.333 -61 121c0 26.667 5.83301 51.167 17.5 73.5s28.5 42.5 50.5 60.5c-11.333 10.667 -19.5 24.667 -24.5 42s-7.5 35.333 -7.5 54c0 42 16 75.5 48 100.5s70 37.5 114 37.5c46 0 83.833 -12.833 113.5 -38.5
s44.5 -61.167 44.5 -106.5z" />
    <glyph glyph-name="dieresis" unicode="&#xa8;" horiz-adv-x="296" 
d="M287 0h-264v712h264v-102h-123v-163h118v-102h-118v-243h123v-102zM113 766h-94v109h94v-109zM278 766h-94v109h94v-109z" />
    <glyph glyph-name="dieresis" unicode="&#x401;" horiz-adv-x="296" 
d="M287 0h-264v712h264v-102h-123v-163h118v-102h-118v-243h123v-102zM113 766h-94v109h94v-109zM278 766h-94v109h94v-109z" />
    <glyph glyph-name="copyright" unicode="&#xa9;" horiz-adv-x="800" 
d="M400 -14c-105.333 0 -194.333 32.333 -267 97c-78 69.333 -117 160.333 -117 273s39 203.667 117 273c72.667 64.667 161.667 97 267 97c104 0 192.667 -32.333 266 -97c78.667 -69.333 118 -160.333 118 -273s-39 -203.667 -117 -273
c-72.667 -64.667 -161.667 -97 -267 -97zM662 356c0 81.333 -25.333 148 -76 200s-112.667 78 -186 78c-74 0 -136.167 -25.833 -186.5 -77.5s-75.5 -118.5 -75.5 -200.5c0 -81.333 25 -148 75 -200s112.333 -78 187 -78c72.667 0 134.5 26.167 185.5 78.5
s76.5 118.833 76.5 199.5zM498 302h94.001c-6.66699 -49.333 -26.5 -87.5 -59.5 -114.5s-72.167 -40.5 -117.5 -40.5c-60.667 0 -109.834 20.167 -147.501 60.5s-56.5 90.833 -56.5 151.5c0 62.667 18.333 114 55 154s85.667 60 147 60c46 0 84.833 -13.167 116.5 -39.5
s51.167 -63.833 58.5 -112.5h-90c-4 21.333 -13.5 36.666 -28.5 45.999s-33.833 14 -56.5 14c-29.333 0 -52 -10.667 -68 -32s-24 -50.666 -24 -87.999c0 -35.333 8.66699 -64.5 26 -87.5s40 -34.5 68 -34.5c24.667 0 44.667 5 60 15s23 26 23 48z" />
    <glyph glyph-name="ordfeminine" unicode="&#xaa;" 
d="M351 116c0 -44 -16.667 -77.333 -50 -100c-30 -20 -68.667 -30 -116 -30c-48.667 0 -87.334 9.66699 -116.001 29c-33.333 22 -50 55.667 -50 101v480c0 44 16.667 77.333 50 100c30 20 68.667 30 116 30c48.667 0 87.334 -9.66699 116.001 -29
c33.333 -22 50 -55.667 50 -101v-135h-141v112c0 13.333 -1.66699 24.5 -5 33.5s-10 13.5 -20 13.5s-16.667 -4.5 -20 -13.5s-5 -20.167 -5 -33.5v-149h90v-106h-90v-179c0 -13.333 1.66699 -24.5 5 -33.5s10 -13.5 20 -13.5s16.667 4.5 20 13.5s5 20.167 5 33.5v141h141
v-164z" />
    <glyph glyph-name="ordfeminine" unicode="&#x404;" 
d="M351 116c0 -44 -16.667 -77.333 -50 -100c-30 -20 -68.667 -30 -116 -30c-48.667 0 -87.334 9.66699 -116.001 29c-33.333 22 -50 55.667 -50 101v480c0 44 16.667 77.333 50 100c30 20 68.667 30 116 30c48.667 0 87.334 -9.66699 116.001 -29
c33.333 -22 50 -55.667 50 -101v-135h-141v112c0 13.333 -1.66699 24.5 -5 33.5s-10 13.5 -20 13.5s-16.667 -4.5 -20 -13.5s-5 -20.167 -5 -33.5v-149h90v-106h-90v-179c0 -13.333 1.66699 -24.5 5 -33.5s10 -13.5 20 -13.5s16.667 4.5 20 13.5s5 20.167 5 33.5v141h141
v-164z" />
    <glyph glyph-name="guillemotleft" unicode="&#xab;" horiz-adv-x="333" 
d="M316 535v-135l-87 -90l87 -90v-135l-141 158v134zM153 535v-135l-87 -90l87 -90v-135l-141 158v134z" />
    <glyph glyph-name="logicalnot" unicode="&#xac;" horiz-adv-x="556" 
d="M407 149v195h-374v116h490v-311h-116z" />
    <glyph glyph-name="minus" unicode="&#xad;" horiz-adv-x="167" 
d="M220 653h-268v65h268v-65z" />
    <glyph glyph-name="registered" unicode="&#xae;" horiz-adv-x="800" 
d="M400 -14c-105.333 0 -194.333 32.333 -267 97c-78 69.333 -117 160.333 -117 273s39 203.667 117 273c72.667 64.667 161.667 97 267 97c104 0 192.667 -32.333 266 -97c78.667 -69.333 118 -160.333 118 -273s-39 -203.667 -117 -273
c-72.667 -64.667 -161.667 -97 -267 -97zM662 356c0 81.333 -25.333 148 -76 200s-112.667 78 -186 78c-74 0 -136.167 -25.833 -186.5 -77.5s-75.5 -118.5 -75.5 -200.5c0 -81.333 25 -148 75 -200s112.333 -78 187 -78c72.667 0 134.5 26.167 185.5 78.5
s76.5 118.833 76.5 199.5zM341 323v-167h-92v402h150c56.667 0 98 -8.33301 124 -25c30 -19.333 45 -52 45 -98c0 -36 -9.83301 -62.5 -29.5 -79.5s-47.5 -25.5 -83.5 -25.5l102 -174h-92l-91 167h-33zM341 395h75.999c19.333 0 33.333 3.33301 42 10s13 20 13 40
c0 17.333 -7.16699 28.5 -21.5 33.5s-32.166 7.5 -53.499 7.5h-56v-91z" />
    <glyph glyph-name="macron" unicode="&#xaf;" horiz-adv-x="204" 
d="M172 0h-141v712h141v-712zM67 766h-94v109h94v-109zM232 766h-94v109h94v-109z" />
    <glyph glyph-name="macron" unicode="&#x407;" horiz-adv-x="204" 
d="M172 0h-141v712h141v-712zM67 766h-94v109h94v-109zM232 766h-94v109h94v-109z" />
    <glyph glyph-name="degree" unicode="&#xb0;" horiz-adv-x="400" 
d="M200 652c-25.333 0 -44.833 -7.5 -58.5 -22.5s-20.5 -35.167 -20.5 -60.5c0 -26 6.83301 -46.333 20.5 -61s33.167 -22 58.5 -22s44.833 7.5 58.5 22.5s20.5 35.167 20.5 60.5c0 26 -6.83301 46.333 -20.5 61s-33.167 22 -58.5 22zM200 426
c-40 0 -73.833 13.833 -101.5 41.5s-41.5 61.5 -41.5 101.5s13.833 73.833 41.5 101.5s61.5 41.5 101.5 41.5s73.833 -13.833 101.5 -41.5s41.5 -61.5 41.5 -101.5s-13.833 -73.833 -41.5 -101.5s-61.5 -41.5 -101.5 -41.5z" />
    <glyph glyph-name="plusminus" unicode="&#xb1;" horiz-adv-x="556" 
d="M220 419v113h116v-113h187v-116h-187v-117h-116v117h-187v116h187zM33 40v116h490v-116h-490z" />
    <glyph glyph-name="twosuperior" unicode="&#xb2;" horiz-adv-x="204" 
d="M172 0h-141v712h141v-712z" />
    <glyph glyph-name="twosuperior" unicode="&#x406;" horiz-adv-x="204" 
d="M172 0h-141v712h141v-712z" />
    <glyph glyph-name="threesuperior" unicode="&#xb3;" horiz-adv-x="167" 
d="M147 0h-127v572h127v-572zM147 604h-127v108h127v-108z" />
    <glyph glyph-name="threesuperior" unicode="&#x456;" horiz-adv-x="167" 
d="M147 0h-127v572h127v-572zM147 604h-127v108h127v-108z" />
    <glyph glyph-name="acute" unicode="&#xb4;" horiz-adv-x="259" 
d="M143 572v127h114v-218h-113v-481h-127v572h126z" />
    <glyph glyph-name="acute" unicode="&#x491;" horiz-adv-x="259" 
d="M143 572v127h114v-218h-113v-481h-127v572h126z" />
    <glyph glyph-name="mu" unicode="&#xb5;" horiz-adv-x="333" 
d="M17 -128v699.999h127v-445c0 -8.66699 1.66699 -15.834 5 -21.501s9 -8.5 17 -8.5s13.833 2.83301 17.5 8.5s5.5 12.834 5.5 21.501v445h127v-572h-125v64c-2 -6 -4.33301 -11.667 -7 -17s-6 -10.666 -10 -15.999c-6.66699 -10.667 -16.667 -19.667 -30 -27v-132h-127z
" />
    <glyph glyph-name="paragraph" unicode="&#xb6;" horiz-adv-x="620" 
d="M258 -179l-0.000976562 541.999c-54 0 -98 15.333 -132 46s-51 72.334 -51 125.001c0 65.333 22 113 66 143c34.667 23.333 81.334 35 140.001 35h323v-92h-59v-799h-120v799h-47v-799h-120z" />
    <glyph glyph-name="periodcentered" unicode="&#xb7;" horiz-adv-x="185" 
d="M96 367c22 0 40.833 -8.16797 56.5 -24.501s23.5 -35.166 23.5 -56.499c0 -24 -8 -44.333 -24 -61s-36 -25 -60 -25s-44 8 -60 24s-24 36.333 -24 61c0 23.333 8.83301 42.833 26.5 58.5s38.167 23.5 61.5 23.5z" />
    <glyph glyph-name="periodcentered" unicode="&#x2219;" horiz-adv-x="185" 
d="M96 367c22 0 40.833 -8.16797 56.5 -24.501s23.5 -35.166 23.5 -56.499c0 -24 -8 -44.333 -24 -61s-36 -25 -60 -25s-44 8 -60 24s-24 36.333 -24 61c0 23.333 8.83301 42.833 26.5 58.5s38.167 23.5 61.5 23.5z" />
    <glyph glyph-name="cedilla" unicode="&#xb8;" horiz-adv-x="333" 
d="M17 122l-0.000976562 328c0 41.333 14 73.166 42 95.499s63.667 33.5 107 33.5c42.667 0 78.334 -11.167 107.001 -33.5s43 -54.166 43 -95.499v-184h-172v-149c0 -8.66699 1.66699 -15.834 5 -21.501s9 -8.5 17 -8.5s13.833 2.83301 17.5 8.5s5.5 12.834 5.5 21.501v110
h127v-105c0 -41.333 -15 -73.666 -45 -96.999c-27.333 -21.333 -62.333 -32 -105 -32c-43.333 0 -78.333 10.667 -105 32c-29.333 23.333 -44 55.666 -44 96.999zM130.999 632h-94v109h94v-109zM295.999 632h-94v109h94v-109zM143.999 352h45v103c0 8 -1.83301 15 -5.5 21
s-9.5 9 -17.5 9s-13.667 -3 -17 -9s-5 -13 -5 -21v-103z" />
    <glyph glyph-name="cedilla" unicode="&#x451;" horiz-adv-x="333" 
d="M17 122l-0.000976562 328c0 41.333 14 73.166 42 95.499s63.667 33.5 107 33.5c42.667 0 78.334 -11.167 107.001 -33.5s43 -54.166 43 -95.499v-184h-172v-149c0 -8.66699 1.66699 -15.834 5 -21.501s9 -8.5 17 -8.5s13.833 2.83301 17.5 8.5s5.5 12.834 5.5 21.501v110
h127v-105c0 -41.333 -15 -73.666 -45 -96.999c-27.333 -21.333 -62.333 -32 -105 -32c-43.333 0 -78.333 10.667 -105 32c-29.333 23.333 -44 55.666 -44 96.999zM130.999 632h-94v109h94v-109zM295.999 632h-94v109h94v-109zM143.999 352h45v103c0 8 -1.83301 15 -5.5 21
s-9.5 9 -17.5 9s-13.667 -3 -17 -9s-5 -13 -5 -21v-103z" />
    <glyph glyph-name="onesuperior" unicode="&#xb9;" horiz-adv-x="615" 
d="M605 649v-197c0 -24 -8.5 -42.833 -25.5 -56.5s-36.833 -20.5 -59.5 -20.5c-22 0 -41 6.33301 -57 19c-18 14.667 -27 34 -27 58v197c0 24 8.5 42.833 25.5 56.5s36.5 20.5 58.5 20.5c21.333 0 40.833 -6.83301 58.5 -20.5s26.5 -32.5 26.5 -56.5zM535 449v203
c0 12 -5 18 -15 18c-9.33301 0 -14 -6 -14 -18v-203c0 -12 4.66699 -18 14 -18c10 0 15 6 15 18zM133 0h-110v712h196l72 -462l2 462h110v-712h-168l-100 560l-2 -2v-558zM605 266h-169v78h169v-78z" />
    <glyph glyph-name="onesuperior" unicode="&#x2116;" horiz-adv-x="615" 
d="M605 649v-197c0 -24 -8.5 -42.833 -25.5 -56.5s-36.833 -20.5 -59.5 -20.5c-22 0 -41 6.33301 -57 19c-18 14.667 -27 34 -27 58v197c0 24 8.5 42.833 25.5 56.5s36.5 20.5 58.5 20.5c21.333 0 40.833 -6.83301 58.5 -20.5s26.5 -32.5 26.5 -56.5zM535 449v203
c0 12 -5 18 -15 18c-9.33301 0 -14 -6 -14 -18v-203c0 -12 4.66699 -18 14 -18c10 0 15 6 15 18zM133 0h-110v712h196l72 -462l2 462h110v-712h-168l-100 560l-2 -2v-558zM605 266h-169v78h169v-78z" />
    <glyph glyph-name="ordmasculine" unicode="&#xba;" horiz-adv-x="333" 
d="M316 122c0 -41.333 -15.001 -73.666 -45.001 -96.999c-27.333 -21.333 -62.333 -32 -105 -32c-43.333 0 -78.333 10.667 -105 32c-29.333 23.333 -44 55.666 -44 96.999v328c0 41.333 14 73.166 42 95.499s63.667 33.5 107 33.5c42.667 0 78.334 -11.167 107.001 -33.5
s43 -54.166 43 -95.499v-77h-127v82c0 8 -1.83301 15 -5.5 21s-9.5 9 -17.5 9s-13.667 -3 -17 -9s-5 -13 -5 -21v-109h81v-95h-81v-134c0 -8.66699 1.66699 -15.834 5 -21.501s9 -8.5 17 -8.5s13.833 2.83301 17.5 8.5s5.5 12.834 5.5 21.501v110h127v-105z" />
    <glyph glyph-name="ordmasculine" unicode="&#x454;" horiz-adv-x="333" 
d="M316 122c0 -41.333 -15.001 -73.666 -45.001 -96.999c-27.333 -21.333 -62.333 -32 -105 -32c-43.333 0 -78.333 10.667 -105 32c-29.333 23.333 -44 55.666 -44 96.999v328c0 41.333 14 73.166 42 95.499s63.667 33.5 107 33.5c42.667 0 78.334 -11.167 107.001 -33.5
s43 -54.166 43 -95.499v-77h-127v82c0 8 -1.83301 15 -5.5 21s-9.5 9 -17.5 9s-13.667 -3 -17 -9s-5 -13 -5 -21v-109h81v-95h-81v-134c0 -8.66699 1.66699 -15.834 5 -21.501s9 -8.5 17 -8.5s13.833 2.83301 17.5 8.5s5.5 12.834 5.5 21.501v110h127v-105z" />
    <glyph glyph-name="guillemotright" unicode="&#xbb;" horiz-adv-x="333" 
d="M180 400v135l141 -158v-134l-141 -158v135l87 90zM17 400v135l141 -158v-134l-141 -158v135l87 90z" />
    <glyph glyph-name="onequarter" unicode="&#xbc;" horiz-adv-x="167" 
d="M152 572v-607.001c0 -39.333 -12.667 -65.666 -38 -78.999c-18 -9.33301 -49.333 -14 -94 -14h-48v91h22c13.333 0 21.833 2.66699 25.5 8s5.5 15.333 5.5 30v571h127zM152 603.999h-127v108h127v-108z" />
    <glyph glyph-name="onequarter" unicode="&#x458;" horiz-adv-x="167" 
d="M152 572v-607.001c0 -39.333 -12.667 -65.666 -38 -78.999c-18 -9.33301 -49.333 -14 -94 -14h-48v91h22c13.333 0 21.833 2.66699 25.5 8s5.5 15.333 5.5 30v571h127zM152 603.999h-127v108h127v-108z" />
    <glyph glyph-name="onehalf" unicode="&#xbd;" 
d="M349 458h-141v115c0 13.333 -1.66699 24.5 -5 33.5s-10 13.5 -20 13.5s-16.667 -4.5 -20 -13.5s-5 -20.167 -5 -33.5c0 -54 16.667 -98 50 -132l95 -88c34 -42.667 51 -101 51 -175v-62c0 -44 -16.667 -77.333 -50 -100c-30 -20 -68.667 -30 -116 -30
c-48.667 0 -87.334 9.66699 -116.001 29c-33.333 22 -50 55.667 -50 101v164h141v-141c0 -13.333 1.66699 -24.5 5 -33.5s10 -13.5 20 -13.5s16.667 4.5 20 13.5s5 20.167 5 33.5c0 64.667 -16.667 118 -50 160l-95 90c-34 34 -51 73.333 -51 118v89
c0 44 16.667 77.333 50 100c30 20 68.667 30 116 30c48.667 0 87.334 -9.66699 116.001 -29c33.333 -22 50 -55.667 50 -101v-138z" />
    <glyph glyph-name="onehalf" unicode="&#x405;" 
d="M349 458h-141v115c0 13.333 -1.66699 24.5 -5 33.5s-10 13.5 -20 13.5s-16.667 -4.5 -20 -13.5s-5 -20.167 -5 -33.5c0 -54 16.667 -98 50 -132l95 -88c34 -42.667 51 -101 51 -175v-62c0 -44 -16.667 -77.333 -50 -100c-30 -20 -68.667 -30 -116 -30
c-48.667 0 -87.334 9.66699 -116.001 29c-33.333 22 -50 55.667 -50 101v164h141v-141c0 -13.333 1.66699 -24.5 5 -33.5s10 -13.5 20 -13.5s16.667 4.5 20 13.5s5 20.167 5 33.5c0 64.667 -16.667 118 -50 160l-95 90c-34 34 -51 73.333 -51 118v89
c0 44 16.667 77.333 50 100c30 20 68.667 30 116 30c48.667 0 87.334 -9.66699 116.001 -29c33.333 -22 50 -55.667 50 -101v-138z" />
    <glyph glyph-name="threequarters" unicode="&#xbe;" horiz-adv-x="333" 
d="M192 373v81.999c0 8.66699 -2 15.834 -6 21.501s-10.667 8.5 -20 8.5s-15.833 -2.66699 -19.5 -8s-5.5 -12.666 -5.5 -21.999v-33c0 -26 15.333 -49.667 46 -71c53.333 -36.667 82 -57 86 -61c30.667 -30.667 46 -71.334 46 -122.001v-46
c0 -41.333 -15 -73.666 -45 -96.999c-27.333 -21.333 -63.333 -32 -108 -32c-42 0 -77 10.667 -105 32c-31.333 24 -47 56.333 -47 97v95h127v-100c0 -8 1.83301 -15 5.5 -21s10.167 -9 19.5 -9s16 3 20 9s6 13 6 21v48c0 30 -29.667 63.667 -89 101s-89 82.666 -89 135.999
v48c0 41.333 14.667 73.166 44 95.499s65.333 33.5 108 33.5c44 0 80.5 -11.167 109.5 -33.5s43.5 -54.166 43.5 -95.499v-77h-127z" />
    <glyph glyph-name="threequarters" unicode="&#x455;" horiz-adv-x="333" 
d="M192 373v81.999c0 8.66699 -2 15.834 -6 21.501s-10.667 8.5 -20 8.5s-15.833 -2.66699 -19.5 -8s-5.5 -12.666 -5.5 -21.999v-33c0 -26 15.333 -49.667 46 -71c53.333 -36.667 82 -57 86 -61c30.667 -30.667 46 -71.334 46 -122.001v-46
c0 -41.333 -15 -73.666 -45 -96.999c-27.333 -21.333 -63.333 -32 -108 -32c-42 0 -77 10.667 -105 32c-31.333 24 -47 56.333 -47 97v95h127v-100c0 -8 1.83301 -15 5.5 -21s10.167 -9 19.5 -9s16 3 20 9s6 13 6 21v48c0 30 -29.667 63.667 -89 101s-89 82.666 -89 135.999
v48c0 41.333 14.667 73.166 44 95.499s65.333 33.5 108 33.5c44 0 80.5 -11.167 109.5 -33.5s43.5 -54.166 43.5 -95.499v-77h-127z" />
    <glyph glyph-name="questiondown" unicode="&#xbf;" horiz-adv-x="167" 
d="M147 0h-127v572h127v-572zM48 632h-94v109h94v-109zM213 632h-94v109h94v-109z" />
    <glyph glyph-name="questiondown" unicode="&#x457;" horiz-adv-x="167" 
d="M147 0h-127v572h127v-572zM48 632h-94v109h94v-109zM213 632h-94v109h94v-109z" />
    <glyph glyph-name="Agrave" unicode="&#xc0;" 
d="M-4 0l106 712h187l85 -712h-147l-16 194h-67l-22 -194h-126zM156 296h46l-19 292h-4z" />
    <glyph glyph-name="Agrave" unicode="&#x410;" 
d="M-4 0l106 712h187l85 -712h-147l-16 194h-67l-22 -194h-126zM156 296h46l-19 292h-4z" />
    <glyph glyph-name="Aacute" unicode="&#xc1;" 
d="M327 712v-102h-167v-176h25c48.667 0 87.334 -10.333 116.001 -31c33.333 -24 50 -61.667 50 -113v-146c0 -51.333 -16.667 -89 -50 -113c-28.667 -20.667 -67.334 -31 -116.001 -31h-166v712h308zM160 102h17c12 0 20.5 3.33301 25.5 10s7.5 18.334 7.5 35.001v140
c0 17.333 -2.5 29.166 -7.5 35.499s-13.5 9.5 -25.5 9.5h-17v-230z" />
    <glyph glyph-name="Aacute" unicode="&#x411;" 
d="M327 712v-102h-167v-176h25c48.667 0 87.334 -10.333 116.001 -31c33.333 -24 50 -61.667 50 -113v-146c0 -51.333 -16.667 -89 -50 -113c-28.667 -20.667 -67.334 -31 -116.001 -31h-166v712h308zM160 102h17c12 0 20.5 3.33301 25.5 10s7.5 18.334 7.5 35.001v140
c0 17.333 -2.5 29.166 -7.5 35.499s-13.5 9.5 -25.5 9.5h-17v-230z" />
    <glyph glyph-name="Acircumflex" unicode="&#xc2;" 
d="M19 0l-0.00195312 712.001h166c48.667 0 87.334 -10.333 116.001 -31c33.333 -24 50 -61.667 50 -113v-54c0 -38 -6.33301 -66.667 -19 -86c-15.333 -23.333 -44.333 -39.333 -87 -48c38 -5.33301 65.167 -19.333 81.5 -42s24.5 -61.334 24.5 -116.001v-62
c0 -59.333 -14 -101.333 -42 -126c-25.333 -22.667 -66.666 -34 -123.999 -34h-166zM209.998 461.001v104c0 17.333 -2.5 29.166 -7.5 35.499s-13.5 9.5 -25.5 9.5h-17v-194h17c12 0 20.5 3.33301 25.5 10s7.5 18.334 7.5 35.001zM159.998 328.001v-226h17
c12.667 0 21.334 2.33301 26.001 7s7 13.667 7 27v158c0 13.333 -2.33301 22.333 -7 27s-13.334 7 -26.001 7h-17z" />
    <glyph glyph-name="Acircumflex" unicode="&#x412;" 
d="M19 0l-0.00195312 712.001h166c48.667 0 87.334 -10.333 116.001 -31c33.333 -24 50 -61.667 50 -113v-54c0 -38 -6.33301 -66.667 -19 -86c-15.333 -23.333 -44.333 -39.333 -87 -48c38 -5.33301 65.167 -19.333 81.5 -42s24.5 -61.334 24.5 -116.001v-62
c0 -59.333 -14 -101.333 -42 -126c-25.333 -22.667 -66.666 -34 -123.999 -34h-166zM209.998 461.001v104c0 17.333 -2.5 29.166 -7.5 35.499s-13.5 9.5 -25.5 9.5h-17v-194h17c12 0 20.5 3.33301 25.5 10s7.5 18.334 7.5 35.001zM159.998 328.001v-226h17
c12.667 0 21.334 2.33301 26.001 7s7 13.667 7 27v158c0 13.333 -2.33301 22.333 -7 27s-13.334 7 -26.001 7h-17z" />
    <glyph glyph-name="Atilde" unicode="&#xc3;" horiz-adv-x="296" 
d="M160 0h-141v712h266v-102h-125v-610z" />
    <glyph glyph-name="Atilde" unicode="&#x413;" horiz-adv-x="296" 
d="M160 0h-141v712h266v-102h-125v-610z" />
    <glyph glyph-name="Adieresis" unicode="&#xc4;" horiz-adv-x="389" 
d="M12 114c8 0 15.833 11.332 23.5 33.999s11.5 50.334 11.5 83.001v481h322v-598h19v-222h-127v108h-134v-108h-127v222h12zM228 113.999v484h-50v-367c0 -52 -10 -91 -30 -117h80z" />
    <glyph glyph-name="Adieresis" unicode="&#x414;" horiz-adv-x="389" 
d="M12 114c8 0 15.833 11.332 23.5 33.999s11.5 50.334 11.5 83.001v481h322v-598h19v-222h-127v108h-134v-108h-127v222h12zM228 113.999v484h-50v-367c0 -52 -10 -91 -30 -117h80z" />
    <glyph glyph-name="Aring" unicode="&#xc5;" horiz-adv-x="296" 
d="M287 0h-264v712h264v-102h-123v-163h118v-102h-118v-243h123v-102z" />
    <glyph glyph-name="Aring" unicode="&#x415;" horiz-adv-x="296" 
d="M287 0h-264v712h264v-102h-123v-163h118v-102h-118v-243h123v-102z" />
    <glyph glyph-name="AE" unicode="&#xc6;" horiz-adv-x="556" 
d="M348 712v-315l66 315h139l-79 -295l80 -417h-140l-64 373l-2 -373h-139v373l-66 -373h-140l80 417l-79 295h139l64 -315l2 315h139z" />
    <glyph glyph-name="AE" unicode="&#x416;" horiz-adv-x="556" 
d="M348 712v-315l66 315h139l-79 -295l80 -417h-140l-64 373l-2 -373h-139v373l-66 -373h-140l80 417l-79 295h139l64 -315l2 315h139z" />
    <glyph glyph-name="Ccedilla" unicode="&#xc7;" 
d="M120 318v105.997h28c25.333 0 42 3.33301 50 10s12 21 12 43v96c0 13.333 -1.66699 24.5 -5 33.5s-10 13.5 -20 13.5s-16.667 -4.5 -20 -13.5s-5 -20.167 -5 -33.5v-112h-141v135c0 44 16.667 77.333 50 100c30 20 68.667 30 116 30
c48.667 0 87.334 -9.66699 116.001 -29c33.333 -22 50 -55.667 50 -101v-79c0 -42 -6 -73.333 -18 -94c-14.667 -25.333 -41 -40.666 -79 -45.999v-5c36.667 -5.33301 62.667 -20.666 78 -45.999c12.667 -21.333 19 -52.666 19 -93.999v-116c0 -44 -16.667 -77.333 -50 -100
c-30 -20 -68.667 -30 -116 -30c-48.667 0 -87.334 9.66699 -116.001 29c-33.333 22 -50 55.667 -50 101v164h141v-141c0 -13.333 1.66699 -24.5 5 -33.5s10 -13.5 20 -13.5s16.667 4.5 20 13.5s5 20.167 5 33.5v126c0 22 -3.66699 36.333 -11 43s-24.333 10 -51 10h-28z" />
    <glyph glyph-name="Ccedilla" unicode="&#x417;" 
d="M120 318v105.997h28c25.333 0 42 3.33301 50 10s12 21 12 43v96c0 13.333 -1.66699 24.5 -5 33.5s-10 13.5 -20 13.5s-16.667 -4.5 -20 -13.5s-5 -20.167 -5 -33.5v-112h-141v135c0 44 16.667 77.333 50 100c30 20 68.667 30 116 30
c48.667 0 87.334 -9.66699 116.001 -29c33.333 -22 50 -55.667 50 -101v-79c0 -42 -6 -73.333 -18 -94c-14.667 -25.333 -41 -40.666 -79 -45.999v-5c36.667 -5.33301 62.667 -20.666 78 -45.999c12.667 -21.333 19 -52.666 19 -93.999v-116c0 -44 -16.667 -77.333 -50 -100
c-30 -20 -68.667 -30 -116 -30c-48.667 0 -87.334 9.66699 -116.001 29c-33.333 22 -50 55.667 -50 101v164h141v-141c0 -13.333 1.66699 -24.5 5 -33.5s10 -13.5 20 -13.5s16.667 4.5 20 13.5s5 20.167 5 33.5v126c0 22 -3.66699 36.333 -11 43s-24.333 10 -51 10h-28z" />
    <glyph glyph-name="Egrave" unicode="&#xc8;" horiz-adv-x="426" 
d="M293 0v560l-102 -560h-171v712h113v-462l84 462h189v-712h-113z" />
    <glyph glyph-name="Egrave" unicode="&#x418;" horiz-adv-x="426" 
d="M293 0v560l-102 -560h-171v712h113v-462l84 462h189v-712h-113z" />
    <glyph glyph-name="Eacute" unicode="&#xc9;" horiz-adv-x="426" 
d="M293 0v560l-102 -560h-171v712h113v-462l84 462h189v-712h-113zM73 892l43 0.000976562c3.33301 -24.667 15.333 -42 36 -52c15.333 -7.33301 37.333 -11 66 -11c24.667 0 44.667 4.33301 60 13c18.667 10.667 30.667 26.667 36 48h42c0 -42 -12.833 -73.667 -38.5 -95
s-60.5 -32 -104.5 -32c-42 0 -75.833 11.167 -101.5 33.5s-38.5 54.166 -38.5 95.499z" />
    <glyph glyph-name="Eacute" unicode="&#x419;" horiz-adv-x="426" 
d="M293 0v560l-102 -560h-171v712h113v-462l84 462h189v-712h-113zM73 892l43 0.000976562c3.33301 -24.667 15.333 -42 36 -52c15.333 -7.33301 37.333 -11 66 -11c24.667 0 44.667 4.33301 60 13c18.667 10.667 30.667 26.667 36 48h42c0 -42 -12.833 -73.667 -38.5 -95
s-60.5 -32 -104.5 -32c-42 0 -75.833 11.167 -101.5 33.5s-38.5 54.166 -38.5 95.499z" />
    <glyph glyph-name="Ecircumflex" unicode="&#xca;" 
d="M154 0h-141v712h141v-315l73 315h139l-86 -295l87 -417h-140l-71 373z" />
    <glyph glyph-name="Ecircumflex" unicode="&#x41a;" 
d="M154 0h-141v712h141v-315l73 315h139l-86 -295l87 -417h-140l-71 373z" />
    <glyph glyph-name="Edieresis" unicode="&#xcb;" horiz-adv-x="389" 
d="M179 598v-417c0 -62.667 -13 -110 -39 -142c-28.667 -35.333 -75 -53 -139 -53v126c31.333 0 47 23 47 69v531h322v-712h-141v598h-50z" />
    <glyph glyph-name="Edieresis" unicode="&#x41b;" horiz-adv-x="389" 
d="M179 598v-417c0 -62.667 -13 -110 -39 -142c-28.667 -35.333 -75 -53 -139 -53v126c31.333 0 47 23 47 69v531h322v-712h-141v598h-50z" />
    <glyph glyph-name="Igrave" unicode="&#xcc;" horiz-adv-x="593" 
d="M150 0h-127v712h217l61 -478l72 478h197v-712h-127v522l-2 2l-86 -524h-121l-82 514z" />
    <glyph glyph-name="Igrave" unicode="&#x41c;" horiz-adv-x="593" 
d="M150 0h-127v712h217l61 -478l72 478h197v-712h-127v522l-2 2l-86 -524h-121l-82 514z" />
    <glyph glyph-name="Iacute" unicode="&#xcd;" 
d="M160 0h-141v712h141v-258h50v258h141v-712h-141v340h-50v-340z" />
    <glyph glyph-name="Iacute" unicode="&#x41d;" 
d="M160 0h-141v712h141v-258h50v258h141v-712h-141v340h-50v-340z" />
    <glyph glyph-name="Icircumflex" unicode="&#xce;" 
d="M19 116v480c0 44 16.667 77.333 50 100c30 20 68.667 30 116 30c48.667 0 87.334 -9.66699 116.001 -29c33.333 -22 50 -55.667 50 -101v-480c0 -44 -16.667 -77.333 -50 -100c-30 -20 -68.667 -30 -116 -30c-48.667 0 -87.334 9.66699 -116.001 29
c-33.333 22 -50 55.667 -50 101zM210 139v434c0 13.333 -1.66699 24.5 -5 33.5s-10 13.5 -20 13.5s-16.667 -4.5 -20 -13.5s-5 -20.167 -5 -33.5v-434c0 -13.333 1.66699 -24.5 5 -33.5s10 -13.5 20 -13.5s16.667 4.5 20 13.5s5 20.167 5 33.5z" />
    <glyph glyph-name="Icircumflex" unicode="&#x41e;" 
d="M19 116v480c0 44 16.667 77.333 50 100c30 20 68.667 30 116 30c48.667 0 87.334 -9.66699 116.001 -29c33.333 -22 50 -55.667 50 -101v-480c0 -44 -16.667 -77.333 -50 -100c-30 -20 -68.667 -30 -116 -30c-48.667 0 -87.334 9.66699 -116.001 29
c-33.333 22 -50 55.667 -50 101zM210 139v434c0 13.333 -1.66699 24.5 -5 33.5s-10 13.5 -20 13.5s-16.667 -4.5 -20 -13.5s-5 -20.167 -5 -33.5v-434c0 -13.333 1.66699 -24.5 5 -33.5s10 -13.5 20 -13.5s16.667 4.5 20 13.5s5 20.167 5 33.5z" />
    <glyph glyph-name="Idieresis" unicode="&#xcf;" 
d="M160 0h-141v712h332v-712h-141v598h-50v-598z" />
    <glyph glyph-name="Idieresis" unicode="&#x41f;" 
d="M160 0h-141v712h332v-712h-141v598h-50v-598z" />
    <glyph glyph-name="Eth" unicode="&#xd0;" 
d="M160 0h-141v712h166c48.667 0 87.334 -10.333 116.001 -31c33.333 -24 50 -61.667 50 -113v-146c0 -51.333 -16.667 -89 -50 -113c-28.667 -20.667 -67.334 -31 -116.001 -31h-25v-278zM160 610v-230h17c12 0 20.5 3.33301 25.5 10s7.5 18.334 7.5 35.001v140
c0 17.333 -2.5 29.166 -7.5 35.499s-13.5 9.5 -25.5 9.5h-17z" />
    <glyph glyph-name="Eth" unicode="&#x420;" 
d="M160 0h-141v712h166c48.667 0 87.334 -10.333 116.001 -31c33.333 -24 50 -61.667 50 -113v-146c0 -51.333 -16.667 -89 -50 -113c-28.667 -20.667 -67.334 -31 -116.001 -31h-25v-278zM160 610v-230h17c12 0 20.5 3.33301 25.5 10s7.5 18.334 7.5 35.001v140
c0 17.333 -2.5 29.166 -7.5 35.499s-13.5 9.5 -25.5 9.5h-17z" />
    <glyph glyph-name="Ntilde" unicode="&#xd1;" 
d="M210 280h141v-164c0 -44 -16.667 -77.333 -50 -100c-30 -20 -68.667 -30 -116 -30c-48.667 0 -87.334 9.66699 -116.001 29c-33.333 22 -50 55.667 -50 101v480c0 44 16.667 77.333 50 100c30 20 68.667 30 116 30c48.667 0 87.334 -9.66699 116.001 -29
c33.333 -22 50 -55.667 50 -101v-135h-141v112c0 13.333 -1.66699 24.5 -5 33.5s-10 13.5 -20 13.5s-16.667 -4.5 -20 -13.5s-5 -20.167 -5 -33.5v-434c0 -13.333 1.66699 -24.5 5 -33.5s10 -13.5 20 -13.5s16.667 4.5 20 13.5s5 20.167 5 33.5v141z" />
    <glyph glyph-name="Ntilde" unicode="&#x421;" 
d="M210 280h141v-164c0 -44 -16.667 -77.333 -50 -100c-30 -20 -68.667 -30 -116 -30c-48.667 0 -87.334 9.66699 -116.001 29c-33.333 22 -50 55.667 -50 101v480c0 44 16.667 77.333 50 100c30 20 68.667 30 116 30c48.667 0 87.334 -9.66699 116.001 -29
c33.333 -22 50 -55.667 50 -101v-135h-141v112c0 13.333 -1.66699 24.5 -5 33.5s-10 13.5 -20 13.5s-16.667 -4.5 -20 -13.5s-5 -20.167 -5 -33.5v-434c0 -13.333 1.66699 -24.5 5 -33.5s10 -13.5 20 -13.5s16.667 4.5 20 13.5s5 20.167 5 33.5v141z" />
    <glyph glyph-name="Ograve" unicode="&#xd2;" horiz-adv-x="333" 
d="M237 610v-610h-141v610h-95v102h331v-102h-95z" />
    <glyph glyph-name="Ograve" unicode="&#x422;" horiz-adv-x="333" 
d="M237 610v-610h-141v610h-95v102h331v-102h-95z" />
    <glyph glyph-name="Oacute" unicode="&#xd3;" 
d="M108 0l24 115l-136 597h148l47 -377l56 377h127l-145 -712h-121z" />
    <glyph glyph-name="Oacute" unicode="&#x423;" 
d="M108 0l24 115l-136 597h148l47 -377l56 377h127l-145 -712h-121z" />
    <glyph glyph-name="Ocircumflex" unicode="&#xd4;" horiz-adv-x="556" 
d="M372 612c48.667 0 87.334 -9.66699 116.001 -29c33.333 -22 50 -55.667 50 -101v-252c0 -44 -16.667 -77.333 -50 -100c-30 -20 -68.667 -30 -116 -30h-23v-100h-141v100h-23c-48.667 0 -87.334 9.66699 -116.001 29c-33.333 22 -50 55.667 -50 101v252
c0 44 16.667 77.333 50 100c30 20 68.667 30 116 30h23v100h141v-100h23zM349 510v-308h23c10 0 16.667 4.5 20 13.5s5 20.167 5 33.5v214c0 13.333 -1.66699 24.5 -5 33.5s-10 13.5 -20 13.5h-23zM208 510h-23c-10 0 -16.667 -4.5 -20 -13.5s-5 -20.167 -5 -33.5v-214
c0 -13.333 1.66699 -24.5 5 -33.5s10 -13.5 20 -13.5h23v308z" />
    <glyph glyph-name="Ocircumflex" unicode="&#x424;" horiz-adv-x="556" 
d="M372 612c48.667 0 87.334 -9.66699 116.001 -29c33.333 -22 50 -55.667 50 -101v-252c0 -44 -16.667 -77.333 -50 -100c-30 -20 -68.667 -30 -116 -30h-23v-100h-141v100h-23c-48.667 0 -87.334 9.66699 -116.001 29c-33.333 22 -50 55.667 -50 101v252
c0 44 16.667 77.333 50 100c30 20 68.667 30 116 30h23v100h141v-100h23zM349 510v-308h23c10 0 16.667 4.5 20 13.5s5 20.167 5 33.5v214c0 13.333 -1.66699 24.5 -5 33.5s-10 13.5 -20 13.5h-23zM208 510h-23c-10 0 -16.667 -4.5 -20 -13.5s-5 -20.167 -5 -33.5v-214
c0 -13.333 1.66699 -24.5 5 -33.5s10 -13.5 20 -13.5h23v308z" />
    <glyph glyph-name="Otilde" unicode="&#xd5;" 
d="M1 712h147l45 -257l47 257h128l-78 -324l84 -388h-150l-46 304l-51 -304h-132l85 368z" />
    <glyph glyph-name="Otilde" unicode="&#x425;" 
d="M1 712h147l45 -257l47 257h128l-78 -324l84 -388h-150l-46 304l-51 -304h-132l85 368z" />
    <glyph glyph-name="Odieresis" unicode="&#xd6;" 
d="M243 0h-224v712h141v-598h50v598h141v-598h19v-222h-127v108z" />
    <glyph glyph-name="Odieresis" unicode="&#x426;" 
d="M243 0h-224v712h141v-598h50v598h141v-598h19v-222h-127v108z" />
    <glyph glyph-name="multiply" unicode="&#xd7;" 
d="M19 407l-0.000976562 305.001h141v-258c0 -17.333 6 -26 18 -26s22.667 8.66699 32 26v258h141v-712h-141v340c-11.333 -14 -25.166 -24.667 -41.499 -32s-33.833 -11 -52.5 -11c-28 0 -50.333 8.33301 -67 25c-20 19.333 -30 47.666 -30 84.999z" />
    <glyph glyph-name="multiply" unicode="&#x427;" 
d="M19 407l-0.000976562 305.001h141v-258c0 -17.333 6 -26 18 -26s22.667 8.66699 32 26v258h141v-712h-141v340c-11.333 -14 -25.166 -24.667 -41.499 -32s-33.833 -11 -52.5 -11c-28 0 -50.333 8.33301 -67 25c-20 19.333 -30 47.666 -30 84.999z" />
    <glyph glyph-name="Oslash" unicode="&#xd8;" horiz-adv-x="556" 
d="M19 0v712h141v-598h47v598h141v-598h47v598h141v-712h-517z" />
    <glyph glyph-name="Oslash" unicode="&#x428;" horiz-adv-x="556" 
d="M19 0v712h141v-598h47v598h141v-598h47v598h141v-712h-517z" />
    <glyph glyph-name="Ugrave" unicode="&#xd9;" horiz-adv-x="556" 
d="M414 0h-395v712h141v-598h47v598h141v-598h47v598h141v-598h19v-222h-141v108z" />
    <glyph glyph-name="Ugrave" unicode="&#x429;" horiz-adv-x="556" 
d="M414 0h-395v712h141v-598h47v598h141v-598h47v598h141v-598h19v-222h-141v108z" />
    <glyph glyph-name="Uacute" unicode="&#xda;" horiz-adv-x="407" 
d="M56 610h-55v102h196v-278h25c48.667 0 87.334 -10.333 116.001 -31c33.333 -24 50 -61.667 50 -113v-146c0 -51.333 -16.667 -89 -50 -113c-28.667 -20.667 -67.334 -31 -116.001 -31h-166v610zM197 102h17c12 0 20.5 3.33301 25.5 10s7.5 18.334 7.5 35.001v140
c0 17.333 -2.5 29.166 -7.5 35.499s-13.5 9.5 -25.5 9.5h-17v-230z" />
    <glyph glyph-name="Uacute" unicode="&#x42a;" horiz-adv-x="407" 
d="M56 610h-55v102h196v-278h25c48.667 0 87.334 -10.333 116.001 -31c33.333 -24 50 -61.667 50 -113v-146c0 -51.333 -16.667 -89 -50 -113c-28.667 -20.667 -67.334 -31 -116.001 -31h-166v610zM197 102h17c12 0 20.5 3.33301 25.5 10s7.5 18.334 7.5 35.001v140
c0 17.333 -2.5 29.166 -7.5 35.499s-13.5 9.5 -25.5 9.5h-17v-230z" />
    <glyph glyph-name="Ucircumflex" unicode="&#xdb;" horiz-adv-x="556" 
d="M162 712v-278h25c48.667 0 87.334 -10.333 116.001 -31c33.333 -24 50 -61.667 50 -113v-146c0 -51.333 -16.667 -89 -50 -113c-28.667 -20.667 -67.334 -31 -116.001 -31h-166v712h141zM535 0h-141v712h141v-712zM162 102h17c12 0 20.5 3.33301 25.5 10
s7.5 18.334 7.5 35.001v140c0 17.333 -2.5 29.166 -7.5 35.499s-13.5 9.5 -25.5 9.5h-17v-230z" />
    <glyph glyph-name="Ucircumflex" unicode="&#x42b;" horiz-adv-x="556" 
d="M162 712v-278h25c48.667 0 87.334 -10.333 116.001 -31c33.333 -24 50 -61.667 50 -113v-146c0 -51.333 -16.667 -89 -50 -113c-28.667 -20.667 -67.334 -31 -116.001 -31h-166v712h141zM535 0h-141v712h141v-712zM162 102h17c12 0 20.5 3.33301 25.5 10
s7.5 18.334 7.5 35.001v140c0 17.333 -2.5 29.166 -7.5 35.499s-13.5 9.5 -25.5 9.5h-17v-230z" />
    <glyph glyph-name="Udieresis" unicode="&#xdc;" 
d="M160 712v-278h25c48.667 0 87.334 -10.333 116.001 -31c33.333 -24 50 -61.667 50 -113v-146c0 -51.333 -16.667 -89 -50 -113c-28.667 -20.667 -67.334 -31 -116.001 -31h-166v712h141zM160 102h17c12 0 20.5 3.33301 25.5 10s7.5 18.334 7.5 35.001v140
c0 17.333 -2.5 29.166 -7.5 35.499s-13.5 9.5 -25.5 9.5h-17v-230z" />
    <glyph glyph-name="Udieresis" unicode="&#x42c;" 
d="M160 712v-278h25c48.667 0 87.334 -10.333 116.001 -31c33.333 -24 50 -61.667 50 -113v-146c0 -51.333 -16.667 -89 -50 -113c-28.667 -20.667 -67.334 -31 -116.001 -31h-166v712h141zM160 102h17c12 0 20.5 3.33301 25.5 10s7.5 18.334 7.5 35.001v140
c0 17.333 -2.5 29.166 -7.5 35.499s-13.5 9.5 -25.5 9.5h-17v-230z" />
    <glyph glyph-name="Yacute" unicode="&#xdd;" 
d="M351 116c0 -44 -16.667 -77.333 -50 -100c-30 -20 -68.667 -30 -116 -30c-48.667 0 -87.334 9.66699 -116.001 29c-33.333 22 -50 55.667 -50 101v164h141v-141c0 -13.333 1.66699 -24.5 5 -33.5s10 -13.5 20 -13.5s16.667 4.5 20 13.5s5 20.167 5 33.5v179h-90v106h90
v149c0 13.333 -1.66699 24.5 -5 33.5s-10 13.5 -20 13.5s-16.667 -4.5 -20 -13.5s-5 -20.167 -5 -33.5v-112h-141v135c0 44 16.667 77.333 50 100c30 20 68.667 30 116 30c48.667 0 87.334 -9.66699 116.001 -29c33.333 -22 50 -55.667 50 -101v-480z" />
    <glyph glyph-name="Yacute" unicode="&#x42d;" 
d="M351 116c0 -44 -16.667 -77.333 -50 -100c-30 -20 -68.667 -30 -116 -30c-48.667 0 -87.334 9.66699 -116.001 29c-33.333 22 -50 55.667 -50 101v164h141v-141c0 -13.333 1.66699 -24.5 5 -33.5s10 -13.5 20 -13.5s16.667 4.5 20 13.5s5 20.167 5 33.5v179h-90v106h90
v149c0 13.333 -1.66699 24.5 -5 33.5s-10 13.5 -20 13.5s-16.667 -4.5 -20 -13.5s-5 -20.167 -5 -33.5v-112h-141v135c0 44 16.667 77.333 50 100c30 20 68.667 30 116 30c48.667 0 87.334 -9.66699 116.001 -29c33.333 -22 50 -55.667 50 -101v-480z" />
    <glyph glyph-name="Thorn" unicode="&#xde;" horiz-adv-x="556" 
d="M205 340h-45v-340h-141v712h141v-258h45v142c0 44 16.667 77.333 50 100c30 20 68.667 30 116 30c48.667 0 87.334 -9.66699 116.001 -29c33.333 -22 50 -55.667 50 -101v-480c0 -44 -16.667 -77.333 -50 -100c-30 -20 -68.667 -30 -116 -30
c-48.667 0 -87.334 9.66699 -116.001 29c-33.333 22 -50 55.667 -50 101v224zM396 139v434c0 13.333 -1.66699 24.5 -5 33.5s-10 13.5 -20 13.5s-16.667 -4.5 -20 -13.5s-5 -20.167 -5 -33.5v-434c0 -13.333 1.66699 -24.5 5 -33.5s10 -13.5 20 -13.5s16.667 4.5 20 13.5
s5 20.167 5 33.5z" />
    <glyph glyph-name="Thorn" unicode="&#x42e;" horiz-adv-x="556" 
d="M205 340h-45v-340h-141v712h141v-258h45v142c0 44 16.667 77.333 50 100c30 20 68.667 30 116 30c48.667 0 87.334 -9.66699 116.001 -29c33.333 -22 50 -55.667 50 -101v-480c0 -44 -16.667 -77.333 -50 -100c-30 -20 -68.667 -30 -116 -30
c-48.667 0 -87.334 9.66699 -116.001 29c-33.333 22 -50 55.667 -50 101v224zM396 139v434c0 13.333 -1.66699 24.5 -5 33.5s-10 13.5 -20 13.5s-16.667 -4.5 -20 -13.5s-5 -20.167 -5 -33.5v-434c0 -13.333 1.66699 -24.5 5 -33.5s10 -13.5 20 -13.5s16.667 4.5 20 13.5
s5 20.167 5 33.5z" />
    <glyph glyph-name="germandbls" unicode="&#xdf;" 
d="M210 0v332.999c-17.333 0 -30 -4.66699 -38 -14s-12 -31 -12 -65v-162c0 -24.667 -1.33301 -42.667 -4 -54s-7.66699 -24 -15 -38h-143c8 27.333 12.333 43 13 47c5.33301 24.667 8 51 8 79v141c0 42.667 7.5 73.334 22.5 92.001s43.833 28 86.5 28
c-38.667 0.666992 -67.334 14 -86.001 40c-15.333 20.667 -23 46.667 -23 78v63c0 51.333 16.667 89 50 113c28.667 20.667 67.334 31 116.001 31h166v-712h-141zM210 609.999h-17c-12 0 -20.5 -3.33301 -25.5 -10s-7.5 -18.334 -7.5 -35.001v-105
c0 -17.333 2.5 -29.166 7.5 -35.499s13.5 -9.5 25.5 -9.5h17v195z" />
    <glyph glyph-name="germandbls" unicode="&#x42f;" 
d="M210 0v332.999c-17.333 0 -30 -4.66699 -38 -14s-12 -31 -12 -65v-162c0 -24.667 -1.33301 -42.667 -4 -54s-7.66699 -24 -15 -38h-143c8 27.333 12.333 43 13 47c5.33301 24.667 8 51 8 79v141c0 42.667 7.5 73.334 22.5 92.001s43.833 28 86.5 28
c-38.667 0.666992 -67.334 14 -86.001 40c-15.333 20.667 -23 46.667 -23 78v63c0 51.333 16.667 89 50 113c28.667 20.667 67.334 31 116.001 31h166v-712h-141zM210 609.999h-17c-12 0 -20.5 -3.33301 -25.5 -10s-7.5 -18.334 -7.5 -35.001v-105
c0 -17.333 2.5 -29.166 7.5 -35.499s13.5 -9.5 25.5 -9.5h17v195z" />
    <glyph glyph-name="agrave" unicode="&#xe0;" horiz-adv-x="333" 
d="M17 373l-0.000976562 77c0 41.333 14 73.166 42 95.499s63.667 33.5 107 33.5c42.667 0 78.334 -11.167 107.001 -33.5s43 -54.166 43 -95.499v-334c0 -16 0.666992 -30.667 2 -44c4.66699 -45.333 7 -69.333 7 -72h-129l-7 58c-18 -43.333 -47 -65 -87 -65
c-30.667 0 -52.5 8.66699 -65.5 26s-19.5 43 -19.5 77v123c0 49.333 28.667 87.333 86 114s86 59.667 86 99v23c0 8 -1.83301 15 -5.5 21s-9.5 9 -17.5 9s-13.667 -3 -17 -9s-5 -13 -5 -21v-82h-127zM143.999 221v-104c0 -8.66699 1.66699 -15.834 5 -21.501s9 -8.5 17 -8.5
s13.833 2.83301 17.5 8.5s5.5 12.834 5.5 21.501v165l-23 -16c-10 -8.66699 -16.167 -15.167 -18.5 -19.5s-3.5 -12.833 -3.5 -25.5z" />
    <glyph glyph-name="agrave" unicode="&#x430;" horiz-adv-x="333" 
d="M17 373l-0.000976562 77c0 41.333 14 73.166 42 95.499s63.667 33.5 107 33.5c42.667 0 78.334 -11.167 107.001 -33.5s43 -54.166 43 -95.499v-334c0 -16 0.666992 -30.667 2 -44c4.66699 -45.333 7 -69.333 7 -72h-129l-7 58c-18 -43.333 -47 -65 -87 -65
c-30.667 0 -52.5 8.66699 -65.5 26s-19.5 43 -19.5 77v123c0 49.333 28.667 87.333 86 114s86 59.667 86 99v23c0 8 -1.83301 15 -5.5 21s-9.5 9 -17.5 9s-13.667 -3 -17 -9s-5 -13 -5 -21v-82h-127zM143.999 221v-104c0 -8.66699 1.66699 -15.834 5 -21.501s9 -8.5 17 -8.5
s13.833 2.83301 17.5 8.5s5.5 12.834 5.5 21.501v165l-23 -16c-10 -8.66699 -16.167 -15.167 -18.5 -19.5s-3.5 -12.833 -3.5 -25.5z" />
    <glyph glyph-name="aacute" unicode="&#xe1;" horiz-adv-x="333" 
d="M111 504c10 21.333 19.998 36.999 29.998 46.999c18 18.667 39.667 28 65 28c33.333 0 60 -11 80 -33s30 -54 30 -96v-328c0 -41.333 -15 -73.666 -45 -96.999c-27.333 -21.333 -62.333 -32 -105 -32c-43.333 0 -78.333 10.667 -105 32
c-29.333 23.333 -44 55.666 -44 96.999l1 372c0 73.333 6 128.333 18 165c18.667 56.667 50.834 89.5 96.501 98.5s73.834 16.167 84.501 21.5s16 12.333 16 21h83c0 -85.333 -42 -135 -126 -149c-29.333 -5.33301 -50 -20.666 -62 -45.999s-18 -59 -18 -101h1z
M188.998 116.999v338c0 8 -1.83301 15 -5.5 21s-9.5 9 -17.5 9s-13.667 -3 -17 -9s-5 -13 -5 -21v-338c0 -8.66699 1.66699 -15.834 5 -21.501s9 -8.5 17 -8.5s13.833 2.83301 17.5 8.5s5.5 12.834 5.5 21.501z" />
    <glyph glyph-name="aacute" unicode="&#x431;" horiz-adv-x="333" 
d="M111 504c10 21.333 19.998 36.999 29.998 46.999c18 18.667 39.667 28 65 28c33.333 0 60 -11 80 -33s30 -54 30 -96v-328c0 -41.333 -15 -73.666 -45 -96.999c-27.333 -21.333 -62.333 -32 -105 -32c-43.333 0 -78.333 10.667 -105 32
c-29.333 23.333 -44 55.666 -44 96.999l1 372c0 73.333 6 128.333 18 165c18.667 56.667 50.834 89.5 96.501 98.5s73.834 16.167 84.501 21.5s16 12.333 16 21h83c0 -85.333 -42 -135 -126 -149c-29.333 -5.33301 -50 -20.666 -62 -45.999s-18 -59 -18 -101h1z
M188.998 116.999v338c0 8 -1.83301 15 -5.5 21s-9.5 9 -17.5 9s-13.667 -3 -17 -9s-5 -13 -5 -21v-338c0 -8.66699 1.66699 -15.834 5 -21.501s9 -8.5 17 -8.5s13.833 2.83301 17.5 8.5s5.5 12.834 5.5 21.501z" />
    <glyph glyph-name="acircumflex" unicode="&#xe2;" horiz-adv-x="333" 
d="M17 0v571.996h150c44 0 78.667 -8.33301 104 -25c30 -19.333 45 -49.666 45 -90.999v-43c0 -31.333 -5 -54.666 -15 -69.999c-12.667 -19.333 -36 -32 -70 -38c34 -10.667 56.667 -24.167 68 -40.5s17 -45.166 17 -86.499v-49c0 -47.333 -12 -80.666 -36 -99.999
s-61.667 -29 -113 -29h-150zM189 374.996l0.000976562 70c0 24 -10 36 -30 36h-15v-142h15c11.333 0 19.166 2.5 23.499 7.5s6.5 14.5 6.5 28.5zM144.001 259.996l0.000976562 -169h15c20 0 30 9 30 27v114c0 10.667 -2.33301 18 -7 22s-12.334 6 -23.001 6h-15z" />
    <glyph glyph-name="acircumflex" unicode="&#x432;" horiz-adv-x="333" 
d="M17 0v571.996h150c44 0 78.667 -8.33301 104 -25c30 -19.333 45 -49.666 45 -90.999v-43c0 -31.333 -5 -54.666 -15 -69.999c-12.667 -19.333 -36 -32 -70 -38c34 -10.667 56.667 -24.167 68 -40.5s17 -45.166 17 -86.499v-49c0 -47.333 -12 -80.666 -36 -99.999
s-61.667 -29 -113 -29h-150zM189 374.996l0.000976562 70c0 24 -10 36 -30 36h-15v-142h15c11.333 0 19.166 2.5 23.499 7.5s6.5 14.5 6.5 28.5zM144.001 259.996l0.000976562 -169h15c20 0 30 9 30 27v114c0 10.667 -2.33301 18 -7 22s-12.334 6 -23.001 6h-15z" />
    <glyph glyph-name="atilde" unicode="&#xe3;" horiz-adv-x="259" 
d="M144 0h-127v572h240v-91h-113v-481z" />
    <glyph glyph-name="atilde" unicode="&#x433;" horiz-adv-x="259" 
d="M144 0h-127v572h240v-91h-113v-481z" />
    <glyph glyph-name="adieresis" unicode="&#xe4;" horiz-adv-x="350" 
d="M11 101c6.66699 0 13.5 9.16797 20.5 27.501s10.5 40.166 10.5 65.499v378h290v-471h17v-209h-114v108h-121v-108h-114v209h11zM205 101.001v370h-45v-277c0 -18.667 -2.16699 -36.167 -6.5 -52.5s-10.5 -29.833 -18.5 -40.5h70z" />
    <glyph glyph-name="adieresis" unicode="&#x434;" horiz-adv-x="350" 
d="M11 101c6.66699 0 13.5 9.16797 20.5 27.501s10.5 40.166 10.5 65.499v378h290v-471h17v-209h-114v108h-121v-108h-114v209h11zM205 101.001v370h-45v-277c0 -18.667 -2.16699 -36.167 -6.5 -52.5s-10.5 -29.833 -18.5 -40.5h70z" />
    <glyph glyph-name="aring" unicode="&#xe5;" horiz-adv-x="333" 
d="M17 122l-0.000976562 328c0 41.333 14 73.166 42 95.499s63.667 33.5 107 33.5c42.667 0 78.334 -11.167 107.001 -33.5s43 -54.166 43 -95.499v-184h-172v-149c0 -8.66699 1.66699 -15.834 5 -21.501s9 -8.5 17 -8.5s13.833 2.83301 17.5 8.5s5.5 12.834 5.5 21.501v110
h127v-105c0 -41.333 -15 -73.666 -45 -96.999c-27.333 -21.333 -62.333 -32 -105 -32c-43.333 0 -78.333 10.667 -105 32c-29.333 23.333 -44 55.666 -44 96.999zM143.999 352h45v103c0 8 -1.83301 15 -5.5 21s-9.5 9 -17.5 9s-13.667 -3 -17 -9s-5 -13 -5 -21v-103z" />
    <glyph glyph-name="aring" unicode="&#x435;" horiz-adv-x="333" 
d="M17 122l-0.000976562 328c0 41.333 14 73.166 42 95.499s63.667 33.5 107 33.5c42.667 0 78.334 -11.167 107.001 -33.5s43 -54.166 43 -95.499v-184h-172v-149c0 -8.66699 1.66699 -15.834 5 -21.501s9 -8.5 17 -8.5s13.833 2.83301 17.5 8.5s5.5 12.834 5.5 21.501v110
h127v-105c0 -41.333 -15 -73.666 -45 -96.999c-27.333 -21.333 -62.333 -32 -105 -32c-43.333 0 -78.333 10.667 -105 32c-29.333 23.333 -44 55.666 -44 96.999zM143.999 352h45v103c0 8 -1.83301 15 -5.5 21s-9.5 9 -17.5 9s-13.667 -3 -17 -9s-5 -13 -5 -21v-103z" />
    <glyph glyph-name="ae" unicode="&#xe6;" horiz-adv-x="500" 
d="M312 572v-257l59 257h125l-71 -246l72 -326h-126l-57 301l-2 -301h-125v301l-59 -301h-126l72 326l-71 246h125l57 -257l2 257h125z" />
    <glyph glyph-name="ae" unicode="&#x436;" horiz-adv-x="500" 
d="M312 572v-257l59 257h125l-71 -246l72 -326h-126l-57 301l-2 -301h-125v301l-59 -301h-126l72 326l-71 246h125l57 -257l2 257h125z" />
    <glyph glyph-name="ccedilla" unicode="&#xe7;" horiz-adv-x="333" 
d="M191 209c0 17.333 -3.5 28.667 -10.5 34s-22.167 8 -45.5 8h-25v95h25c23.333 0 38.5 2.5 45.5 7.5s10.5 16.5 10.5 34.5v67c0 8.66699 -1.66699 15.834 -5 21.501s-9 8.5 -17 8.5s-13.833 -2.83301 -17.5 -8.5s-5.5 -12.834 -5.5 -21.501v-82h-127v77
c0 41.333 14.333 73.166 43 95.499s64.334 33.5 107.001 33.5c43.333 0 79 -11.167 107 -33.5s42 -54.166 42 -95.499v-35c0 -33.333 -5.33301 -58.333 -16 -75c-13.333 -20.667 -37 -33 -71 -37v-4c33.333 -4 56.666 -16.333 69.999 -37
c11.333 -17.333 17 -42.666 17 -75.999v-64c0 -41.333 -14.667 -73.666 -44 -96.999c-26.667 -21.333 -61.667 -32 -105 -32c-42.667 0 -77.667 10.667 -105 32c-30 23.333 -45 55.666 -45 96.999v105h127v-110c0 -8 2 -15 6 -21s10 -9 18 -9s13.5 2.66699 16.5 8
s4.5 12.666 4.5 21.999v92z" />
    <glyph glyph-name="ccedilla" unicode="&#x437;" horiz-adv-x="333" 
d="M191 209c0 17.333 -3.5 28.667 -10.5 34s-22.167 8 -45.5 8h-25v95h25c23.333 0 38.5 2.5 45.5 7.5s10.5 16.5 10.5 34.5v67c0 8.66699 -1.66699 15.834 -5 21.501s-9 8.5 -17 8.5s-13.833 -2.83301 -17.5 -8.5s-5.5 -12.834 -5.5 -21.501v-82h-127v77
c0 41.333 14.333 73.166 43 95.499s64.334 33.5 107.001 33.5c43.333 0 79 -11.167 107 -33.5s42 -54.166 42 -95.499v-35c0 -33.333 -5.33301 -58.333 -16 -75c-13.333 -20.667 -37 -33 -71 -37v-4c33.333 -4 56.666 -16.333 69.999 -37
c11.333 -17.333 17 -42.666 17 -75.999v-64c0 -41.333 -14.667 -73.666 -44 -96.999c-26.667 -21.333 -61.667 -32 -105 -32c-42.667 0 -77.667 10.667 -105 32c-30 23.333 -45 55.666 -45 96.999v105h127v-110c0 -8 2 -15 6 -21s10 -9 18 -9s13.5 2.66699 16.5 8
s4.5 12.666 4.5 21.999v92z" />
    <glyph glyph-name="egrave" unicode="&#xe8;" 
d="M252 0v450l-82 -450h-154v572h102v-371l65 371h171v-572h-102z" />
    <glyph glyph-name="egrave" unicode="&#x438;" 
d="M252 0v450l-82 -450h-154v572h102v-371l65 371h171v-572h-102z" />
    <glyph glyph-name="eacute" unicode="&#xe9;" 
d="M252 0v450l-82 -450h-154v572h102v-371l65 371h171v-572h-102zM45 752l43 0.000976562c3.33301 -24.667 15.333 -42 36 -52c15.333 -7.33301 37.333 -11 66 -11c24.667 0 44.667 4.33301 60 13c18.667 10.667 30.667 26.667 36 48h42c0 -42 -12.833 -73.667 -38.5 -95
s-60.5 -32 -104.5 -32c-42 0 -75.833 11.167 -101.5 33.5s-38.5 54.166 -38.5 95.499z" />
    <glyph glyph-name="eacute" unicode="&#x439;" 
d="M252 0v450l-82 -450h-154v572h102v-371l65 371h171v-572h-102zM45 752l43 0.000976562c3.33301 -24.667 15.333 -42 36 -52c15.333 -7.33301 37.333 -11 66 -11c24.667 0 44.667 4.33301 60 13c18.667 10.667 30.667 26.667 36 48h42c0 -42 -12.833 -73.667 -38.5 -95
s-60.5 -32 -104.5 -32c-42 0 -75.833 11.167 -101.5 33.5s-38.5 54.166 -38.5 95.499z" />
    <glyph glyph-name="ecircumflex" unicode="&#xea;" horiz-adv-x="333" 
d="M146 0h-127v572h127v-257l53 257h132l-62 -246l60 -326h-130l-51 301z" />
    <glyph glyph-name="ecircumflex" unicode="&#x43a;" horiz-adv-x="333" 
d="M146 0h-127v572h127v-257l53 257h132l-62 -246l60 -326h-130l-51 301z" />
    <glyph glyph-name="edieresis" unicode="&#xeb;" horiz-adv-x="350" 
d="M161 471l0.000976562 -317.001c0 -51.333 -11.667 -90.666 -35 -117.999c-26.667 -31.333 -68.334 -47 -125.001 -47v110c28 0 42 18.333 42 55v418h290v-572h-127v471h-45z" />
    <glyph glyph-name="edieresis" unicode="&#x43b;" horiz-adv-x="350" 
d="M161 471l0.000976562 -317.001c0 -51.333 -11.667 -90.666 -35 -117.999c-26.667 -31.333 -68.334 -47 -125.001 -47v110c28 0 42 18.333 42 55v418h290v-572h-127v471h-45z" />
    <glyph glyph-name="igrave" unicode="&#xec;" horiz-adv-x="537" 
d="M131 0h-114v572h199l56 -384l70 384h178v-572h-114v419l-2 2l-82 -421h-110l-79 413z" />
    <glyph glyph-name="igrave" unicode="&#x43c;" horiz-adv-x="537" 
d="M131 0h-114v572h199l56 -384l70 384h178v-572h-114v419l-2 2l-82 -421h-110l-79 413z" />
    <glyph glyph-name="iacute" unicode="&#xed;" horiz-adv-x="333" 
d="M144 0h-127v572h127v-203h45v203h127v-572h-127v268h-45v-268z" />
    <glyph glyph-name="iacute" unicode="&#x43d;" horiz-adv-x="333" 
d="M144 0h-127v572h127v-203h45v203h127v-572h-127v268h-45v-268z" />
    <glyph glyph-name="icircumflex" unicode="&#xee;" horiz-adv-x="333" 
d="M316 450l-0.000976562 -328c0 -41.333 -15 -73.666 -45 -96.999c-27.333 -21.333 -62.333 -32 -105 -32c-43.333 0 -78.333 10.667 -105 32c-29.333 23.333 -44 55.666 -44 96.999v328c0 41.333 14 73.166 42 95.499s63.667 33.5 107 33.5
c42.667 0 78.334 -11.167 107.001 -33.5s43 -54.166 43 -95.499zM188.999 117v338c0 8 -1.83301 15 -5.5 21s-9.5 9 -17.5 9s-13.667 -3 -17 -9s-5 -13 -5 -21v-338c0 -8.66699 1.66699 -15.834 5 -21.501s9 -8.5 17 -8.5s13.833 2.83301 17.5 8.5s5.5 12.834 5.5 21.501z
" />
    <glyph glyph-name="icircumflex" unicode="&#x43e;" horiz-adv-x="333" 
d="M316 450l-0.000976562 -328c0 -41.333 -15 -73.666 -45 -96.999c-27.333 -21.333 -62.333 -32 -105 -32c-43.333 0 -78.333 10.667 -105 32c-29.333 23.333 -44 55.666 -44 96.999v328c0 41.333 14 73.166 42 95.499s63.667 33.5 107 33.5
c42.667 0 78.334 -11.167 107.001 -33.5s43 -54.166 43 -95.499zM188.999 117v338c0 8 -1.83301 15 -5.5 21s-9.5 9 -17.5 9s-13.667 -3 -17 -9s-5 -13 -5 -21v-338c0 -8.66699 1.66699 -15.834 5 -21.501s9 -8.5 17 -8.5s13.833 2.83301 17.5 8.5s5.5 12.834 5.5 21.501z
" />
    <glyph glyph-name="idieresis" unicode="&#xef;" horiz-adv-x="333" 
d="M145 0h-127v572h299v-572h-127v471h-45v-471z" />
    <glyph glyph-name="idieresis" unicode="&#x43f;" horiz-adv-x="333" 
d="M145 0h-127v572h299v-572h-127v471h-45v-471z" />
    <glyph glyph-name="eth" unicode="&#xf0;" horiz-adv-x="333" 
d="M146 572v-60.001c4.66699 20 14.334 36.167 29.001 48.5s31.667 18.5 51 18.5c35.333 0 60.333 -13.333 75 -40c11.333 -20.667 17 -50 17 -88v-333c0 -38 -5.33301 -66.667 -16 -86c-14.667 -26 -40 -39 -76 -39c-18.667 0 -35.334 5.33301 -50.001 16
s-24 24.334 -28 41.001l-2 -178h-127v700h127zM191 126.999v318c0 8 -1.83301 15 -5.5 21s-9.5 9 -17.5 9s-13.667 -3 -17 -9s-5 -13 -5 -21v-318c0 -8.66699 1.66699 -15.834 5 -21.501s9 -8.5 17 -8.5s13.833 2.83301 17.5 8.5s5.5 12.834 5.5 21.501z" />
    <glyph glyph-name="eth" unicode="&#x440;" horiz-adv-x="333" 
d="M146 572v-60.001c4.66699 20 14.334 36.167 29.001 48.5s31.667 18.5 51 18.5c35.333 0 60.333 -13.333 75 -40c11.333 -20.667 17 -50 17 -88v-333c0 -38 -5.33301 -66.667 -16 -86c-14.667 -26 -40 -39 -76 -39c-18.667 0 -35.334 5.33301 -50.001 16
s-24 24.334 -28 41.001l-2 -178h-127v700h127zM191 126.999v318c0 8 -1.83301 15 -5.5 21s-9.5 9 -17.5 9s-13.667 -3 -17 -9s-5 -13 -5 -21v-318c0 -8.66699 1.66699 -15.834 5 -21.501s9 -8.5 17 -8.5s13.833 2.83301 17.5 8.5s5.5 12.834 5.5 21.501z" />
    <glyph glyph-name="ntilde" unicode="&#xf1;" horiz-adv-x="333" 
d="M316 227l-0.000976562 -105c0 -41.333 -15 -73.666 -45 -96.999c-27.333 -21.333 -62.333 -32 -105 -32c-43.333 0 -78.333 10.667 -105 32c-29.333 23.333 -44 55.666 -44 96.999v328c0 41.333 14 73.166 42 95.499s63.667 33.5 107 33.5
c42.667 0 78.334 -11.167 107.001 -33.5s43 -54.166 43 -95.499v-77h-127v82c0 8 -1.83301 15 -5.5 21s-9.5 9 -17.5 9s-13.667 -3 -17 -9s-5 -13 -5 -21v-338c0 -8.66699 1.66699 -15.834 5 -21.501s9 -8.5 17 -8.5s13.833 2.83301 17.5 8.5s5.5 12.834 5.5 21.501v110h127
z" />
    <glyph glyph-name="ntilde" unicode="&#x441;" horiz-adv-x="333" 
d="M316 227l-0.000976562 -105c0 -41.333 -15 -73.666 -45 -96.999c-27.333 -21.333 -62.333 -32 -105 -32c-43.333 0 -78.333 10.667 -105 32c-29.333 23.333 -44 55.666 -44 96.999v328c0 41.333 14 73.166 42 95.499s63.667 33.5 107 33.5
c42.667 0 78.334 -11.167 107.001 -33.5s43 -54.166 43 -95.499v-77h-127v82c0 8 -1.83301 15 -5.5 21s-9.5 9 -17.5 9s-13.667 -3 -17 -9s-5 -13 -5 -21v-338c0 -8.66699 1.66699 -15.834 5 -21.501s9 -8.5 17 -8.5s13.833 2.83301 17.5 8.5s5.5 12.834 5.5 21.501v110h127
z" />
    <glyph glyph-name="ograve" unicode="&#xf2;" horiz-adv-x="296" 
d="M211 481v-481h-127v481h-84v91h296v-91h-85z" />
    <glyph glyph-name="ograve" unicode="&#x442;" horiz-adv-x="296" 
d="M211 481v-481h-127v481h-84v91h296v-91h-85z" />
    <glyph glyph-name="oacute" unicode="&#xf3;" horiz-adv-x="333" 
d="M210 572h118l-90 -578c-8 -51.333 -21 -84.5 -39 -99.5s-57.667 -22.5 -119 -22.5h-64v94h40c24 0 36 8.66699 36 26l-1 17l-87 563h127l35 -437z" />
    <glyph glyph-name="oacute" unicode="&#x443;" horiz-adv-x="333" 
d="M210 572h118l-90 -578c-8 -51.333 -21 -84.5 -39 -99.5s-57.667 -22.5 -119 -22.5h-64v94h40c24 0 36 8.66699 36 26l-1 17l-87 563h127l35 -437z" />
    <glyph glyph-name="ocircumflex" unicode="&#xf4;" horiz-adv-x="500" 
d="M186 712l127 -0.000976562v-195c6.66699 20 17.334 35.333 32.001 46s31.667 16 51 16c36 0 60.667 -12.667 74 -38c10 -18.667 15 -47.667 15 -87v-333c0 -50.667 -7.83301 -84.667 -23.5 -102s-37.5 -26 -65.5 -26c-18.667 0 -35.334 5.83301 -50.001 17.5
s-25 26.5 -31 44.5l-2 -183h-127v183c-6.66699 -16.667 -17.667 -31.167 -33 -43.5s-32 -18.5 -50 -18.5c-36 0 -60.667 12.667 -74 38c-10 18.667 -15 47.667 -15 87v333c0 50.667 8.33301 85.334 25 104.001c14.667 16 36 24 64 24c19.333 0 36.333 -5.33301 51 -16
s24.667 -26 30 -46zM313 444.999v-318c0 -8.66699 1.66699 -15.834 5 -21.501s9 -8.5 17 -8.5s13.833 2.83301 17.5 8.5s5.5 12.834 5.5 21.501v318c0 8 -1.83301 15 -5.5 21s-9.5 9 -17.5 9s-13.667 -3 -17 -9s-5 -13 -5 -21zM141 444.999v-318
c0 -8.66699 1.66699 -15.834 5 -21.501s9 -8.5 17 -8.5s13.833 2.83301 17.5 8.5s5.5 12.834 5.5 21.501v318c0 8 -1.83301 15 -5.5 21s-9.5 9 -17.5 9s-13.667 -3 -17 -9s-5 -13 -5 -21z" />
    <glyph glyph-name="ocircumflex" unicode="&#x444;" horiz-adv-x="500" 
d="M186 712l127 -0.000976562v-195c6.66699 20 17.334 35.333 32.001 46s31.667 16 51 16c36 0 60.667 -12.667 74 -38c10 -18.667 15 -47.667 15 -87v-333c0 -50.667 -7.83301 -84.667 -23.5 -102s-37.5 -26 -65.5 -26c-18.667 0 -35.334 5.83301 -50.001 17.5
s-25 26.5 -31 44.5l-2 -183h-127v183c-6.66699 -16.667 -17.667 -31.167 -33 -43.5s-32 -18.5 -50 -18.5c-36 0 -60.667 12.667 -74 38c-10 18.667 -15 47.667 -15 87v333c0 50.667 8.33301 85.334 25 104.001c14.667 16 36 24 64 24c19.333 0 36.333 -5.33301 51 -16
s24.667 -26 30 -46zM313 444.999v-318c0 -8.66699 1.66699 -15.834 5 -21.501s9 -8.5 17 -8.5s13.833 2.83301 17.5 8.5s5.5 12.834 5.5 21.501v318c0 8 -1.83301 15 -5.5 21s-9.5 9 -17.5 9s-13.667 -3 -17 -9s-5 -13 -5 -21zM141 444.999v-318
c0 -8.66699 1.66699 -15.834 5 -21.501s9 -8.5 17 -8.5s13.833 2.83301 17.5 8.5s5.5 12.834 5.5 21.501v318c0 8 -1.83301 15 -5.5 21s-9.5 9 -17.5 9s-13.667 -3 -17 -9s-5 -13 -5 -21z" />
    <glyph glyph-name="otilde" unicode="&#xf5;" horiz-adv-x="333" 
d="M1 0l71 301l-65 271h133l34 -218l36 218h117l-63 -275l68 -297h-134l-36 231l-43 -231h-118z" />
    <glyph glyph-name="otilde" unicode="&#x445;" horiz-adv-x="333" 
d="M1 0l71 301l-65 271h133l34 -218l36 218h117l-63 -275l68 -297h-134l-36 231l-43 -231h-118z" />
    <glyph glyph-name="odieresis" unicode="&#xf6;" horiz-adv-x="333" 
d="M219 0h-202v572h127v-462h45v462h127v-462h17v-218h-114v108z" />
    <glyph glyph-name="odieresis" unicode="&#x446;" horiz-adv-x="333" 
d="M219 0h-202v572h127v-462h45v462h127v-462h17v-218h-114v108z" />
    <glyph glyph-name="divide" unicode="&#xf7;" horiz-adv-x="333" 
d="M17 322l-0.000976562 250h127v-203c0 -14 5.33301 -21 16 -21c10 0 19.667 7 29 21v203h127v-572h-127v268c-21.333 -23.333 -49.333 -35 -84 -35c-25.333 0 -45.666 6.66699 -60.999 20c-18 15.333 -27 38.333 -27 69z" />
    <glyph glyph-name="divide" unicode="&#x447;" horiz-adv-x="333" 
d="M17 322l-0.000976562 250h127v-203c0 -14 5.33301 -21 16 -21c10 0 19.667 7 29 21v203h127v-572h-127v268c-21.333 -23.333 -49.333 -35 -84 -35c-25.333 0 -45.666 6.66699 -60.999 20c-18 15.333 -27 38.333 -27 69z" />
    <glyph glyph-name="oslash" unicode="&#xf8;" horiz-adv-x="500" 
d="M17 0v572h127v-471h42v471h127v-471h42v471h127v-572h-465z" />
    <glyph glyph-name="oslash" unicode="&#x448;" horiz-adv-x="500" 
d="M17 0v572h127v-471h42v471h127v-471h42v471h127v-572h-465z" />
    <glyph glyph-name="ugrave" unicode="&#xf9;" horiz-adv-x="500" 
d="M385 0h-368v572h127v-471h42v471h127v-471h42v471h127v-471h17v-188h-114v87z" />
    <glyph glyph-name="ugrave" unicode="&#x449;" horiz-adv-x="500" 
d="M385 0h-368v572h127v-471h42v471h127v-471h42v471h127v-471h17v-188h-114v87z" />
    <glyph glyph-name="uacute" unicode="&#xfa;" horiz-adv-x="367" 
d="M50 490l-49 -0.00195312v82h176v-219h23c44 0 78.667 -8.33301 104 -25c30 -19.333 45 -49.666 45 -90.999v-121c0 -41.333 -15 -71.666 -45 -90.999c-25.333 -16.667 -60 -25 -104 -25h-150v490zM177 90.998h16c19.333 0 29 12 29 36v99c0 24 -9.66699 36 -29 36h-16
v-171z" />
    <glyph glyph-name="uacute" unicode="&#x44a;" horiz-adv-x="367" 
d="M50 490l-49 -0.00195312v82h176v-219h23c44 0 78.667 -8.33301 104 -25c30 -19.333 45 -49.666 45 -90.999v-121c0 -41.333 -15 -71.666 -45 -90.999c-25.333 -16.667 -60 -25 -104 -25h-150v490zM177 90.998h16c19.333 0 29 12 29 36v99c0 24 -9.66699 36 -29 36h-16
v-171z" />
    <glyph glyph-name="ucircumflex" unicode="&#xfb;" horiz-adv-x="501" 
d="M482 0h-127v572h127v-572zM144 572v-219.002h23c44 0 78.667 -8.33301 104 -25c30 -19.333 45 -49.666 45 -90.999v-121c0 -41.333 -15 -71.666 -45 -90.999c-25.333 -16.667 -60 -25 -104 -25h-150v572h127zM144 90.998h15.001c11.333 0 19.166 2.5 23.499 7.5
s6.5 14.5 6.5 28.5v99c0 24 -10 36 -30 36h-15v-171z" />
    <glyph glyph-name="ucircumflex" unicode="&#x44b;" horiz-adv-x="501" 
d="M482 0h-127v572h127v-572zM144 572v-219.002h23c44 0 78.667 -8.33301 104 -25c30 -19.333 45 -49.666 45 -90.999v-121c0 -41.333 -15 -71.666 -45 -90.999c-25.333 -16.667 -60 -25 -104 -25h-150v572h127zM144 90.998h15.001c11.333 0 19.166 2.5 23.499 7.5
s6.5 14.5 6.5 28.5v99c0 24 -10 36 -30 36h-15v-171z" />
    <glyph glyph-name="udieresis" unicode="&#xfc;" horiz-adv-x="333" 
d="M144 572v-219.002h23c44 0 78.667 -8.33301 104 -25c30 -19.333 45 -49.666 45 -90.999v-121c0 -41.333 -15 -71.666 -45 -90.999c-25.333 -16.667 -60 -25 -104 -25h-150v572h127zM144 90.998h15.001c11.333 0 19.166 2.5 23.499 7.5s6.5 14.5 6.5 28.5v99
c0 24 -10 36 -30 36h-15v-171z" />
    <glyph glyph-name="udieresis" unicode="&#x44c;" horiz-adv-x="333" 
d="M144 572v-219.002h23c44 0 78.667 -8.33301 104 -25c30 -19.333 45 -49.666 45 -90.999v-121c0 -41.333 -15 -71.666 -45 -90.999c-25.333 -16.667 -60 -25 -104 -25h-150v572h127zM144 90.998h15.001c11.333 0 19.166 2.5 23.499 7.5s6.5 14.5 6.5 28.5v99
c0 24 -10 36 -30 36h-15v-171z" />
    <glyph glyph-name="yacute" unicode="&#xfd;" horiz-adv-x="333" 
d="M189 346l-0.000976562 109c0 8.66699 -1.66699 15.834 -5 21.501s-9 8.5 -17 8.5s-13.833 -2.83301 -17.5 -8.5s-5.5 -12.834 -5.5 -21.501v-82h-127v77c0 41.333 14.333 73.166 43 95.499s64.334 33.5 107.001 33.5c43.333 0 79 -11.167 107 -33.5
s42 -54.166 42 -95.499v-328c0 -41.333 -14.667 -73.666 -44 -96.999c-26.667 -21.333 -61.667 -32 -105 -32c-42.667 0 -77.667 10.667 -105 32c-30 23.333 -45 55.666 -45 96.999v105h127v-110c0 -8 1.83301 -15 5.5 -21s9.5 -9 17.5 -9s13.667 3 17 9s5 13 5 21v134h-81
v95h81z" />
    <glyph glyph-name="yacute" unicode="&#x44d;" horiz-adv-x="333" 
d="M189 346l-0.000976562 109c0 8.66699 -1.66699 15.834 -5 21.501s-9 8.5 -17 8.5s-13.833 -2.83301 -17.5 -8.5s-5.5 -12.834 -5.5 -21.501v-82h-127v77c0 41.333 14.333 73.166 43 95.499s64.334 33.5 107.001 33.5c43.333 0 79 -11.167 107 -33.5
s42 -54.166 42 -95.499v-328c0 -41.333 -14.667 -73.666 -44 -96.999c-26.667 -21.333 -61.667 -32 -105 -32c-42.667 0 -77.667 10.667 -105 32c-30 23.333 -45 55.666 -45 96.999v105h127v-110c0 -8 1.83301 -15 5.5 -21s9.5 -9 17.5 -9s13.667 3 17 9s5 13 5 21v134h-81
v95h81z" />
    <glyph glyph-name="thorn" unicode="&#xfe;" horiz-adv-x="500" 
d="M183 268h-39.001v-268h-127v572h127v-203h39v81c0 41.333 14 73.166 42 95.499s63.667 33.5 107 33.5c42.667 0 78.334 -11.167 107.001 -33.5s43 -54.166 43 -95.499v-328c0 -41.333 -15 -73.666 -45 -96.999c-27.333 -21.333 -62.333 -32 -105 -32
c-43.333 0 -78.333 10.667 -105 32c-29.333 23.333 -44 55.666 -44 96.999v146zM354.999 117v338c0 8 -1.83301 15 -5.5 21s-9.5 9 -17.5 9s-13.667 -3 -17 -9s-5 -13 -5 -21v-338c0 -8.66699 1.66699 -15.834 5 -21.501s9 -8.5 17 -8.5s13.833 2.83301 17.5 8.5
s5.5 12.834 5.5 21.501z" />
    <glyph glyph-name="thorn" unicode="&#x44e;" horiz-adv-x="500" 
d="M183 268h-39.001v-268h-127v572h127v-203h39v81c0 41.333 14 73.166 42 95.499s63.667 33.5 107 33.5c42.667 0 78.334 -11.167 107.001 -33.5s43 -54.166 43 -95.499v-328c0 -41.333 -15 -73.666 -45 -96.999c-27.333 -21.333 -62.333 -32 -105 -32
c-43.333 0 -78.333 10.667 -105 32c-29.333 23.333 -44 55.666 -44 96.999v146zM354.999 117v338c0 8 -1.83301 15 -5.5 21s-9.5 9 -17.5 9s-13.667 -3 -17 -9s-5 -13 -5 -21v-338c0 -8.66699 1.66699 -15.834 5 -21.501s9 -8.5 17 -8.5s13.833 2.83301 17.5 8.5
s5.5 12.834 5.5 21.501z" />
    <glyph glyph-name="ydieresis" unicode="&#xff;" horiz-adv-x="333" 
d="M189 0v262.002c-20 0 -32.5 -5 -37.5 -15s-7.5 -25.667 -7.5 -47v-126c0 -18 -1.5 -32.5 -4.5 -43.5s-7.16699 -21.167 -12.5 -30.5h-129c8 24.667 12 37.334 12 38.001c4.66699 18.667 7 39.667 7 63v106c0 28 7.16699 49.167 21.5 63.5s36.5 25.166 66.5 32.499
c-28 4.66699 -49.667 16.667 -65 36s-23 41.666 -23 66.999v50c0 41.333 15 71.666 45 90.999c25.333 16.667 60.333 25 105 25h149v-572h-127zM189 481.002h-15.002c-11.333 0 -19.166 -2.5 -23.499 -7.5s-6.5 -14.5 -6.5 -28.5v-70c0 -14 2.33301 -23.667 7 -29
s12.334 -8 23.001 -8h15v143z" />
    <glyph glyph-name="ydieresis" unicode="&#x44f;" horiz-adv-x="333" 
d="M189 0v262.002c-20 0 -32.5 -5 -37.5 -15s-7.5 -25.667 -7.5 -47v-126c0 -18 -1.5 -32.5 -4.5 -43.5s-7.16699 -21.167 -12.5 -30.5h-129c8 24.667 12 37.334 12 38.001c4.66699 18.667 7 39.667 7 63v106c0 28 7.16699 49.167 21.5 63.5s36.5 25.166 66.5 32.499
c-28 4.66699 -49.667 16.667 -65 36s-23 41.666 -23 66.999v50c0 41.333 15 71.666 45 90.999c25.333 16.667 60.333 25 105 25h149v-572h-127zM189 481.002h-15.002c-11.333 0 -19.166 -2.5 -23.499 -7.5s-6.5 -14.5 -6.5 -28.5v-70c0 -14 2.33301 -23.667 7 -29
s12.334 -8 23.001 -8h15v143z" />
    <glyph glyph-name="OE" unicode="&#x152;" horiz-adv-x="561" 
d="M351 102h17c12 0 20.5 3.33301 25.5 10s7.5 18.334 7.5 35.001v140c0 17.333 -2.5 29.166 -7.5 35.499s-13.5 9.5 -25.5 9.5h-17v-230zM210 332h-50v-332h-141v712h141v-266h50v266h141v-278h25c48.667 0 87.334 -10.333 116.001 -31c33.333 -24 50 -61.667 50 -113v-146
c0 -51.333 -16.667 -89 -50 -113c-28.667 -20.667 -67.334 -31 -116.001 -31h-166v332z" />
    <glyph glyph-name="OE" unicode="&#x40a;" horiz-adv-x="561" 
d="M351 102h17c12 0 20.5 3.33301 25.5 10s7.5 18.334 7.5 35.001v140c0 17.333 -2.5 29.166 -7.5 35.499s-13.5 9.5 -25.5 9.5h-17v-230zM210 332h-50v-332h-141v712h141v-266h50v266h141v-278h25c48.667 0 87.334 -10.333 116.001 -31c33.333 -24 50 -61.667 50 -113v-146
c0 -51.333 -16.667 -89 -50 -113c-28.667 -20.667 -67.334 -31 -116.001 -31h-166v332z" />
    <glyph glyph-name="oe" unicode="&#x153;" horiz-adv-x="500" 
d="M316 91h15.001c11.333 0 19.166 2.5 23.499 7.5s6.5 14.5 6.5 28.5v99c0 24 -10 36 -30 36h-15v-171zM189.001 268l-45 -0.00195312v-268h-127v572h127v-203h45v203h127v-219h23c44 0 78.667 -8.33301 104 -25c30 -19.333 45 -49.666 45 -90.999v-121
c0 -41.333 -15 -71.666 -45 -90.999c-25.333 -16.667 -60 -25 -104 -25h-150v268z" />
    <glyph glyph-name="oe" unicode="&#x45a;" horiz-adv-x="500" 
d="M316 91h15.001c11.333 0 19.166 2.5 23.499 7.5s6.5 14.5 6.5 28.5v99c0 24 -10 36 -30 36h-15v-171zM189.001 268l-45 -0.00195312v-268h-127v572h127v-203h45v203h127v-219h23c44 0 78.667 -8.33301 104 -25c30 -19.333 45 -49.666 45 -90.999v-121
c0 -41.333 -15 -71.666 -45 -90.999c-25.333 -16.667 -60 -25 -104 -25h-150v268z" />
    <glyph glyph-name="Scaron" unicode="&#x160;" horiz-adv-x="580" 
d="M370 102h17c12 0 20.5 3.33301 25.5 10s7.5 18.334 7.5 35.001v140c0 17.333 -2.5 29.166 -7.5 35.499s-13.5 9.5 -25.5 9.5h-17v-230zM370 712v-278h25c48.667 0 87.334 -10.333 116.001 -31c33.333 -24 50 -61.667 50 -113v-146c0 -51.333 -16.667 -89 -50 -113
c-28.667 -20.667 -67.334 -31 -116.001 -31h-166v598h-50v-417c0 -62.667 -13 -110 -39 -142c-28.667 -35.333 -75 -53 -139 -53v126c31.333 0 47 23 47 69v531h322z" />
    <glyph glyph-name="Scaron" unicode="&#x409;" horiz-adv-x="580" 
d="M370 102h17c12 0 20.5 3.33301 25.5 10s7.5 18.334 7.5 35.001v140c0 17.333 -2.5 29.166 -7.5 35.499s-13.5 9.5 -25.5 9.5h-17v-230zM370 712v-278h25c48.667 0 87.334 -10.333 116.001 -31c33.333 -24 50 -61.667 50 -113v-146c0 -51.333 -16.667 -89 -50 -113
c-28.667 -20.667 -67.334 -31 -116.001 -31h-166v598h-50v-417c0 -62.667 -13 -110 -39 -142c-28.667 -35.333 -75 -53 -139 -53v126c31.333 0 47 23 47 69v531h322z" />
    <glyph glyph-name="scaron" unicode="&#x161;" horiz-adv-x="518" 
d="M333 91h15.001c11.333 0 19.166 2.5 23.499 7.5s6.5 14.5 6.5 28.5v99c0 24 -10 36 -30 36h-15v-171zM206.001 471l-44.999 -0.00292969v-317c0 -51.333 -11.667 -90.666 -35 -117.999c-26.667 -31.333 -68.334 -47 -125.001 -47v110c28 0 42 18.333 42 55v418h290v-219
h23c44 0 78.667 -8.33301 104 -25c30 -19.333 45 -49.666 45 -90.999v-121c0 -41.333 -15 -71.666 -45 -90.999c-25.333 -16.667 -60 -25 -104 -25h-150v471z" />
    <glyph glyph-name="scaron" unicode="&#x459;" horiz-adv-x="518" 
d="M333 91h15.001c11.333 0 19.166 2.5 23.499 7.5s6.5 14.5 6.5 28.5v99c0 24 -10 36 -30 36h-15v-171zM206.001 471l-44.999 -0.00292969v-317c0 -51.333 -11.667 -90.666 -35 -117.999c-26.667 -31.333 -68.334 -47 -125.001 -47v110c28 0 42 18.333 42 55v418h290v-219
h23c44 0 78.667 -8.33301 104 -25c30 -19.333 45 -49.666 45 -90.999v-121c0 -41.333 -15 -71.666 -45 -90.999c-25.333 -16.667 -60 -25 -104 -25h-150v471z" />
    <glyph glyph-name="Ydieresis" unicode="&#x178;" horiz-adv-x="333" 
d="M109 0h-92v572h127v-462h45v462h127v-572h-93v-108h-114v108z" />
    <glyph glyph-name="Ydieresis" unicode="&#x45f;" horiz-adv-x="333" 
d="M109 0h-92v572h127v-462h45v462h127v-572h-93v-108h-114v108z" />
    <glyph glyph-name="florin" unicode="&#x192;" horiz-adv-x="259" 
d="M144 0h-127v572h240v-91h-113v-481zM106 620h-55l95 135h97z" />
    <glyph glyph-name="florin" unicode="&#x453;" horiz-adv-x="259" 
d="M144 0h-127v572h240v-91h-113v-481zM106 620h-55l95 135h97z" />
    <glyph glyph-name="endash" unicode="&#x2013;" horiz-adv-x="500" 
d="M500 266h-500v88h500v-88z" />
    <glyph glyph-name="emdash" unicode="&#x2014;" horiz-adv-x="1000" 
d="M1000 266h-1000v88h1000v-88z" />
    <glyph glyph-name="quoteleft" unicode="&#x2018;" horiz-adv-x="167" 
d="M73 457l-64 255h121l28 -255h-85z" />
    <glyph glyph-name="quoteright" unicode="&#x2019;" horiz-adv-x="167" 
d="M94 457h-85l28 255h121z" />
    <glyph glyph-name="quotesinglbase" unicode="&#x201a;" horiz-adv-x="167" 
d="M94 -107h-85l28 255h121z" />
    <glyph glyph-name="quotedblleft" unicode="&#x201c;" horiz-adv-x="333" 
d="M72 457l-64 255h121l28 -255h-85zM239 457l-64 255h121l28 -255h-85z" />
    <glyph glyph-name="quotedblright" unicode="&#x201d;" horiz-adv-x="333" 
d="M94 457h-85l28 255h121zM261 457h-85l28 255h121z" />
    <glyph glyph-name="quotedblbase" unicode="&#x201e;" horiz-adv-x="333" 
d="M94 -107h-85l28 255h121zM261 -107h-85l28 255h121z" />
    <glyph glyph-name="dagger" unicode="&#x2020;" horiz-adv-x="426" 
d="M20 505h130v207h127v-207h129v-122h-129v-456h-127v456h-130v122z" />
    <glyph glyph-name="daggerdbl" unicode="&#x2021;" horiz-adv-x="426" 
d="M150 -62v179h-130v122h130v170h-130v122h130v181h127v-181h129v-122h-129v-170h129v-122h-129v-179h-127z" />
    <glyph glyph-name="bullet" unicode="&#x2022;" horiz-adv-x="500" 
d="M425 356c0 -48.667 -17 -90 -51 -124s-75.333 -51 -124 -51c-49.333 0 -90.833 16.833 -124.5 50.5s-50.5 75.167 -50.5 124.5s16.833 90.833 50.5 124.5s75.167 50.5 124.5 50.5c48.667 0 90 -17 124 -51s51 -75.333 51 -124z" />
    <glyph glyph-name="ellipsis" unicode="&#x2026;" horiz-adv-x="1000" 
d="M230 0h-127v148h127v-148zM563 0h-127v148h127v-148zM896 0h-127v148h127v-148z" />
    <glyph glyph-name="perthousand" unicode="&#x2030;" horiz-adv-x="759" 
d="M617 255v-173c0 -16 6.66699 -24 20 -24s20 8 20 24v173c0 16 -6.66699 24 -20 24s-20 -8 -20 -24zM527 106v125c0 70.667 36.667 106 110 106s110 -35.333 110 -106v-125c0 -70.667 -36.667 -106 -110 -106s-110 35.333 -110 106zM364 255v-173
c0 -16 6.66699 -24 20 -24s20 8 20 24v173c0 16 -6.66699 24 -20 24s-20 -8 -20 -24zM274 106v125c0 70.667 36.667 106 110 106s110 -35.333 110 -106v-125c0 -70.667 -36.667 -106 -110 -106s-110 35.333 -110 106zM11 481v125c0 70.667 36.667 106 110 106
s110 -35.333 110 -106v-125c0 -70.667 -36.667 -106 -110 -106s-110 35.333 -110 106zM77 -14l292 740h65l-292 -740h-65zM101 630v-173c0 -16 6.66699 -24 20 -24s20 8 20 24v173c0 16 -6.66699 24 -20 24s-20 -8 -20 -24z" />
    <glyph glyph-name="guilsinglleft" unicode="&#x2039;" horiz-adv-x="167" 
d="M154 535v-135l-87 -90l87 -90v-135l-141 158v134z" />
    <glyph glyph-name="guilsinglright" unicode="&#x203a;" horiz-adv-x="167" 
d="M13 400v135l141 -158v-134l-141 -158v135l87 90z" />
    <glyph glyph-name="trademark" unicode="&#x2122;" horiz-adv-x="1000" 
d="M380 712v-92h-111v-320h-122v320h-111v92h344zM630 712l89 -239l89 239h156v-412h-108v270l-93 -270h-88l-91 270l-2 -270h-108v412h156z" />
    <glyph glyph-name=".null" horiz-adv-x="0" 
 />
    <glyph glyph-name="nonmarkingreturn" horiz-adv-x="185" 
 />
    </font>
</defs>
</svg>
