<?xml version="1.0" standalone="no"?>
<!DOCTYPE svg PUBLIC "-//W3C//DTD SVG 1.1//EN" "http://www.w3.org/Graphics/SVG/1.1/DTD/svg11.dtd" >
<svg>
<metadata>
Created by FontForge 20090914 at Sat Jun 22 08:19:55 2013
 By www-data
 1993 AG Fonts, Tilde Ltd. Created by Andrejs Grinbergs.
</metadata>
<defs>
<font id="AGLettericaCondL-Regular" horiz-adv-x="444" >
  <font-face 
    font-family="AGLettericaCondL"
    font-weight="500"
    font-stretch="normal"
    units-per-em="1000"
    panose-1="2 0 6 6 4 0 0 2 0 4"
    ascent="800"
    descent="-200"
    x-height="552"
    cap-height="750"
    bbox="-40 -191 1000 943"
    underline-thickness="58"
    underline-position="-32"
    unicode-range="U+0020-U+2202"
  />
<missing-glyph horiz-adv-x="500" 
 />
    <glyph glyph-name=".notdef" horiz-adv-x="500" 
 />
    <glyph glyph-name="space" unicode=" " horiz-adv-x="222" 
 />
    <glyph glyph-name="space" unicode="&#xa0;" horiz-adv-x="222" 
 />
    <glyph glyph-name="exclam" unicode="!" horiz-adv-x="222" 
d="M93 189l-8 181c-2.66699 60 -4 120.333 -4 181v199h64v-199c0 -60.667 -1.33301 -121 -4 -181l-8 -181h-40zM77 13v88h69v-88h-69z" />
    <glyph glyph-name="quotedbl" unicode="&#x22;" horiz-adv-x="309" 
d="M73 750h52v-226h-52v226zM184 750h52v-226h-52v226z" />
    <glyph glyph-name="numbersign" unicode="#" 
d="M113 249h-100l15 51h97l34 131h-99l15 51h96l65 262h48l-66 -262h70l65 262h47l-65 -262h96l-15 -51h-92l-34 -131h94l-15 -51h-91l-62 -249h-50l64 249h-70l-64 -249h-47zM242 300l34 131h-69l-35 -131h70z" />
    <glyph glyph-name="dollar" unicode="$" 
d="M197 660c-36 -5.33301 -61.499 -19.5 -76.499 -42.5s-22.5 -51.5 -22.5 -85.5c0 -24 7.66699 -48.333 23 -73s40.666 -43.667 75.999 -57v258zM244.001 37c18.667 0.666992 35.334 5 50.001 13s26.667 18.333 36 31s16.5 27.167 21.5 43.5s7.5 33.5 7.5 51.5
c0 18.667 -3 35.167 -9 49.5s-14.333 27 -25 38s-22.834 20.667 -36.501 29s-28.5 15.833 -44.5 22.5v-278zM244.001 -96l-46.999 -0.00390625v82c-32 2.66699 -59.167 10.334 -81.5 23.001s-40.333 29 -54 49s-23.334 43 -29.001 69s-7.83398 54 -6.50098 84h60
c-1.33301 -20 -0.5 -39.833 2.5 -59.5s8.66699 -37.5 17 -53.5s19.833 -29.5 34.5 -40.5s33.667 -17.5 57 -19.5v298c-23.333 10 -44.833 21 -64.5 33s-36.667 25.833 -51 41.5s-25.666 33.834 -33.999 54.501s-12.5 44.667 -12.5 72c0 8.66699 1.5 22 4.5 40
s10 36.167 21 54.5s27.167 35.166 48.5 50.499s50.666 25 87.999 29v67h47v-62c31.333 -6.66699 57 -16.667 77 -30s35.833 -28.666 47.5 -45.999s19.667 -36.166 24 -56.499s6.5 -40.5 6.5 -60.5h-58c0 14 -1.66699 28.333 -5 43s-8.66602 28.167 -15.999 40.5
s-17.333 23.333 -30 33s-28 16.5 -46 20.5v-278c16.667 -7.33301 36.667 -17.166 60 -29.499s43.333 -26.166 60 -41.499c18.667 -17.333 32.667 -36.333 42 -57s14 -46.334 14 -77.001c0 -55.333 -15.667 -99.5 -47 -132.5s-74.333 -52.5 -129 -58.5v-82z" />
    <glyph glyph-name="ampersand" unicode="&#x26;" horiz-adv-x="611" 
d="M242 383c-17.333 -13.333 -33 -26.502 -47 -39.502s-26 -27.167 -36 -42.5s-17.667 -32.166 -23 -50.499s-8 -39.166 -8 -62.499c0 -45.333 13 -81.333 39 -108s60.333 -40 103 -40c32 0 60 5.83301 84 17.5s44.667 32.167 62 61.5zM260 469.998
c25.333 17.333 46.333 39.832 63 67.499s25 57.5 25 89.5c0 28 -6 48.833 -18 62.5s-31.667 20.5 -59 20.5c-24 0 -42.667 -6.66699 -56 -20s-20 -32.666 -20 -57.999c0 -30.667 6.5 -59.5 19.5 -86.5s28.167 -52.167 45.5 -75.5zM215 430.997l-30.999 47.0088
c-9.33301 14.667 -17.5 29.834 -24.5 45.501s-12.5 32 -16.5 49s-6 36.167 -6 57.5c0 44 12.667 78 38 102s58.666 36 99.999 36c19.333 0 37.5 -3 54.5 -9s31.667 -14.833 44 -26.5s22 -25.834 29 -42.501s10.5 -35.334 10.5 -56.001c0 -24 -3 -45.833 -9 -65.5
s-14.333 -37.834 -25 -54.501s-23.5 -32.334 -38.5 -47.001s-31.167 -28.334 -48.5 -41.001l156 -244c0 1.33301 0.333008 2.33301 1 3s1.33398 1.66699 2.00098 3c8.66699 25.333 14.667 50.833 18 76.5s5.33301 51.834 6 78.501h65
c0 -14.667 -1.16699 -31.334 -3.5 -50.001s-5.5 -37.834 -9.5 -57.501s-8.83301 -38.334 -14.5 -56.001s-11.834 -32.834 -18.501 -45.501l-4 -8l83 -133h-71l-51 76c-0.666992 -0.666992 -1.16699 -1.33398 -1.5 -2.00098s-0.833008 -1.33398 -1.5 -2.00098
c-24.667 -30 -51.5 -51.333 -80.5 -64s-62.167 -19 -99.5 -19c-63.333 0 -113.333 18.667 -150 56s-55 89.333 -55 156c0 28 4.16699 53.333 12.5 76s19.5 43.5 33.5 62.5s30.167 36.5 48.5 52.5s37.5 31.333 57.5 46z" />
    <glyph glyph-name="quotesingle" unicode="'" horiz-adv-x="198" 
d="M73 750h52v-226h-52v226z" />
    <glyph glyph-name="parenleft" unicode="(" horiz-adv-x="278" 
d="M244 768c-46 -70 -78.667 -144.666 -98 -223.999s-29 -161 -29 -245c0 -88 9.33301 -173 28 -255s51.667 -160.333 99 -235h-47c-50 76 -86.667 153.667 -110 233s-35 164.666 -35 255.999c0 83.333 11.833 165.5 35.5 246.5s60.167 155.5 109.5 223.5h47z" />
    <glyph glyph-name="parenright" unicode=")" horiz-adv-x="278" 
d="M34 -191c46 69.333 78.667 144 98 224s29 161.333 29 244c0 88 -9 171 -27 249s-49 155.333 -93 232c-1.33301 1.33301 -2.5 3 -3.5 5s-2.16699 3.66699 -3.5 5h47c46.667 -70.667 82.5 -146.5 107.5 -227.5s37.5 -164.167 37.5 -249.5
c0 -86.667 -11.333 -171.167 -34 -253.5s-59.667 -158.5 -111 -228.5h-47z" />
    <glyph glyph-name="asterisk" unicode="*" horiz-adv-x="389" 
d="M48 630l14 42l112 -42v114h44v-114l111 42l13 -45l-109 -36l72 -105l-36 -24l-75 107l-77 -107l-35 27l74 104z" />
    <glyph glyph-name="plus" unicode="+" 
d="M21 220v51h176v219h51v-219h176v-51h-176v-220h-51v220h-176z" />
    <glyph glyph-name="comma" unicode="," horiz-adv-x="222" 
d="M77 -99c8 3.33301 14.1689 8.33301 18.502 15s7.33301 14 9 22s2.5 16.333 2.5 25v24v13h-30v88h69v-56v-35c0 -12 -0.666992 -24 -2 -36c-2.66699 -30 -8.83398 -52.167 -18.501 -66.5s-25.834 -24.5 -48.501 -30.5v37z" />
    <glyph glyph-name="hyphen" unicode="-" horiz-adv-x="333" 
d="M315 323v-45h-296v45h296z" />
    <glyph glyph-name="period" unicode="." horiz-adv-x="222" 
d="M77 0v88h69v-88h-69z" />
    <glyph glyph-name="slash" unicode="/" horiz-adv-x="278" 
d="M234 750h55l-245 -844h-54z" />
    <glyph glyph-name="zero" unicode="0" 
d="M37 370c0 80 5.16797 144.333 15.501 193s24 86.5 41 113.5s36.833 45 59.5 54s46.667 13.5 72 13.5c32.667 0 60 -7.16699 82 -21.5s39.667 -33 53 -56s23.333 -49 30 -78s11.167 -58 13.5 -87s3.5 -56.5 3.5 -82.5v-66c0 -44.667 -1.66699 -89 -5 -133
s-11.5 -83.333 -24.5 -118s-32 -62.667 -57 -84s-58.833 -32 -101.5 -32c-40.667 0 -73 10.333 -97 31s-42.333 48.5 -55 83.5s-20.834 75.833 -24.501 122.5s-5.5 95.667 -5.5 147zM102.001 353c0 -58 2.16699 -106.831 6.5 -146.498s11 -71.834 20 -96.501
s20.833 -42.5 35.5 -53.5s32.667 -16.5 54 -16.5c7.33301 0 15.333 0.5 24 1.5s17.667 4.5 27 10.5s18.333 15.5 27 28.5s16.5 31.167 23.5 54.5s12.5 53.166 16.5 89.499s6 80.833 6 133.5c0 48 -1 92.333 -3 133s-7.16699 75.667 -15.5 105s-20.833 52.333 -37.5 69
s-40 25 -70 25c-20.667 0 -38.167 -5.66699 -52.5 -17s-26 -30 -35 -56s-15.667 -60.5 -20 -103.5s-6.5 -96.5 -6.5 -160.5z" />
    <glyph glyph-name="one" unicode="1" 
d="M60 607c25.333 0.666992 47.999 3.00098 67.999 7.00098s37.167 11 51.5 21s25.833 23.667 34.5 41s14.334 40 17.001 68h53v-744h-65v572c-13.333 -2.66699 -26 -4.33398 -38 -5.00098s-24.333 -1.66699 -37 -3c-14 -1.33301 -28 -2.5 -42 -3.5s-28 -1.16699 -42 -0.5
v47z" />
    <glyph glyph-name="two" unicode="2" 
d="M396 61l-0.00195312 -60.998h-362v52c1.33301 30 5.33301 54.833 12 74.5s15.834 37.5 27.501 53.5s25.5 31.667 41.5 47l54 53l68 69c20 20 37 39.667 51 59s24.667 40.166 32 62.499s11 49.166 11 80.499c0 14.667 -1.83301 30 -5.5 46s-9.5 30.667 -17.5 44
s-18 24.5 -30 33.5s-26.333 14.167 -43 15.5c-27.333 3.33301 -49.5 0.666016 -66.5 -8.00098s-30.333 -21 -40 -37s-16.334 -34.833 -20.001 -56.5s-5.83398 -43.5 -6.50098 -65.5h-62c-1.33301 29.333 1.33398 57.333 8.00098 84s17.334 50.167 32.001 70.5
s33.5 36.5 56.5 48.5s50.5 18 82.5 18c26 0 49.833 -4.66699 71.5 -14s40.334 -22.666 56.001 -39.999s27.834 -38.166 36.501 -62.499s13 -51.833 13 -82.5c0 -40 -8.5 -77.333 -25.5 -112s-38.333 -67.334 -64 -98.001s-53.334 -59.667 -83.001 -87l-83.5 -80
c-6 -6 -14.167 -18.167 -24.5 -36.5s-15.833 -41.833 -16.5 -70.5h297z" />
    <glyph glyph-name="three" unicode="3" 
d="M148 353l-0.00390625 54.0029h20c99.333 0 149 49.667 149 149c0 16.667 -1.83301 33.167 -5.5 49.5s-9.5 30.666 -17.5 42.999s-18.667 22.333 -32 30s-30 11.5 -50 11.5c-20.667 0 -37.667 -4.5 -51 -13.5s-24 -20.5 -32 -34.5s-13.667 -29.667 -17 -47
s-5.66602 -34.333 -6.99902 -51h-59c0 25.333 3 50 9 74s15.5 45.333 28.5 64s29.667 33.667 50 45s44.833 17 73.5 17c29.333 0 55 -4.83301 77 -14.5s40.167 -23.167 54.5 -40.5s25.166 -37.833 32.499 -61.5s11 -49.167 11 -76.5c0 -7.33301 -1 -18.166 -3 -32.499
s-6.66699 -29.666 -14 -45.999s-18.166 -32.333 -32.499 -48s-34.166 -28.834 -59.499 -39.501c26 -6 47.333 -15.667 64 -29s29.667 -28.833 39 -46.5s15.833 -36.334 19.5 -56.001s5.5 -38.834 5.5 -57.501c0 -34 -3.83301 -62.667 -11.5 -86s-17.5 -42.833 -29.5 -58.5
s-25.333 -27.834 -40 -36.501s-29 -15.167 -43 -19.5s-26.667 -7 -38 -8s-19.666 -1.5 -24.999 -1.5c-2 0 -8 0.166992 -18 0.5s-22 2 -36 5s-28.667 8.5 -44 16.5s-29.5 19.667 -42.5 35s-23.667 35.166 -32 59.499s-12.166 54.833 -11.499 91.5h61
c0.666992 -20 2.83398 -39.333 6.50098 -58s10.167 -35.167 19.5 -49.5s21.666 -25.666 36.999 -33.999s34.666 -12.5 57.999 -12.5c22.667 0 42 4.5 58 13.5s28.833 20.833 38.5 35.5s16.667 31.5 21 50.5s6.5 38.5 6.5 58.5c0 14 -1.66699 29.667 -5 47
s-10.166 33.833 -20.499 49.5s-25 29 -44 40s-43.833 17.167 -74.5 18.5h-44z" />
    <glyph glyph-name="four" unicode="4" 
d="M285 744h61v-490h66v-54h-66v-200h-65v200h-253v60zM281 254v373h-2l-192 -373h194z" />
    <glyph glyph-name="five" unicode="5" 
d="M91 178c0.666992 -18 3.16602 -35.166 7.49902 -51.499s10.666 -31 18.999 -44s19.5 -23.333 33.5 -31s31.333 -11.5 52 -11.5c26 0 47.333 6 64 18s29.834 27.5 39.501 46.5s16.5 40.667 20.5 65s6 48.5 6 72.5c0 23.333 -1.83301 46.166 -5.5 68.499
s-10.167 42 -19.5 59s-22.333 30.667 -39 41s-38 15.5 -64 15.5c-23.333 0 -44 -6.66699 -62 -20s-31.667 -30.666 -41 -51.999h-55l43 376h278v-61h-224l-28 -227c14.667 15.333 31.5 25.5 50.5 30.5s36.5 7.5 52.5 7.5c34.667 0 63.5 -7 86.5 -21s41.333 -32.167 55 -54.5
s23.334 -47.833 29.001 -76.5s8.5 -58 8.5 -88c0 -32 -3.33301 -63.333 -10 -94s-17.667 -57.834 -33 -81.501s-35.333 -42.667 -60 -57s-55 -21.5 -91 -21.5c-31.333 0 -57.833 4.66699 -79.5 14s-39.667 22.5 -54 39.5s-25 37.333 -32 61s-10.833 49.5 -11.5 77.5h64z" />
    <glyph glyph-name="six" unicode="6" 
d="M222 416c-24 0 -43.834 -5.16602 -59.501 -15.499s-28 -23.833 -37 -40.5s-15.167 -35 -18.5 -55s-5 -40 -5 -60c0 -19.333 1.66699 -41 5 -65s9.33301 -46.333 18 -67s20.834 -38 36.501 -52s36.167 -21 61.5 -21c24 0 43.667 6.5 59 19.5s27.5 29.167 36.5 48.5
s15.333 40.166 19 62.499s5.5 42.833 5.5 61.5c0 20 -1.66699 40.833 -5 62.5s-9.33301 41.5 -18 59.5s-21 32.833 -37 44.5s-36.333 17.5 -61 17.5zM225.999 -13.999c-29.333 0 -54.333 5.33301 -75 16s-38 25 -52 43s-25 38.5 -33 61.5s-14.167 47.167 -18.5 72.5
s-7.16602 50.5 -8.49902 75.5s-2 48.167 -2 69.5c1.33301 22.667 2.33301 48.834 3 78.501s2.66699 60 6 91s8.66602 61.5 15.999 91.5s18.333 56.833 33 80.5s33.334 42.667 56.001 57s51 21.5 85 21.5c23.333 0 44.666 -4 63.999 -12s35.833 -19 49.5 -33
s24.334 -31.167 32.001 -51.5s11.5 -42.833 11.5 -67.5h-60c-1.33301 16.667 -4.16602 31.667 -8.49902 45s-10.5 24.833 -18.5 34.5s-18.167 17.167 -30.5 22.5s-27.5 8 -45.5 8c-15.333 0 -28.833 -3.66699 -40.5 -11s-21.834 -16.666 -30.501 -27.999
s-16 -23.833 -22 -37.5s-10.333 -26.834 -13 -39.501c-6 -26 -10.833 -52.833 -14.5 -80.5s-6.16699 -59.167 -7.5 -94.5h2c17.333 22 36.5 39.333 57.5 52s45.833 19 74.5 19c33.333 0 61.166 -7.5 83.499 -22.5s40 -34 53 -57s22.167 -48.333 27.5 -76
s8 -53.834 8 -78.501s-2.5 -51.667 -7.5 -81s-14.167 -56.5 -27.5 -81.5s-31.833 -45.833 -55.5 -62.5s-54.167 -25 -91.5 -25z" />
    <glyph glyph-name="seven" unicode="7" 
d="M51 730l361.002 -0.000976562v-59c-16 -20 -32.333 -44.167 -49 -72.5s-32.334 -57.333 -47.001 -87s-28 -58.167 -40 -85.5s-21.333 -50 -28 -68c-23.333 -62.667 -39.833 -123.167 -49.5 -181.5s-16.834 -117.166 -21.501 -176.499h-65
c2.66699 52.667 9.66699 108.5 21 167.5s27 118 47 177s44 116.333 72 172s59.667 106.5 95 152.5h-296v61z" />
    <glyph glyph-name="eight" unicode="8" 
d="M220 364c-34.667 0 -63.166 -12.665 -85.499 -37.998s-33.5 -65 -33.5 -119c0 -20 2 -39.833 6 -59.5s10.5 -37.334 19.5 -53.001s20.833 -28.5 35.5 -38.5s32.667 -15.333 54 -16c25.333 0 46.166 4.66699 62.499 14s29.333 21.833 39 37.5s16.5 33.5 20.5 53.5
s6 40.667 6 62s-2 41.5 -6 60.5s-10.667 35.667 -20 50s-22 25.666 -38 33.999s-36 12.5 -60 12.5zM221.001 690.002c-18 0 -33.002 -3.66699 -45.002 -11s-21.667 -16.5 -29 -27.5s-12.833 -22.833 -16.5 -35.5s-6.16699 -24.334 -7.5 -35.001s-2 -19.667 -2 -27
s0 -10.666 0 -9.99902h2c0 -16.667 1.66699 -32.667 5 -48s9 -28.666 17 -39.999s18.5 -20.5 31.5 -27.5s28.833 -10.5 47.5 -10.5s34.334 4 47.001 12s22.834 18.5 30.501 31.5s13 27.5 16 43.5s4.5 32 4.5 48c0 17.333 -1.5 34.166 -4.5 50.499s-8.33301 31 -16 44
s-18 23.333 -31 31s-29.5 11.5 -49.5 11.5zM141.999 398.002c-16.667 6.66699 -30.333 15.5 -41 26.5s-19 23.5 -25 37.5s-10 29.167 -12 45.5s-3 32.833 -3 49.5c0 25.333 3.33301 49.333 10 72s16.667 42.5 30 59.5s30 30.5 50 40.5s43.667 15 71 15
c29.333 0 54.333 -5 75 -15s37.5 -23.667 50.5 -41s22.333 -37.833 28 -61.5s8.5 -48.834 8.5 -75.501c0 -15.333 -1.33301 -30.833 -4 -46.5s-7.16699 -30.167 -13.5 -43.5s-14.666 -25.5 -24.999 -36.5s-22.833 -19.833 -37.5 -26.5v-2
c20.667 -10 37.667 -22.167 51 -36.5s24 -29.666 32 -45.999s13.667 -33.833 17 -52.5s5 -37.667 5 -57c0 -38.667 -4 -70.834 -12 -96.501s-18.333 -46.5 -31 -62.5s-26.834 -28 -42.501 -36s-31 -13.667 -46 -17s-28.833 -5.16602 -41.5 -5.49902
s-22.334 -0.5 -29.001 -0.5c-24 -0.666992 -46.5 4 -67.5 14s-39.167 24.5 -54.5 43.5s-27.333 41.833 -36 68.5s-13 56.334 -13 89.001c0 20 1.5 39.167 4.5 57.5s8.33301 35.833 16 52.5s18.334 32.167 32.001 46.5s31.5 27.166 53.5 38.499v2z" />
    <glyph glyph-name="nine" unicode="9" 
d="M221 690c-24 0 -43.499 -6.66895 -58.499 -20.002s-26.833 -29.666 -35.5 -48.999s-14.5 -40.166 -17.5 -62.499s-4.5 -42.833 -4.5 -61.5c0 -20 1.33301 -40.833 4 -62.5s8.33398 -41.5 17.001 -59.5s20.5 -32.833 35.5 -44.5s35.167 -17.5 60.5 -17.5
c24 0 43.667 5.16699 59 15.5s27.333 23.833 36 40.5s14.667 35 18 55s5 40 5 60c0 19.333 -1.5 41 -4.5 65s-8.83301 46.5 -17.5 67.5s-20.834 38.5 -36.501 52.5s-35.834 21 -60.501 21zM221.001 743.998c42.667 0 76.3301 -11.333 100.997 -34
s43.167 -50.834 55.5 -84.501s20 -69.834 23 -108.501s4.5 -74 4.5 -106c-1.33301 -23.333 -2.16602 -50 -2.49902 -80s-2 -60.667 -5 -92s-8 -62.166 -15 -92.499s-17.5 -57.333 -31.5 -81s-32.5 -42.834 -55.5 -57.501s-51.833 -22 -86.5 -22
c-46 0.666992 -83.333 15.5 -112 44.5s-43 68.5 -43 118.5h60c2.66699 -33.333 11.5 -59.833 26.5 -79.5s40.5 -29.5 76.5 -29.5c14.667 0 28 3.66699 40 11s22.333 16.5 31 27.5s15.834 23.333 21.501 37s10.167 26.834 13.5 39.501c6 26 10.333 52.833 13 80.5
s4 59.167 4 94.5h-2c-15.333 -22 -33.166 -39.333 -53.499 -52s-44.833 -19 -73.5 -19c-33.333 0 -61 7.5 -83 22.5s-39.5 34 -52.5 57s-22.167 48.333 -27.5 76s-8 53.834 -8 78.501s2.33301 51.667 7 81s13.667 56.5 27 81.5s31.833 46 55.5 63s54.167 25.5 91.5 25.5z
" />
    <glyph glyph-name="colon" unicode=":" horiz-adv-x="222" 
d="M77 433v88h69v-88h-69zM77 0v88h69v-88h-69z" />
    <glyph glyph-name="semicolon" unicode=";" horiz-adv-x="222" 
d="M77 -99c8 3.33301 14.1689 8.33301 18.502 15s7.33301 14 9 22s2.5 16.333 2.5 25v24v13h-30v88h69v-56v-35c0 -12 -0.666992 -24 -2 -36c-2.66699 -30 -8.83398 -52.167 -18.501 -66.5s-25.834 -24.5 -48.501 -30.5v37zM77.002 521h69v-88h-69v88z" />
    <glyph glyph-name="less" unicode="&#x3c;" 
d="M19 267l407 234v-56l-353 -195v-5l353 -201v-56l-407 235v44z" />
    <glyph glyph-name="equal" unicode="=" 
d="M424 309h-403v51h403v-51zM424 131h-403v51h403v-51z" />
    <glyph glyph-name="greater" unicode="&#x3e;" 
d="M426 223l-407 -234v56l353 195v5l-353 201v56l407 -235v-44z" />
    <glyph glyph-name="question" unicode="?" horiz-adv-x="389" 
d="M147 171c-1.33301 24.667 -0.837891 46.668 1.49512 66.001s6.83301 37.5 13.5 54.5s15.167 33.667 25.5 50s22.5 34.166 36.5 53.499c20.667 27.333 38.334 54.166 53.001 80.499s22 57.166 22 92.499c0 37.333 -8.5 67.833 -25.5 91.5s-42.5 35.5 -76.5 35.5
c-25.333 0 -45.5 -4.33301 -60.5 -13s-26.5 -20.167 -34.5 -34.5s-13.333 -31.166 -16 -50.499s-4 -39.666 -4 -60.999h-62c-0.666992 22 1 45.5 5 70.5s12.333 48.167 25 69.5s30.334 39 53.001 53s52.334 21 89.001 21c22 0 43.167 -3.5 63.5 -10.5
s38.333 -17.833 54 -32.5s28.167 -33.167 37.5 -55.5s14 -48.833 14 -79.5c0 -15.333 -1.16699 -30.333 -3.5 -45s-6.66602 -30 -12.999 -46s-15.333 -33.333 -27 -52s-26.5 -39.667 -44.5 -63c-14 -18 -25.667 -33.833 -35 -47.5s-16.666 -27.5 -21.999 -41.5
s-9 -29.333 -11 -46s-2.66699 -36.667 -2 -60h-56zM140.995 0.000976562v88h70v-88h-70z" />
    <glyph glyph-name="at" unicode="@" horiz-adv-x="800" 
d="M431 564c-27.333 0 -52.998 -8.66602 -76.998 -25.999s-45 -38.833 -63 -64.5s-32.167 -53 -42.5 -82s-15.5 -55.5 -15.5 -79.5c0 -38 9.66699 -67.5 29 -88.5s43 -31.5 71 -31.5c36 0 65.333 9 88 27s37.667 38 45 60l53 158c5.33301 16 7.16602 31.667 5.49902 47
s-6.33398 29 -14.001 41s-18.167 21.667 -31.5 29s-29.333 10.666 -48 9.99902zM564.002 590.001l55.0039 0.00292969l-105 -314l-9 -29c-3.33301 -10.667 -4.66602 -20.834 -3.99902 -30.501s4 -17.834 10 -24.501s16.667 -10 32 -10c11.333 0 23.333 3.16699 36 9.5
s24.667 14.333 36 24s22 19.834 32 30.501s18 20.667 24 30c6 8.66699 12.167 19.5 18.5 32.5s12 27.167 17 42.5s9.16699 31.166 12.5 47.499s5 31.833 5 46.5c0 42 -8.5 80 -25.5 114s-39.833 63 -68.5 87s-61.334 42.5 -98.001 55.5s-74.667 19.5 -114 19.5
c-48 0 -92.833 -9.5 -134.5 -28.5s-77.834 -44.5 -108.501 -76.5s-54.834 -69.167 -72.501 -111.5s-26.5 -86.833 -26.5 -133.5s9.16699 -90.667 27.5 -132s43.166 -77.5 74.499 -108.5s67.833 -55.5 109.5 -73.5s85.834 -27 132.501 -27c54 0 106.5 13 157.5 39
s93.167 61.667 126.5 107h53c-16.667 -30 -37.167 -57 -61.5 -81s-51.333 -44.333 -81 -61s-61 -29.5 -94 -38.5s-66.5 -13.5 -100.5 -13.5c-56 0 -108 10.333 -156 31s-89.667 49 -125 85s-63 78 -83 126s-30 99.667 -30 155c0 54 10.5 104.667 31.5 152
s49.333 88.666 85 123.999s77.5 63.166 125.5 83.499s99 30.5 153 30.5c44.667 0 88 -7.5 130 -22.5s80 -37.5 114 -67.5c72.667 -62.667 109 -142.334 109 -239.001c0 -17.333 -1.83301 -35 -5.5 -53s-8.33398 -35.333 -14.001 -52s-12 -32.334 -19 -47.001
s-14.167 -27 -21.5 -37c-10.667 -15.333 -22.5 -29.666 -35.5 -42.999s-27.167 -25.333 -42.5 -36s-31.666 -19 -48.999 -25s-35.666 -9 -54.999 -9c-9.33301 0 -18.5 1 -27.5 3s-17.333 5.33301 -25 10s-13.834 10.667 -18.501 18s-7.33398 16.333 -8.00098 27
c-20.667 -18.667 -42.667 -31.667 -66 -39s-46 -11 -68 -11s-41.5 4 -58.5 12s-31.333 19 -43 33s-20.334 30.333 -26.001 49s-8.5 38.667 -8.5 60c0 34.667 5.83301 70.334 17.5 107.001s28.167 70 49.5 100s47.5 54.667 78.5 74s65.5 29 103.5 29
c24.667 0 47.667 -5.66699 69 -17s37.333 -28.666 48 -51.999z" />
    <glyph glyph-name="A" unicode="A" horiz-adv-x="500" 
d="M350 289l-99 379h-2l-99 -379h200zM288 750l201 -750h-66l-59 231h-228l-61 -231h-63l201 750h75z" />
    <glyph glyph-name="B" unicode="B" horiz-adv-x="500" 
d="M127 364v-306.002h81c28.667 0 54.167 2.33301 76.5 7s41.333 12.834 57 24.501s27.5 27.834 35.5 48.501s12 47 12 79c0 34 -5 60.667 -15 80s-23.667 34 -41 44s-37.833 16.333 -61.5 19s-49.167 4 -76.5 4h-68zM194 421.998c26.667 0 50.668 1.83398 72.001 5.50098
s39.5 10.667 54.5 21s26.667 24.833 35 43.5s12.5 43 12.5 73c0 29.333 -4.83301 52.5 -14.5 69.5s-22.667 29.667 -39 38s-35.333 13.666 -57 15.999s-44.834 3.5 -69.501 3.5h-61v-270h67zM62.001 -0.000976562l0.000976562 749.999h164
c25.333 0 51.666 -2.33301 78.999 -7s51 -16 71 -34c20.667 -18 35.334 -39.167 44.001 -63.5s13 -50.5 13 -78.5c0 -37.333 -7.83301 -71.666 -23.5 -102.999s-41.834 -54 -78.501 -68c44 -12 75.5 -34 94.5 -66s28.5 -70 28.5 -114c0 -47.333 -7.5 -85.333 -22.5 -114
s-35.5 -50.5 -61.5 -65.5s-56.5 -24.833 -91.5 -29.5s-72.833 -7 -113.5 -7h-103z" />
    <glyph glyph-name="C" unicode="C" horiz-adv-x="556" 
d="M492 254c0.666992 -32 -3 -64.167 -11 -96.5s-20.667 -61.5 -38 -87.5s-39.5 -47.167 -66.5 -63.5s-59.167 -24.5 -96.5 -24.5c-36 0 -66.5 6.5 -91.5 19.5s-45.5 30.5 -61.5 52.5s-28.333 47.167 -37 75.5s-15 57.833 -19 88.5s-6.33301 61.334 -7 92.001
s-1 59.334 -1 86.001c0 26 0.833008 53.167 2.5 81.5s5 56.166 10 83.499s12.333 53.5 22 78.5s22.667 47 39 66s36.333 34.167 60 45.5s52.167 17 85.5 17c34 0 63.667 -6.16699 89 -18.5s46.5 -29.166 63.5 -50.499s29.833 -46.166 38.5 -74.499s13 -58.5 13 -90.5h-65
c-1.33301 22 -4.66602 43.667 -9.99902 65s-13.5 40.166 -24.5 56.499s-25.167 29.5 -42.5 39.5s-38.666 15 -63.999 15c-26.667 0 -48.834 -5.83301 -66.501 -17.5s-32.167 -26.834 -43.5 -45.501s-19.833 -39.834 -25.5 -63.501s-9.66699 -47.667 -12 -72
s-3.66602 -48 -3.99902 -71s-0.5 -42.833 -0.5 -59.5c0 -19.333 0.166992 -41.166 0.5 -65.499s1.66602 -49 3.99902 -74s6.66602 -49.667 12.999 -74s15.333 -45.833 27 -64.5s26.834 -33.834 45.501 -45.501s41.667 -17.5 69 -17.5c28 0 50.833 6.83301 68.5 20.5
s31.667 31 42 52s17.666 44 21.999 69s6.83301 49.167 7.5 72.5h65z" />
    <glyph glyph-name="D" unicode="D" horiz-adv-x="556" 
d="M137 58l78 0.00195312c18.667 0 38.167 0.666992 58.5 2s39.166 6 56.499 14c24.667 11.333 44.167 29.166 58.5 53.499s24.833 51.166 31.5 80.499s10.834 59 12.501 89s2.5 56.333 2.5 79c0 24 -0.333008 50.5 -1 79.5s-4 57.5 -10 85.5s-15.667 54 -29 78
s-32.333 42.667 -57 56c-10 5.33301 -21 9.33301 -33 12s-24.5 4.5 -37.5 5.5s-25.833 1.33301 -38.5 1s-24.667 -0.833008 -36 -1.5h-56v-634zM72 750.002h134c21.333 0 42 -0.666992 62 -2s39.333 -4.33301 58 -9s36.5 -11.667 53.5 -21s33.167 -22.333 48.5 -39
c12.667 -15.333 23.5 -33.166 32.5 -53.499s16.5 -41.833 22.5 -64.5s10.333 -45.167 13 -67.5s4 -42.833 4 -61.5v-68c0 -24 -0.833008 -48.333 -2.5 -73s-4.5 -48.834 -8.5 -72.501s-10 -45.5 -18 -65.5c-11.333 -32 -25 -58 -41 -78s-34.5 -35.5 -55.5 -46.5
s-44.333 -18.5 -70 -22.5s-54.167 -6 -85.5 -6h-147v750z" />
    <glyph glyph-name="E" unicode="E" 
d="M67 0v750h340v-58h-275v-270h250v-58h-250v-306h280v-58h-345z" />
    <glyph glyph-name="F" unicode="F" 
d="M69 0v750h345v-58h-280v-270h250v-58h-250v-364h-65z" />
    <glyph glyph-name="G" unicode="G" horiz-adv-x="556" 
d="M257 314l0.00585938 58.001h226v-372h-52l-7 77c-19.333 -32 -42 -55.833 -68 -71.5s-58 -23.5 -96 -23.5c-35.333 0 -65 6.5 -89 19.5s-44 30.5 -60 52.5s-28.333 47 -37 75s-15.167 57.167 -19.5 87.5s-6.83301 60.5 -7.5 90.5s-1 57.667 -1 83
c0 26.667 0.666992 54.5 2 83.5s4.33301 57.5 9 85.5s11.667 54.667 21 80s22.333 47.5 39 66.5s37.334 34.167 62.001 45.5s54.667 17 90 17c31.333 0 59.5 -6 84.5 -18s46.333 -28.167 64 -48.5s31.167 -44 40.5 -71s14 -55.5 14 -85.5h-62
c-2.66699 20 -6.83398 40 -12.501 60s-13.834 37.667 -24.501 53s-24.334 27.833 -41.001 37.5s-37 14.5 -61 14.5c-27.333 0 -50.333 -5.83301 -69 -17.5s-34 -27.167 -46 -46.5s-21 -41 -27 -65s-10.333 -48.5 -13 -73.5s-4.16699 -49 -4.5 -72s-0.5 -43.167 -0.5 -60.5
s0.333008 -37.5 1 -60.5s2.5 -47 5.5 -72s7.5 -49.5 13.5 -73.5s14.833 -45.667 26.5 -65s26.167 -34.833 43.5 -46.5s38.666 -17.5 63.999 -17.5c23.333 0 43.333 4.33301 60 13s30.667 20.167 42 34.5s20.166 30.833 26.499 49.5s11.166 38.167 14.499 58.5
s5.66602 40.666 6.99902 60.999s2.33301 39.5 3 57.5h-161z" />
    <glyph glyph-name="H" unicode="H" horiz-adv-x="556" 
d="M68 0v750h65v-319h290v319h65v-750h-65v373h-290v-373h-65z" />
    <glyph glyph-name="I" unicode="I" horiz-adv-x="222" 
d="M79 0v750h65v-750h-65z" />
    <glyph glyph-name="J" unicode="J" horiz-adv-x="389" 
d="M77 219l0.00195312 -16.001c0 -18.667 0.5 -37.667 1.5 -57s4.5 -36.833 10.5 -52.5s15.167 -28.5 27.5 -38.5s29.833 -15 52.5 -15c19.333 0 34.5 3.66699 45.5 11s19.167 16.833 24.5 28.5s8.66602 24.834 9.99902 39.501s2 29.667 2 45v586h65v-590
c0 -26 -2.5 -49.833 -7.5 -71.5s-13.5 -40.5 -25.5 -56.5s-27.833 -28.333 -47.5 -37s-43.834 -13 -72.501 -13c-28 0 -51.5 5.16699 -70.5 15.5s-34.333 24 -46 41s-20.167 36.667 -25.5 59s-8.33301 45.5 -9 69.5v52h65z" />
    <glyph glyph-name="K" unicode="K" horiz-adv-x="500" 
d="M67 0v750h65v-375l273 375h75l-222 -303l233 -447h-70l-205 394l-84 -110v-284h-65z" />
    <glyph glyph-name="L" unicode="L" 
d="M74 0v750h65v-692h278v-58h-343z" />
    <glyph glyph-name="M" unicode="M" horiz-adv-x="722" 
d="M138 0h-65v750h109l178 -654h2l182 654h106v-750h-65v685h-2l-186 -685h-69l-188 685h-2v-685z" />
    <glyph glyph-name="N" unicode="N" horiz-adv-x="556" 
d="M423 106h2v644h65v-750h-79l-278 642h-2v-642h-65v750h81z" />
    <glyph glyph-name="O" unicode="O" horiz-adv-x="556" 
d="M276 -18c-36 0 -66.499 6.49805 -91.499 19.498s-45.5 30.5 -61.5 52.5s-28.5 47.167 -37.5 75.5s-15.5 57.833 -19.5 88.5s-6.33301 61.334 -7 92.001s-1 59.334 -1 86.001c0 38.667 2.16699 79.667 6.5 123s14 83.5 29 120.5s37 67.667 66 92s68.5 36.5 118.5 36.5
c36.667 0 67.667 -6.33301 93 -19s46.166 -29.667 62.499 -51s28.833 -45.833 37.5 -73.5s15.167 -56.667 19.5 -87s6.83301 -60.833 7.5 -91.5s1 -59.667 1 -87c0 -40.667 -1.66699 -83.167 -5 -127.5s-12.333 -85 -27 -122s-37 -67.5 -67 -91.5s-71.333 -36 -124 -36z
M282.001 39.998c26.667 0 48.835 5.82812 66.502 17.4951s32.167 26.834 43.5 45.501s19.833 40 25.5 64s9.66699 48.333 12 73s3.66602 48.667 3.99902 72s0.5 44 0.5 62s-0.166992 39 -0.5 63s-2 48.333 -5 73s-7.66699 49 -14 73s-15.333 45.5 -27 64.5
s-26.667 34.167 -45 45.5s-40.833 17 -67.5 17c-25.333 0 -46.666 -5.66699 -63.999 -17s-31.5 -26.166 -42.5 -44.499s-19.667 -39.166 -26 -62.499s-10.833 -47.166 -13.5 -71.499s-4.33398 -48.166 -5.00098 -71.499s-1 -44 -1 -62
c0 -19.333 0.166992 -41.166 0.5 -65.499s1.66602 -49 3.99902 -74s6.66602 -49.667 12.999 -74s15.333 -45.833 27 -64.5s26.834 -33.834 45.501 -45.501s41.667 -17.5 69 -17.5z" />
    <glyph glyph-name="P" unicode="P" horiz-adv-x="500" 
d="M76 0l-0.00292969 750h133c42 0 78.833 -3 110.5 -9s58 -16.5 79 -31.5s36.833 -35 47.5 -60s16 -56.833 16 -95.5c0 -36 -4.66699 -67.667 -14 -95s-25 -50 -47 -68c-12 -10 -25.667 -18.333 -41 -25s-30.666 -12 -45.999 -16s-29.666 -6.83301 -42.999 -8.5
s-23.666 -2.5 -30.999 -2.5h-99v-339h-65zM140.997 397h55.998c28.667 0 55.334 1.5 80.001 4.5s45.834 9.83301 63.501 20.5s31.5 26 41.5 46s15 46.667 15 80c0 28.667 -3.5 52.167 -10.5 70.5s-17.333 32.833 -31 43.5s-30.5 18.167 -50.5 22.5s-43 6.83301 -69 7.5h-95
v-295z" />
    <glyph glyph-name="Q" unicode="Q" horiz-adv-x="556" 
d="M283 127l36.001 44.9961l76 -62c10.667 18.667 18.667 39.667 24 63s9.16602 47 11.499 71s3.5 47.333 3.5 70v60c0 18 -0.166992 39 -0.5 63s-2 48.333 -5 73s-7.66699 49 -14 73s-15.333 45.5 -27 64.5s-26.667 34.167 -45 45.5s-40.833 17 -67.5 17
c-25.333 0 -46.666 -5.66699 -63.999 -17s-31.5 -26.166 -42.5 -44.499s-19.667 -39.166 -26 -62.499s-10.833 -47.166 -13.5 -71.499s-4.33398 -48.166 -5.00098 -71.499s-1 -44 -1 -62c0 -19.333 0.166992 -41.166 0.5 -65.499s1.66602 -49 3.99902 -74
s6.66602 -49.667 12.999 -74s15.333 -45.833 27 -64.5s26.834 -33.834 45.501 -45.501s41.667 -17.5 69 -17.5c30.667 0 56.334 8.66699 77.001 26zM527.001 1.99609l-34.999 -44.0029l-83 68c-15.333 -13.333 -33.833 -24 -55.5 -32s-47.5 -12 -77.5 -12
c-36 0 -66.5 6.5 -91.5 19.5s-45.5 30.333 -61.5 52s-28.5 46.667 -37.5 75s-15.5 57.833 -19.5 88.5s-6.33301 61.334 -7 92.001s-1 59.334 -1 86.001c0 25.333 0.833008 52.333 2.5 81s5.16699 56.834 10.5 84.501s12.833 54 22.5 79s22.667 47 39 66
s36.333 34.167 60 45.5s52.167 17 85.5 17c36.667 0 67.667 -6.33301 93 -19s46.166 -29.667 62.499 -51s28.833 -45.833 37.5 -73.5s15.167 -56.667 19.5 -87s6.83301 -60.833 7.5 -91.5s1 -59.667 1 -87c0 -24 -0.5 -49 -1.5 -75s-3.33301 -51.667 -7 -77
s-9 -49.833 -16 -73.5s-16.833 -45.167 -29.5 -64.5z" />
    <glyph glyph-name="R" unicode="R" horiz-adv-x="500" 
d="M128 353l0.00195312 -352.995h-65v750h145c34 0 65.167 -2.83301 93.5 -8.5s52.666 -15.834 72.999 -30.501s36.166 -34.334 47.499 -59.001s17 -56 17 -94c0 -18 -2 -36.5 -6 -55.5s-10.5 -36.833 -19.5 -53.5s-20.333 -31 -34 -43s-30.5 -20 -50.5 -24v-2
c22 -5.33301 39.5 -13.5 52.5 -24.5s23 -24.333 30 -40s11.667 -33.5 14 -53.5s3.5 -41.667 3.5 -65c0.666992 -9.33301 1 -23.333 1 -42s1 -38 3 -58s5.16699 -38.5 9.5 -55.5s11.166 -27.833 20.499 -32.5v-9h-71c-7.33301 16 -12.666 35.167 -15.999 57.5
s-6 45.166 -8 68.499s-3.33301 45.666 -4 66.999s-1.33398 39 -2.00098 53c-2 24.667 -7.83301 44.167 -17.5 58.5s-22 25.166 -37 32.499s-32.167 11.833 -51.5 13.5s-39.666 2.5 -60.999 2.5h-67zM128.002 411.005l114 0.00195312c5.33301 0 15.333 1.16699 30 3.5
s29.5 8.16602 44.5 17.499s28.333 23.5 40 42.5s17.5 45.167 17.5 78.5c0 27.333 -3.16699 50 -9.5 68s-15.833 32.167 -28.5 42.5s-28.5 17.666 -47.5 21.999s-41.167 6.5 -66.5 6.5h-94v-281z" />
    <glyph glyph-name="S" unicode="S" horiz-adv-x="500" 
d="M269 409c27.333 -11.333 52.833 -22.665 76.5 -33.998s44 -24.833 61 -40.5s30.333 -34.667 40 -57s14.5 -50.5 14.5 -84.5c0 -32 -5 -61 -15 -87s-24.333 -48.167 -43 -66.5s-41.334 -32.5 -68.001 -42.5s-56.334 -15 -89.001 -15c-34 0 -64 5.66699 -90 17
s-47.833 27.333 -65.5 48s-30.667 45 -39 73s-12.166 58.667 -11.499 92h64c0 -23.333 2.5 -45.5 7.5 -66.5s13 -39.333 24 -55s25.5 -28 43.5 -37s40 -13.5 66 -13.5c46 0 82.667 13.5 110 40.5s41 63.833 41 110.5c0 28 -4.66699 50.833 -14 68.5
s-21.833 32.167 -37.5 43.5s-33.667 20.833 -54 28.5l-62.5 24.5c-25.333 10 -48.5 20.667 -69.5 32s-39.167 24.833 -54.5 40.5s-27.333 34.167 -36 55.5s-13 47 -13 77c0 30.667 4.5 58.667 13.5 84s21.833 47.166 38.5 65.499s37 32.5 61 42.5s51.333 15 82 15
c29.333 0 55.833 -4.83301 79.5 -14.5s44 -23.334 61 -41.001s29.833 -38.667 38.5 -63s12.667 -51.166 12 -80.499h-63c2 42 -8.5 76 -31.5 102s-55.5 39 -97.5 39c-21.333 0 -40 -3.66699 -56 -11s-29.5 -17.5 -40.5 -30.5s-19.167 -28.333 -24.5 -46
s-8 -36.834 -8 -57.501c0 -18.667 1.66699 -34.667 5 -48s8.5 -25 15.5 -35s16.333 -18.833 28 -26.5s25.834 -15.167 42.501 -22.5z" />
    <glyph glyph-name="T" unicode="T" 
d="M20 692v58h405v-58h-170v-692h-65v692h-170z" />
    <glyph glyph-name="U" unicode="U" horiz-adv-x="556" 
d="M73 750l65 0.000976562v-544c0 -26.667 1.83301 -50.334 5.5 -71.001s10.5 -38 20.5 -52s24 -24.667 42 -32s41 -11 69 -11c29.333 0 53.333 4.16699 72 12.5s33.167 20.166 43.5 35.499s17.5 33.5 21.5 54.5s6 44.167 6 69.5v538h65v-522
c0 -36.667 -3.16699 -70 -9.5 -100s-17.333 -55.833 -33 -77.5s-36.667 -38.5 -63 -50.5s-59.833 -18 -100.5 -18c-72 0 -124 18.833 -156 56.5s-48 90.834 -48 159.501v552z" />
    <glyph glyph-name="V" unicode="V" horiz-adv-x="500" 
d="M14 750h68l168 -665h2l172 665h63l-199 -750h-73z" />
    <glyph glyph-name="W" unicode="W" horiz-adv-x="722" 
d="M520 114h2l120 636h63l-148 -750h-73l-125 642h-2l-122 -642h-73l-145 750h66l114 -633h2l123 633h75z" />
    <glyph glyph-name="X" unicode="X" horiz-adv-x="500" 
d="M27 750h73l149 -301l153 301h72l-186 -363l194 -387h-71l-162 326l-161 -326h-70l193 387z" />
    <glyph glyph-name="Y" unicode="Y" horiz-adv-x="500" 
d="M414 750h68l-200 -431v-319h-65v319l-198 431h72l158 -357z" />
    <glyph glyph-name="Z" unicode="Z" 
d="M34 0v60l307 632h-293v58h363v-56l-309 -636h309v-58h-377z" />
    <glyph glyph-name="bracketleft" unicode="[" horiz-adv-x="278" 
d="M229 -104h-155v872h153v-46h-95v-780h97v-46z" />
    <glyph glyph-name="backslash" unicode="\" horiz-adv-x="222" 
d="M-40 750h54l248 -750h-54z" />
    <glyph glyph-name="bracketright" unicode="]" horiz-adv-x="278" 
d="M49 -104v46h97v780h-95v46h153v-872h-155z" />
    <glyph glyph-name="asciicircum" unicode="^" 
d="M242 750l135 -410h-47l-110 335l-107 -335h-47l135 410h41z" />
    <glyph glyph-name="underscore" unicode="_" horiz-adv-x="500" 
d="M0 -119v58h500v-58h-500z" />
    <glyph glyph-name="grave" unicode="`" horiz-adv-x="333" 
d="M178 606l-138 139h78l111 -139h-51z" />
    <glyph glyph-name="a" unicode="a" horiz-adv-x="389" 
d="M271 298c-19.333 -10.667 -38.5 -19.833 -57.5 -27.5l-57.5 -23.5c-14.667 -6.66699 -26.667 -13.334 -36 -20.001s-16.666 -14.167 -21.999 -22.5s-9 -18.333 -11 -30s-3 -25.5 -3 -41.5c0 -27.333 5.33301 -50.166 16 -68.499s31 -27.5 61 -27.5
c19.333 0 35.666 3.66699 48.999 11s24.333 17.333 33 30c12 17.333 19.667 37 23 59s5 43.333 5 64v97zM41 413.001c-1.33301 48.667 10.8301 86.335 36.4971 113.002s62.5 40 110.5 40c23.333 0 44.833 -3 64.5 -9s36.167 -17 49.5 -33
c12.667 -16 20.334 -33.167 23.001 -51.5s4 -37.166 4 -56.499v-339c0 -16.667 2.33301 -27.167 7 -31.5s15.667 -6.16602 33 -5.49902v-42c-10 -4 -20.5 -6 -31.5 -6s-21.833 1 -32.5 3c-13.333 5.33301 -21 11.666 -23 18.999s-4.66699 17.666 -8 30.999h-1
c-14.667 -20 -32.667 -34.833 -54 -44.5s-44 -14.5 -68 -14.5c-25.333 0 -46 4 -62 12s-28.667 19 -38 33s-15.833 30.5 -19.5 49.5s-5.5 39.5 -5.5 61.5c0 32 5.33301 59.833 16 83.5s30.667 43.167 60 58.5c24.667 11.333 49.834 21.666 75.501 30.999
s50.834 19.666 75.501 30.999c4.66699 2 8.16699 5.33301 10.5 10s3.83301 8.66699 4.5 12c0.666992 6 1.16699 13 1.5 21s0.5 16.333 0.5 25s-0.5 17 -1.5 25s-1.83301 15 -2.5 21c-4 16.667 -11.833 30 -23.5 40s-30.167 15 -55.5 15c-20.667 0 -36.5 -3 -47.5 -9
s-19.333 -13.833 -25 -23.5s-9.5 -20.667 -11.5 -33l-6 -36.5h-56z" />
    <glyph glyph-name="b" unicode="b" 
d="M229 37c28 0 49.833 8.66797 65.5 26.001s27.167 38.333 34.5 63s11.666 50.5 12.999 77.5s2 50.5 2 70.5c0 18.667 -0.666992 41.667 -2 69s-5.5 53.833 -12.5 79.5s-18 47.5 -33 65.5s-36.167 27 -63.5 27c-28 0 -49.5 -8.5 -64.5 -25.5s-26 -37.5 -33 -61.5
s-11 -49 -12 -75s-1.5 -48.333 -1.5 -67v-43c0 -16.667 0.833008 -34.334 2.5 -53.001s4.5 -37 8.5 -55s10 -34.333 18 -49s18.333 -26.5 31 -35.5s28.334 -13.5 47.001 -13.5zM122 0.000976562l-58.001 0.00195312v750h58v-243h2c17.333 19.333 36 34 56 44
s42.667 15 68 15c23.333 0 43.333 -4.66699 60 -14s30.667 -21.833 42 -37.5s20.5 -33.5 27.5 -53.5s12.333 -40.667 16 -62s6 -42.5 7 -63.5s1.5 -40.167 1.5 -57.5c0 -28 -1.33301 -58.833 -4 -92.5s-9.33398 -65.334 -20.001 -95.001s-26.667 -54.5 -48 -74.5
s-50.333 -30 -87 -30c-27.333 0 -50.666 5.16699 -69.999 15.5s-35.666 27.166 -48.999 50.499h-2v-52z" />
    <glyph glyph-name="c" unicode="c" horiz-adv-x="389" 
d="M358 183c0 -25.333 -2.49707 -49.8301 -7.49707 -73.4971s-13.5 -44.667 -25.5 -63s-27.833 -33 -47.5 -44s-43.834 -16.5 -72.501 -16.5c-40.667 0 -72.167 9.5 -94.5 28.5s-39 42.833 -50 71.5s-17.667 60.167 -20 94.5s-3.5 67.166 -3.5 98.499
c0 30 1.5 61.667 4.5 95s10 64.333 21 93s27.667 52.334 50 71.001s52.5 28 90.5 28c24.667 0 46.5 -4.83301 65.5 -14.5s34.667 -22.834 47 -39.501s21.666 -35.667 27.999 -57s9.5 -43.333 9.5 -66h-57c-0.666992 16.667 -3.16699 32.667 -7.5 48s-10.5 28.833 -18.5 40.5
s-17.833 21 -29.5 28s-25.5 10.167 -41.5 9.5c-27.333 -0.666992 -48.166 -9.83398 -62.499 -27.501s-24.5 -39.167 -30.5 -64.5s-9.33301 -52 -10 -80s-1 -52.667 -1 -74c0 -19.333 0.5 -42.333 1.5 -69s4.83301 -52 11.5 -76s17.667 -44.5 33 -61.5s37 -25.5 65 -25.5
c20 0 36 4.66699 48 14s21.167 21.166 27.5 35.499s10.666 30 12.999 47s4.16602 33.5 5.49902 49.5h58z" />
    <glyph glyph-name="d" unicode="d" 
d="M213 515c-27.333 0 -48.4971 -9.33203 -63.4971 -27.999s-26 -41.167 -33 -67.5s-11.167 -53.666 -12.5 -81.999s-2 -51.833 -2 -70.5c0 -19.333 0.833008 -42.166 2.5 -68.499s6.16699 -51.5 13.5 -75.5s18.666 -44.333 33.999 -61s36.666 -25 63.999 -25
c19.333 0 35.5 4.66699 48.5 14s23.5 21.666 31.5 36.999s14 32.666 18 51.999s6.66699 38.666 8 57.999s2 38 2 56v46c0 18.667 -0.833008 40.334 -2.5 65.001s-6.16699 48.167 -13.5 70.5s-18.333 41.166 -33 56.499s-35.334 23 -62.001 23zM324.003 750.001h57.999v-750
h-58v52h-2c-11.333 -22.667 -27.333 -39.334 -48 -50.001s-44.334 -16 -71.001 -16c-37.333 0 -66.666 10 -87.999 30s-37.166 44.833 -47.499 74.5s-16.833 61.334 -19.5 95.001s-4 64.5 -4 92.5s1.5 58.667 4.5 92s9.83301 64.5 20.5 93.5s26.667 53.333 48 73
s50.666 29.5 87.999 29.5c22 0 43.333 -5.16699 64 -15.5s38.334 -24.833 53.001 -43.5h2v243z" />
    <glyph glyph-name="e" unicode="e" horiz-adv-x="389" 
d="M352 279l-259 -0.00488281v-42.5c0 -16.333 0.666992 -33.5 2 -51.5s3.83301 -35.833 7.5 -53.5s9.33398 -33.5 17.001 -47.5s17.667 -25.333 30 -34s28.166 -13 47.499 -13c20.667 0 37 4.33301 49 13s21.333 19.834 28 33.501s11.334 29 14.001 46
s4.66699 33.833 6 50.5h56c0 -25.333 -2.66699 -49.666 -8 -72.999s-14.166 -44 -26.499 -62s-28.333 -32.333 -48 -43s-43.5 -16 -71.5 -16c-38.667 0 -68.834 9.66699 -90.501 29s-37.667 43.5 -48 72.5s-16.666 60.167 -18.999 93.5s-3.5 64.333 -3.5 93
c0 28 1.16699 58.833 3.5 92.5s8.66602 65.334 18.999 95.001s26.166 54.5 47.499 74.5s51 30 89 30c32 0 58.167 -7.16699 78.5 -21.5s36.5 -32.666 48.5 -54.999s20.167 -47.166 24.5 -74.499s6.5 -54 6.5 -80v-56zM294 329.995
c0 17.333 -0.831055 36.8311 -2.49805 58.498s-5.83398 41.834 -12.501 60.501s-16.834 34.334 -30.501 47.001s-32.167 19 -55.5 19c-22.667 0 -40.5 -6.66699 -53.5 -20s-23 -29.5 -30 -48.5s-11.5 -39.167 -13.5 -60.5s-3 -40 -3 -56h201z" />
    <glyph glyph-name="f" unicode="f" horiz-adv-x="222" 
d="M77 501l-59 0.000976562v51h59v60c0 26 1.5 48.167 4.5 66.5s9 33 18 44s22 18.667 39 23s39.5 5.83301 67.5 4.5v-51c-19.333 0.666992 -34 -0.333008 -44 -3s-17 -7.33398 -21 -14.001s-6 -15.5 -6 -26.5v-40.5v-63h69v-51h-69v-501h-58v501z" />
    <glyph glyph-name="g" unicode="g" 
d="M209 515c-26 0 -46 -9.66895 -60 -29.002s-24.333 -42.333 -31 -69s-10.667 -53.667 -12 -81s-2 -49.333 -2 -66c0 -19.333 0.666992 -42.333 2 -69s5.66602 -52.167 12.999 -76.5s18.5 -45 33.5 -62s36.5 -25.5 64.5 -25.5c26.667 0 47.167 8.33301 61.5 25
s24.833 36.834 31.5 60.501s10.667 48.334 12 74.001s2 47.5 2 65.5c0 22 -0.166992 47.667 -0.5 77s-3.66602 57 -9.99902 83s-17.5 48 -33.5 66s-39.667 27 -71 27zM324 551.998l57.998 0.00195312v-540c0 -30 -2.83301 -57.333 -8.5 -82s-15.167 -45.834 -28.5 -63.501
s-30.833 -31.334 -52.5 -41.001s-48.834 -14.5 -81.501 -14.5c-20 0 -39 2.5 -57 7.5s-34 12.5 -48 22.5s-25.333 22.833 -34 38.5s-13.334 34.5 -14.001 56.5h59c0.666992 -12.667 3.83398 -23.5 9.50098 -32.5s13 -16.5 22 -22.5s19 -10.5 30 -13.5
s22.167 -4.83301 33.5 -5.5c30 0 52.5 5.66699 67.5 17s25.667 25.666 32 42.999s9.83301 36.333 10.5 57l2 60h-4c-15.333 -19.333 -33 -33 -53 -41s-41 -12 -63 -12c-37.333 0 -66.666 9.33301 -87.999 28s-37.166 42.167 -47.499 70.5s-16.666 59.166 -18.999 92.499
s-3.5 64.333 -3.5 93c0 17.333 0.333008 36.833 1 58.5s2.5 43.334 5.5 65.001s7.66699 42.834 14 63.501s15.333 39.167 27 55.5s26 29.333 43 39s38.167 14.5 63.5 14.5c28 0 51.5 -5.16699 70.5 -15.5s36.167 -26.5 51.5 -48.5h2v50z" />
    <glyph glyph-name="h" unicode="h" 
d="M63 0l-0.000976562 750h58v-247c13.333 20.667 30.833 36 52.5 46s44.167 15.667 67.5 17c21.333 1.33301 42.833 -1.5 64.5 -8.5s38.834 -20.167 51.501 -39.5c12 -16 19 -34.833 21 -56.5s3 -42.167 3 -61.5v-400h-58v389c0 16 -0.666992 31.5 -2 46.5
s-4.83301 28.5 -10.5 40.5s-14.167 21.5 -25.5 28.5s-27 10.5 -47 10.5c-27.333 0 -50.833 -7.83301 -70.5 -23.5s-35.167 -35.167 -46.5 -58.5v-433h-58z" />
    <glyph glyph-name="i" unicode="i" horiz-adv-x="222" 
d="M82 0v552h58v-552h-58zM78 655v95h67v-95h-67z" />
    <glyph glyph-name="j" unicode="j" horiz-adv-x="222" 
d="M21 -135c6.66699 -0.666992 12.999 -0.500977 18.999 0.499023s12 2.16699 18 3.5c8 2.66699 14 7 18 13s7 12.5 9 19.5s3 14.5 3 22.5v22v606h58v-608c0 -20 -1.16699 -39.667 -3.5 -59s-11.166 -36.666 -26.499 -51.999c-14 -9.33301 -29.167 -15.333 -45.5 -18
s-32.833 -4 -49.5 -4v54zM149.999 749.999v-92h-67v92h67z" />
    <glyph glyph-name="k" unicode="k" horiz-adv-x="389" 
d="M62 0v750h58v-458l179 260h73l-150 -206l153 -346h-61l-133 287l-61 -85v-202h-58z" />
    <glyph glyph-name="l" unicode="l" horiz-adv-x="222" 
d="M82 0v750h58v-750h-58z" />
    <glyph glyph-name="m" unicode="m" horiz-adv-x="667" 
d="M116 0l-57.9951 -0.000976562v552h58v-49h2c12 20 28.5 35.5 49.5 46.5s43.5 16.5 67.5 16.5c11.333 0 22.166 -0.5 32.499 -1.5s20.166 -3.5 29.499 -7.5s18.5 -10.167 27.5 -18.5s17.833 -19.833 26.5 -34.5h2c15.333 21.333 34.5 37 57.5 47s47.167 15 72.5 15
c24.667 0 45.167 -3.66699 61.5 -11s29.333 -17.666 39 -30.999s16.5 -29.166 20.5 -47.499s6 -38.5 6 -60.5v-416h-58v423c0 11.333 -1.16699 22.666 -3.5 33.999s-6.5 21.333 -12.5 30s-13.833 15.667 -23.5 21s-21.834 8 -36.501 8c-34 0 -61.333 -10 -82 -30
s-31 -47.667 -31 -83v-403h-58v399c0 15.333 -0.833008 30 -2.5 44s-5.16699 26.333 -10.5 37s-13.5 19.167 -24.5 25.5s-25.833 9.5 -44.5 9.5c-11.333 0 -23.333 -2.66699 -36 -8s-24.334 -12.333 -35.001 -21s-19.334 -18.667 -26.001 -30s-10 -23 -10 -35v-421z" />
    <glyph glyph-name="n" unicode="n" 
d="M123 0l-58.0029 -0.000976562v552h58v-54h2c14 20.667 31.5 37.167 52.5 49.5s45.167 18.5 72.5 18.5c18 0 34.833 -3 50.5 -9s29.334 -14.5 41.001 -25.5s20.834 -24.333 27.501 -40s10 -33.5 10 -53.5v-438h-58v401c0 16 -0.666992 30.833 -2 44.5
s-4.66602 25.667 -9.99902 36s-13.5 18.5 -24.5 24.5s-25.833 9 -44.5 9c-14.667 0 -29 -2.66699 -43 -8s-26.5 -12.833 -37.5 -22.5s-19.833 -21.167 -26.5 -34.5s-10 -27.666 -10 -42.999v-407z" />
    <glyph glyph-name="o" unicode="o" 
d="M221 -14c-28 0 -51.6689 4.50391 -71.002 13.5039s-35.333 21.167 -48 36.5s-22.667 33.166 -30 53.499s-12.666 41.666 -15.999 63.999s-5.33301 45.166 -6 68.499s-1 45.666 -1 66.999c0 30.667 2 62.5 6 95.5s12.167 62.833 24.5 89.5s30 48.667 53 66
s53.5 26 91.5 26c38.667 0 69.334 -9.33301 92.001 -28s40 -42.167 52 -70.5s19.667 -59.5 23 -93.5s5 -66 5 -96c0 -31.333 -1.66699 -64.166 -5 -98.499s-11 -65.833 -23 -94.5s-29.5 -52.334 -52.5 -71.001s-54.5 -28 -94.5 -28zM219.998 37.0039
c29.333 0 52 8.66406 68 25.9971s27.667 38.333 35 63s11.666 50.834 12.999 78.501s2 51.834 2 72.501c0 21.333 -0.666992 45.833 -2 73.5s-5.83301 53.667 -13.5 78s-19.667 44.833 -36 61.5s-39.5 25 -69.5 25c-26 0 -46.333 -8.33301 -61 -25s-25.667 -36.667 -33 -60
s-11.833 -48.166 -13.5 -74.499s-2.5 -48.833 -2.5 -67.5c0 -20.667 0.333008 -45.334 1 -74.001s4.33398 -56.167 11.001 -82.5s17.667 -48.666 33 -66.999s38 -27.5 68 -27.5z" />
    <glyph glyph-name="p" unicode="p" 
d="M116 279c0 -21.333 0.333984 -45.8369 1.00098 -73.5039s4.33398 -54 11.001 -79s17.667 -46.167 33 -63.5s37.666 -26 66.999 -26c27.333 0 48.333 8.83301 63 26.5s25.334 38.834 32.001 63.501s10.5 50.334 11.5 77.001s1.5 49 1.5 67
c0 18.667 -0.5 41.834 -1.5 69.501s-4.83301 54.5 -11.5 80.5s-17.167 48.167 -31.5 66.5s-34.833 27.5 -61.5 27.5c-30 0 -52.833 -8.33301 -68.5 -25s-26.834 -37.167 -33.501 -61.5s-10.334 -50.166 -11.001 -77.499s-1 -51.333 -1 -72zM118.001 -190.004h-59.998v742h58
v-50c13.333 19.333 29.5 34.833 48.5 46.5s40.167 17.5 63.5 17.5c38 0 68 -8.83301 90 -26.5s38.667 -40 50 -67s18.5 -56.833 21.5 -89.5s4.5 -63.667 4.5 -93c0 -30 -0.833008 -62.667 -2.5 -98s-7.5 -68.333 -17.5 -99s-26 -56.167 -48 -76.5s-53 -30.5 -93 -30.5
c-24.667 0 -46.334 4.66699 -65.001 14s-35.334 24.333 -50.001 45v-235z" />
    <glyph glyph-name="q" unicode="q" 
d="M212 37c29.333 0 51.667 8.66406 67 25.9971s26.333 38.333 33 63s10.334 50.834 11.001 78.501s1 51.834 1 72.501v44c0 16.667 -0.833008 33.834 -2.5 51.501s-4.66699 35 -9 52s-10.5 32.167 -18.5 45.5s-18.333 24.166 -31 32.499s-28.334 12.5 -47.001 12.5
c-28.667 0 -50.5 -9 -65.5 -27s-26 -39.667 -33 -65s-11 -52 -12 -80s-1.5 -52 -1.5 -72c0 -19.333 0.666992 -42.333 2 -69s5.5 -52.167 12.5 -76.5s17.833 -45.166 32.5 -62.499s35 -26 61 -26zM324.001 551.997l58 -0.00390625v-741h-60v234
c-13.333 -20 -30 -34.833 -50 -44.5s-41.667 -14.5 -65 -14.5c-39.333 0 -69.666 9.33301 -90.999 28s-37.333 42.334 -48 71.001s-17 59.834 -19 93.501s-3 65.167 -3 94.5c0 20 0.5 41.333 1.5 64s3.16699 44.834 6.5 66.501s8.5 42.334 15.5 62.001s16.667 37 29 52
s27.666 26.833 45.999 35.5s40.833 13 67.5 13c23.333 0 44.5 -5.83301 63.5 -17.5s35.167 -27.167 48.5 -46.5v50z" />
    <glyph glyph-name="r" unicode="r" horiz-adv-x="278" 
d="M124 488l2 -0.00195312c14.667 29.333 32.167 49.833 52.5 61.5s46.5 17.167 78.5 16.5v-61c-45.333 0.666992 -78.333 -12.166 -99 -38.499s-31 -61.166 -31 -104.499v-362h-58v552h55v-64z" />
    <glyph glyph-name="s" unicode="s" horiz-adv-x="389" 
d="M44 407c-4.66699 50 5.16406 89 29.4971 117s61.833 42 112.5 42c48 0 85 -13.833 111 -41.5s39 -65.5 39 -113.5h-57c-1.33301 29.333 -9.83301 54 -25.5 74s-38.834 30 -69.501 30c-28 0 -48.667 -7.83301 -62 -23.5s-20 -37.167 -20 -64.5
c0 -22 6.33301 -39.667 19 -53s28.667 -23.666 48 -30.999c24.667 -11.333 47.834 -22.833 69.501 -34.5s40.834 -25.167 57.501 -40.5s29.834 -33.5 39.501 -54.5s14.5 -46.167 14.5 -75.5c0 -49.333 -14.167 -87 -42.5 -113s-66.5 -39 -114.5 -39
c-54 0 -94.333 14.167 -121 42.5s-40 68.833 -40 121.5h59c2.66699 -34 12 -61.333 28 -82s42 -31 78 -31c30.667 0 54.167 10 70.5 30s24.5 44.667 24.5 74c0 24 -6 44 -18 60s-26.833 29.667 -44.5 41s-37.167 21.666 -58.5 30.999s-41.166 19.833 -59.499 31.5
s-33.833 25.5 -46.5 41.5s-19.667 36.333 -21 61z" />
    <glyph glyph-name="t" unicode="t" horiz-adv-x="222" 
d="M201 -5l-37.501 -4.99902c-15 -2 -27.5 -1.33301 -37.5 2c-25.333 9.33301 -41.666 21 -48.999 35s-11 34.333 -11 61v413h-50v51h50v162h58v-162h77v-51h-77v-407c0 -4.66699 0.166992 -9.83398 0.5 -15.501s1.5 -11 3.5 -16s5 -9.33301 9 -13s9.33301 -6.16699 16 -7.5
c7.33301 -3.33301 15.333 -4.5 24 -3.5s16.667 2.5 24 4.5v-48z" />
    <glyph glyph-name="u" unicode="u" 
d="M321 552l58 0.00292969v-552h-56v51c-18.667 -23.333 -39.5 -40 -62.5 -50s-49.167 -15 -78.5 -15c-25.333 0 -45.833 4.16699 -61.5 12.5s-28 19.666 -37 33.999s-15.167 31.166 -18.5 50.499s-5 39.666 -5 60.999v408h58v-418c0 -35.333 7.33301 -61 22 -77
s39.667 -22.667 75 -20c11.333 0.666992 22.5 3.66699 33.5 9s21 12.5 30 21.5s17.167 19 24.5 30s13.333 22.5 18 34.5v420z" />
    <glyph glyph-name="v" unicode="v" horiz-adv-x="389" 
d="M195 105h2l117 447h59l-146 -552h-63l-147 552h62z" />
    <glyph glyph-name="w" unicode="w" horiz-adv-x="556" 
d="M397 112h2l89 440h57l-120 -552h-61l-85 433h-2l-85 -433h-64l-117 552h58l90 -440h2l85 440h64z" />
    <glyph glyph-name="x" unicode="x" horiz-adv-x="389" 
d="M193 234l-117 -234h-63l145 289l-135 263h65l105 -213l107 213h67l-138 -263l147 -289h-65z" />
    <glyph glyph-name="y" unicode="y" horiz-adv-x="389" 
d="M28 -137c8.66699 -0.666992 17.9971 -1.16504 27.9971 -1.49805s19.5 0.5 28.5 2.5s17.333 5.5 25 10.5s13.834 12.5 18.501 22.5c7.33301 16 13.5 32.5 18.5 49.5s9.5 34.167 13.5 51.5l-143 554h61l114 -447h2l120 447h59l-150 -545
c-4 -14.667 -8.16699 -30.834 -12.5 -48.501s-9.83301 -35.167 -16.5 -52.5s-14.667 -33.333 -24 -48s-20.666 -26.334 -33.999 -35.001c-10 -6 -20.167 -9.83301 -30.5 -11.5s-20.166 -2.5 -29.499 -2.5s-18 0.5 -26 1.5s-15.333 1.5 -22 1.5v51z" />
    <glyph glyph-name="z" unicode="z" horiz-adv-x="333" 
d="M18 0v55l231 446h-219v51h280v-54l-229 -447h234v-51h-297z" />
    <glyph glyph-name="braceleft" unicode="{" horiz-adv-x="351" 
d="M130 618c0 28 2.16797 51.6689 6.50098 71.002s12.166 35 23.499 47s26.333 20.5 45 25.5s42.667 7.16699 72 6.5v-2c-16.667 -7.33301 -30.167 -14.833 -40.5 -22.5s-18.5 -16 -24.5 -25s-10 -18.833 -12 -29.5s-3 -22.334 -3 -35.001v-177
c0 -17.333 -1 -33.166 -3 -47.499s-6.16699 -27.166 -12.5 -38.499s-15.333 -21.5 -27 -30.5s-27.5 -16.5 -47.5 -22.5v-2c18.667 -3.33301 33.834 -8.33301 45.501 -15s20.834 -15.334 27.501 -26.001s11.167 -23 13.5 -37s3.5 -29.667 3.5 -47v-190
c0 -12.667 1 -24.167 3 -34.5s5.83301 -20 11.5 -29s13.667 -17.5 24 -25.5s24.166 -15.667 41.499 -23v-2c-19.333 0 -38 1 -56 3s-35.667 9.66699 -53 23s-28 29.5 -32 48.5s-6 38.5 -6 58.5v189c0 15.333 -0.833008 28.666 -2.5 39.999s-7.83398 23.666 -18.501 36.999
c-16 18 -36.333 28 -61 30v2c13.333 3.33301 24 6.83301 32 10.5s15 8.16699 21 13.5c15.333 12 24 25.333 26 40s3 30.667 3 48v168z" />
    <glyph glyph-name="bar" unicode="|" horiz-adv-x="222" 
d="M85 750h52v-750h-52v750z" />
    <glyph glyph-name="braceright" unicode="}" horiz-adv-x="351" 
d="M221 446c0 -15.333 0.832031 -28.6709 2.49902 -40.0039s7.83398 -23.666 18.501 -36.999c16 -18 36.333 -28 61 -30v-2c-13.333 -3.33301 -24 -6.83301 -32 -10.5s-15 -8.16699 -21 -13.5c-15.333 -12 -24 -25.333 -26 -40s-3 -30.667 -3 -48v-168
c0 -28 -2.16699 -51.667 -6.5 -71s-12.166 -35 -23.499 -47s-26.5 -20.667 -45.5 -26s-42.833 -7.33301 -71.5 -6v2c16.667 6.66699 30.167 14 40.5 22s18.5 16.5 24.5 25.5s10 18.833 12 29.5s3 22.334 3 35.001v177c0 16.667 1 32.334 3 47.001s6.16699 27.667 12.5 39
s15.333 21.5 27 30.5s27.5 16.5 47.5 22.5v2c-18.667 3.33301 -33.834 8.33301 -45.501 15s-20.834 15.334 -27.501 26.001s-11.167 23 -13.5 37s-3.5 29.667 -3.5 47v190c0 12.667 -1 24.167 -3 34.5s-5.83301 20 -11.5 29s-13.667 17.5 -24 25.5
s-24.166 15.667 -41.499 23v2c19.333 0 38 -1 56 -3s35.667 -9.66699 53 -23s28 -29.5 32 -48.5s6 -38.5 6 -58.5v-189z" />
    <glyph glyph-name="asciitilde" unicode="~" 
d="M21 214c6 10 12.834 20.1719 20.501 30.5049s16 19.666 25 27.999s19.167 15 30.5 20s24 7.5 38 7.5c14.667 0 30.167 -2.66699 46.5 -8s32.166 -11.333 47.499 -18c16 -6.66699 31.167 -12.667 45.5 -18s26.5 -8 36.5 -8c8.66699 0 17 2 25 6s15.5 9 22.5 15
s13.167 12.5 18.5 19.5s10 13.833 14 20.5l33 -34c-6 -10 -12.833 -19.833 -20.5 -29.5s-16.167 -18.334 -25.5 -26.001s-19.5 -13.834 -30.5 -18.501s-23.167 -7 -36.5 -7c-7.33301 0 -15.833 1.16699 -25.5 3.5s-19.5 5.16602 -29.5 8.49902s-19.667 6.83301 -29 10.5
l-24 9.5l-33 12.5c-11.333 4.33301 -23 6.5 -35 6.5c-10.667 0 -20 -2 -28 -6s-15.167 -9.33301 -21.5 -16s-12 -13.834 -17 -21.501l-14.5 -22.5z" />
    <glyph glyph-name="currency" unicode="&#xa4;" 
d="M40 142c-14.667 21.333 -25.5 42.501 -32.5 63.501s-10.5 44.167 -10.5 69.5c0 26.667 3.33301 50.667 10 72s17.667 42.666 33 63.999l-39 39l47 47l40 -38c20 15.333 41.667 26.5 65 33.5s47.666 10.5 72.999 10.5s48.5 -3.83301 69.5 -11.5s41.833 -18.5 62.5 -32.5
l39 38l47 -47l-39 -39c15.333 -22 26.333 -44 33 -66s10 -46.667 10 -74c0 -25.333 -3.66699 -48 -11 -68s-18 -40.333 -32 -61l39 -38l-47 -48l-39 39c-41.333 -30 -88 -45 -140 -45c-24.667 0 -47.667 4 -69 12s-41.666 19 -60.999 33l-40 -39l-47 48zM384 278.001
c0 21.333 -4.1709 41.6621 -12.5039 60.9951s-19.666 36.5 -33.999 51.5s-31 26.833 -50 35.5s-39.5 12.667 -61.5 12c-23.333 0.666992 -45 -3.16602 -65 -11.499s-37.5 -19.666 -52.5 -33.999s-26.667 -31.666 -35 -51.999s-12.5 -42.166 -12.5 -65.499
c0 -22 4.16699 -42.667 12.5 -62s19.833 -36.166 34.5 -50.499s31.667 -25.833 51 -34.5s40 -13 62 -13c22.667 0 43.834 4.33301 63.501 13s36.834 20.167 51.501 34.5s26.334 31.333 35.001 51s13 41.167 13 64.5z" />
    <glyph glyph-name="section" unicode="&#xa7;" 
d="M156 477c-23.333 -10 -42.499 -25 -57.499 -45s-22.5 -43 -22.5 -69c0 -25.333 5.16699 -45.333 15.5 -60s25.5 -29 45.5 -43l154 -109c21.333 9.33301 39.666 23.666 54.999 42.999s23 41 23 65c0 28.667 -7.33301 51.834 -22 69.501s-32.667 34.167 -54 49.5z
M106.001 220c-26 19.333 -45.8291 39.667 -59.4961 61s-20.5 47.666 -20.5 78.999c0 34.667 9.16699 63 27.5 85s41.166 41.667 68.499 59c-9.33301 10 -17.333 19.667 -24 29s-12.334 18.666 -17.001 27.999s-8 19.5 -10 30.5s-3 23.5 -3 37.5c0 20 4.33301 39 13 57
s20.667 33.667 36 47c16.667 14.667 33 24.167 49 28.5s35 6.5 57 6.5c24.667 0 46.667 -4.5 66 -13.5s35.5 -21.167 48.5 -36.5s23 -33.166 30 -53.499s11.167 -42.166 12.5 -65.499h-55c-1.33301 15.333 -4 30.5 -8 45.5s-10 28.333 -18 40s-18.167 21 -30.5 28
s-27.5 10.5 -45.5 10.5c-28 0 -50.833 -7.16699 -68.5 -21.5s-27.5 -36.166 -29.5 -65.499c-2.66699 -28 2.16602 -51.167 14.499 -69.5s29.5 -35.166 51.5 -50.499l112 -76c24.667 -16.667 44.5 -33.167 59.5 -49.5s26.667 -32 35 -47s14 -29.5 17 -43.5s4.5 -27 4.5 -39
c0 -31.333 -9.33301 -58.833 -28 -82.5s-40.667 -43.167 -66 -58.5c17.333 -15.333 30.5 -33.333 39.5 -54s13.5 -42.334 13.5 -65.001c0 -46 -14.333 -82.167 -43 -108.5s-65.667 -39.5 -111 -39.5c-25.333 0 -47.833 4.33301 -67.5 13s-36.334 20.5 -50.001 35.5
s-24 32.833 -31 53.5s-10.167 43.334 -9.5 68.001h54c-0.666992 -38.667 8 -69.167 26 -91.5s43.333 -33.5 76 -33.5c17.333 0 32.333 2.83301 45 8.5s23 13.167 31 22.5s14 19.666 18 30.999s6 23 6 35c0 24 -5.66699 44.667 -17 62s-26.333 32.666 -45 45.999z" />
    <glyph glyph-name="copyright" unicode="&#xa9;" horiz-adv-x="800" 
d="M401 -18c-53.333 0 -103.166 10.333 -149.499 31s-87 48.834 -122 84.501s-62.5 77.334 -82.5 125.001s-30 98.834 -30 153.501c0 54 10 104.833 30 152.5s47.5 89.334 82.5 125.001s75.667 63.834 122 84.501s96.166 31 149.499 31c52.667 0 102.167 -10.333 148.5 -31
s86.833 -48.834 121.5 -84.501s62 -77.334 82 -125.001s30 -98.5 30 -152.5c0 -54.667 -10 -105.834 -30 -153.501s-47.333 -89.334 -82 -125.001s-75.167 -63.834 -121.5 -84.501s-95.833 -31 -148.5 -31zM401 29c46 0 89.333 9 130 27s76.167 42.833 106.5 74.5
s54.333 68.5 72 110.5s26.5 87 26.5 135s-8.83301 92.833 -26.5 134.5s-41.667 78.167 -72 109.5s-65.833 56 -106.5 74s-84 27 -130 27c-46.667 0 -90.334 -9 -131.001 -27s-76.167 -42.667 -106.5 -74s-54.333 -67.833 -72 -109.5s-26.5 -86.5 -26.5 -134.5
s8.83301 -93 26.5 -135s41.667 -78.833 72 -110.5s65.833 -56.5 106.5 -74.5s84.334 -27 131.001 -27zM595 304c-2.66699 -23.333 -9.16797 -44.3359 -19.501 -63.0029s-23.5 -34.667 -39.5 -48s-34.167 -23.5 -54.5 -30.5s-41.5 -10.5 -63.5 -10.5
c-32 0 -61 5.83301 -87 17.5s-48.333 27.667 -67 48s-33 44.333 -43 72s-15 57.5 -15 89.5c0 32.667 4.83301 62.834 14.5 90.501s23.5 51.5 41.5 71.5s39.833 35.667 65.5 47s54.834 17 87.501 17c22.667 0 44.167 -3.33301 64.5 -10s38.5 -16.334 54.5 -29.001
s29.167 -28.167 39.5 -46.5s17.5 -39.166 21.5 -62.499h-55c-5.33301 30.667 -19.666 55.334 -42.999 74.001s-50.333 28 -81 28c-25.333 0 -47.5 -4.66699 -66.5 -14s-35 -22.166 -48 -38.499s-22.833 -35.333 -29.5 -57s-10 -44.834 -10 -69.501
c0 -23.333 3.5 -46 10.5 -68s17.167 -41.333 30.5 -58s29.666 -30 48.999 -40s41.333 -15 66 -15c30 0 56.833 9.33301 80.5 28s37.5 44.334 41.5 77.001h55z" />
    <glyph glyph-name="guillemotleft" unicode="&#xab;" horiz-adv-x="500" 
d="M83 236v70l141 106v-60l-101 -81l101 -79v-62zM270 236v70l141 106v-60l-102 -81l102 -79v-62z" />
    <glyph glyph-name="logicalnot" unicode="&#xac;" 
d="M424 360v-267h-51v216h-352v51h403z" />
    <glyph glyph-name="registered" unicode="&#xae;" horiz-adv-x="800" 
d="M401 -18c-53.333 0 -103.166 10.333 -149.499 31s-87 48.834 -122 84.501s-62.5 77.334 -82.5 125.001s-30 98.834 -30 153.501c0 54 10 104.833 30 152.5s47.5 89.334 82.5 125.001s75.667 63.834 122 84.501s96.166 31 149.499 31c52.667 0 102.167 -10.333 148.5 -31
s86.833 -48.834 121.5 -84.501s62 -77.334 82 -125.001s30 -98.5 30 -152.5c0 -54.667 -10 -105.834 -30 -153.501s-47.333 -89.334 -82 -125.001s-75.167 -63.834 -121.5 -84.501s-95.833 -31 -148.5 -31zM401 29c46 0 89.333 9 130 27s76.167 42.833 106.5 74.5
s54.333 68.5 72 110.5s26.5 87 26.5 135s-8.83301 92.833 -26.5 134.5s-41.667 78.167 -72 109.5s-65.833 56 -106.5 74s-84 27 -130 27c-46.667 0 -90.334 -9 -131.001 -27s-76.167 -42.667 -106.5 -74s-54.333 -67.833 -72 -109.5s-26.5 -86.5 -26.5 -134.5
s8.83301 -93 26.5 -135s41.667 -78.833 72 -110.5s65.833 -56.5 106.5 -74.5s84.334 -27 131.001 -27zM591 156l-61.999 0.000976562l-122 203h-96v-203h-52v440h186c18 0 35.833 -1.16699 53.5 -3.5s34.5 -8.5 50.5 -18.5c16 -9.33301 28 -22.833 36 -40.5
s12 -35.834 12 -54.501c0 -21.333 -3.5 -39.5 -10.5 -54.5s-16.5 -27.333 -28.5 -37s-26.333 -16.667 -43 -21s-34.334 -6.83301 -53.001 -7.5zM391.001 401.001h48.999c18 0 34.667 2.16699 50 6.5s28.166 12 38.499 23s15.5 27.5 15.5 49.5
c0 16.667 -3.33301 30.167 -10 40.5s-15.167 18 -25.5 23s-22.166 8.33301 -35.499 10s-26.666 2.5 -39.999 2.5h-122v-155h80z" />
    <glyph glyph-name="degree" unicode="&#xb0;" horiz-adv-x="400" 
d="M350 594c0 -20.667 -4.00195 -40.167 -12.002 -58.5s-18.833 -34.166 -32.5 -47.499s-29.5 -24 -47.5 -32s-37.333 -12 -58 -12s-40.167 4 -58.5 12s-34.166 18.667 -47.499 32s-24 29.166 -32 47.499s-12 37.833 -12 58.5s3.83301 40 11.5 58s18.334 33.833 32.001 47.5
s29.667 24.5 48 32.5s37.833 12 58.5 12s40 -4 58 -12s33.833 -18.833 47.5 -32.5s24.5 -29.5 32.5 -47.5s12 -37.333 12 -58zM309.998 594c0 14.667 -3 28.667 -9 42s-14 25 -24 35s-21.667 18 -35 24s-27.666 9 -42.999 9s-29.5 -3 -42.5 -9s-24.5 -14 -34.5 -24
s-17.833 -21.667 -23.5 -35s-8.5 -27.333 -8.5 -42c0 -15.333 2.83301 -29.666 8.5 -42.999s13.5 -25 23.5 -35s21.667 -17.833 35 -23.5s27.666 -8.5 42.999 -8.5c14.667 0 28.667 2.83301 42 8.5s25 13.5 35 23.5s18 21.667 24 35s9 27.666 9 42.999z" />
    <glyph glyph-name="plusminus" unicode="&#xb1;" 
d="M21 270v51h176v169h51v-169h176v-51h-176v-170h-51v170h-176zM424 0h-403v51h403v-51z" />
    <glyph glyph-name="mu" unicode="&#xb5;" 
d="M321 552l58 -0.000976562v-552h-56v51c-18.667 -23.333 -39.5 -40 -62.5 -50s-49.167 -15 -78.5 -15c-14 0 -26.333 2.33301 -37 7s-19.667 10.334 -27 17.001v-199h-58v741h58v-418c0 -35.333 7.33301 -61 22 -77s39.667 -22.667 75 -20
c11.333 0.666992 22.5 3.66699 33.5 9s21 12.5 30 21.5s17.167 19 24.5 30s13.333 22.5 18 34.5v420z" />
    <glyph glyph-name="paragraph" unicode="&#xb6;" horiz-adv-x="222" 
d="M85 300h52v-300h-52v300zM137 750v-300h-52v300h52z" />
    <glyph glyph-name="periodcentered" unicode="&#xb7;" horiz-adv-x="222" 
d="M77 201v88h69v-88h-69z" />
    <glyph glyph-name="guillemotright" unicode="&#xbb;" horiz-adv-x="500" 
d="M276 412l141 -106v-70l-141 -106v62l101 79l-101 81v60zM230 306v-70l-141 -106v62l102 79l-102 81v60z" />
    <glyph glyph-name="Udieresis" unicode="&#xdc;" 
d="M412 539v-51h-160v-605h-58v605h-162v51h162v229h58v-229h160z" />
    <glyph glyph-name="afii10023" unicode="&#x401;" 
d="M67 0v750h340v-58h-275v-270h250v-58h-250v-306h280v-58h-345zM112 917h64v-102h-64v102zM270 917h64v-102h-64v102z" />
    <glyph glyph-name="afii10051" unicode="&#x402;" horiz-adv-x="648" 
d="M525 305c0 37.333 -8.83301 65.667 -26.5 85s-42.834 29 -75.501 29s-63.167 -6 -91.5 -18s-53.833 -26 -76.5 -42v-359h-65v692h-170v58h405v-58h-170v-275c22 14 47.833 27.167 77.5 39.5s65.167 18.5 106.5 18.5c20.667 0 40.167 -3.83301 58.5 -11.5
s34.333 -18.334 48 -32.001s24.5 -30 32.5 -49s12 -40.167 12 -63.5v-159c0 -52 -14.333 -94.667 -43 -128s-72 -50 -130 -50h-27v58h27c19.333 0 35.833 3.66699 49.5 11s24.834 17 33.501 29s15 25.333 19 40s6 29.334 6 44.001v141z" />
    <glyph glyph-name="afii10052" unicode="&#x403;" 
d="M69 0v750h345v-58h-280v-692h-65zM160 804l111 139h78l-138 -139h-51z" />
    <glyph glyph-name="afii10053" unicode="&#x404;" horiz-adv-x="556" 
d="M492 254c0.666992 -32 -3.00098 -64.1689 -11.001 -96.502s-20.667 -61.5 -38 -87.5s-39.5 -47.167 -66.5 -63.5s-59.167 -24.5 -96.5 -24.5c-36 0 -66.5 6.5 -91.5 19.5s-45.5 30.5 -61.5 52.5s-28.333 47.167 -37 75.5s-15 57.833 -19 88.5s-6.33301 61.334 -7 92.001
s-1 59.334 -1 86.001c0 26 0.833008 53.167 2.5 81.5s5 56.166 10 83.499s12.333 53.5 22 78.5s22.667 47 39 66s36.333 34.167 60 45.5s52.167 17 85.5 17c34 0 63.667 -6.16699 89 -18.5s46.5 -29.166 63.5 -50.499s29.833 -46.166 38.5 -74.499s13 -58.5 13 -90.5h-65
c-1.33301 22 -4.66602 43.667 -9.99902 65s-13.5 40.166 -24.5 56.499s-25.167 29.5 -42.5 39.5s-38.666 15 -63.999 15c-34.667 0 -62 -9.83301 -82 -29.5s-35.167 -44 -45.5 -73s-17 -60.167 -20 -93.5s-4.5 -64 -4.5 -92h236v-58h-236c0 -20 0.333008 -41.833 1 -65.5
s2.5 -47.5 5.5 -71.5s7.66699 -47.167 14 -69.5s15.5 -42.333 27.5 -60s27 -31.667 45 -42s40 -15.5 66 -15.5c28 0 50.833 6.83301 68.5 20.5s31.667 31 42 52s17.666 44 21.999 69s6.83301 49.167 7.5 72.5h65v0z" />
    <glyph glyph-name="afii10054" unicode="&#x405;" horiz-adv-x="500" 
d="M269 409c27.333 -11.333 52.833 -22.665 76.5 -33.998s44 -24.833 61 -40.5s30.333 -34.667 40 -57s14.5 -50.5 14.5 -84.5c0 -32 -5 -61 -15 -87s-24.333 -48.167 -43 -66.5s-41.334 -32.5 -68.001 -42.5s-56.334 -15 -89.001 -15c-34 0 -64 5.66699 -90 17
s-47.833 27.333 -65.5 48s-30.667 45 -39 73s-12.166 58.667 -11.499 92h64c0 -23.333 2.5 -45.5 7.5 -66.5s13 -39.333 24 -55s25.5 -28 43.5 -37s40 -13.5 66 -13.5c46 0 82.667 13.5 110 40.5s41 63.833 41 110.5c0 28 -4.66699 50.833 -14 68.5
s-21.833 32.167 -37.5 43.5s-33.667 20.833 -54 28.5l-62.5 24.5c-25.333 10 -48.5 20.667 -69.5 32s-39.167 24.833 -54.5 40.5s-27.333 34.167 -36 55.5s-13 47 -13 77c0 30.667 4.5 58.667 13.5 84s21.833 47.166 38.5 65.499s37 32.5 61 42.5s51.333 15 82 15
c29.333 0 55.833 -4.83301 79.5 -14.5s44 -23.334 61 -41.001s29.833 -38.667 38.5 -63s12.667 -51.166 12 -80.499h-63c2 42 -8.5 76 -31.5 102s-55.5 39 -97.5 39c-21.333 0 -40 -3.66699 -56 -11s-29.5 -17.5 -40.5 -30.5s-19.167 -28.333 -24.5 -46
s-8 -36.834 -8 -57.501c0 -18.667 1.66699 -34.667 5 -48s8.5 -25 15.5 -35s16.333 -18.833 28 -26.5s25.834 -15.167 42.501 -22.5z" />
    <glyph glyph-name="afii10055" unicode="&#x406;" horiz-adv-x="222" 
d="M79 0v750h65v-750h-65z" />
    <glyph glyph-name="afii10056" unicode="&#x407;" horiz-adv-x="222" 
d="M79 0v750h65v-750h-65zM1 917h64v-102h-64v102zM159 917h64v-102h-64v102z" />
    <glyph glyph-name="afii10057" unicode="&#x408;" horiz-adv-x="389" 
d="M77 219l0.00195312 -16.001c0 -18.667 0.5 -37.667 1.5 -57s4.5 -36.833 10.5 -52.5s15.167 -28.5 27.5 -38.5s29.833 -15 52.5 -15c19.333 0 34.5 3.66699 45.5 11s19.167 16.833 24.5 28.5s8.66602 24.834 9.99902 39.501s2 29.667 2 45v586h65v-590
c0 -26 -2.5 -49.833 -7.5 -71.5s-13.5 -40.5 -25.5 -56.5s-27.833 -28.333 -47.5 -37s-43.834 -13 -72.501 -13c-28 0 -51.5 5.16699 -70.5 15.5s-34.333 24 -46 41s-20.167 36.667 -25.5 59s-8.33301 45.5 -9 69.5v52h65z" />
    <glyph glyph-name="afii10058" unicode="&#x409;" horiz-adv-x="851" 
d="M488 58l56.998 -0.000976562c30 0 57.5 1.66699 82.5 5s46.5 10.5 64.5 21.5s32.167 26.833 42.5 47.5s15.5 48.334 15.5 83.001c0 29.333 -3.66699 53.5 -11 72.5s-18.166 34.167 -32.499 45.5s-31.666 19.333 -51.999 24s-43.5 7 -69.5 7h-97v-306zM487.998 421.999
l69.002 -0.000976562c42.667 0 80.167 -3.16699 112.5 -9.5s59.166 -17.166 80.499 -32.499s37.5 -35.833 48.5 -61.5s16.5 -58.167 16.5 -97.5c0 -37.333 -4.83301 -70 -14.5 -98s-25.834 -51.333 -48.501 -70c-12 -10.667 -25.833 -19.334 -41.5 -26.001
s-31.334 -12 -47.001 -16s-30.167 -6.83301 -43.5 -8.5s-23.666 -2.5 -30.999 -2.5h-166v692h-247v-432c0 -35.333 -0.833008 -69.666 -2.5 -102.999s-7 -63 -16 -89s-23.667 -46.833 -44 -62.5s-48.833 -23.5 -85.5 -23.5v64c20.667 0 36.667 4.83301 48 14.5
s19.5 24 24.5 43s8 42.5 9 70.5s1.5 60 1.5 96v480h377v-328z" />
    <glyph glyph-name="afii10059" unicode="&#x40a;" horiz-adv-x="851" 
d="M488 58l56.998 -0.000976562c30 0 57.5 1.66699 82.5 5s46.5 10.5 64.5 21.5s32.167 26.833 42.5 47.5s15.5 48.334 15.5 83.001c0 29.333 -3.66699 53.5 -11 72.5s-18.166 34.167 -32.499 45.5s-31.666 19.333 -51.999 24s-43.5 7 -69.5 7h-97v-306zM132.998 372.999
l0.00195312 -373h-65v750h65v-319h290v319h65v-328h69c42.667 0 80.167 -3.16699 112.5 -9.5s59.166 -17.166 80.499 -32.499s37.5 -35.833 48.5 -61.5s16.5 -58.167 16.5 -97.5c0 -37.333 -4.83301 -70 -14.5 -98s-25.834 -51.333 -48.501 -70
c-12 -10.667 -25.833 -19.334 -41.5 -26.001s-31.334 -12 -47.001 -16s-30.167 -6.83301 -43.5 -8.5s-23.666 -2.5 -30.999 -2.5h-166v373h-290z" />
    <glyph glyph-name="afii10060" unicode="&#x40b;" horiz-adv-x="648" 
d="M255 0l-64.999 0.00195312v692h-170v58h405v-58h-170v-275c22 14 47.833 27.167 77.5 39.5s65.167 18.5 106.5 18.5c20.667 0 40.167 -3.83301 58.5 -11.5s34.333 -18.334 48 -32.001s24.5 -30 32.5 -49s12 -40.167 12 -63.5v-319h-65v305
c0 37.333 -8.83301 65.666 -26.5 84.999s-42.834 29 -75.501 29s-63.167 -6 -91.5 -18s-53.833 -26 -76.5 -42v-359z" />
    <glyph glyph-name="afii10061" unicode="&#x40c;" horiz-adv-x="500" 
d="M67 0v750h65v-375l273 375h75l-222 -303l233 -447h-70l-205 394l-84 -110v-284h-65zM188 804l111 139h78l-138 -139h-51z" />
    <glyph glyph-name="afii10062" unicode="&#x40e;" horiz-adv-x="500" 
d="M9 750h72l190 -473l153 473h68l-213 -629c-6 -18 -12.667 -35.333 -20 -52s-16 -31.5 -26 -44.5s-22 -23.333 -36 -31s-30.667 -11.5 -50 -11.5c-9.33301 0 -18 0.333008 -26 1l-23 2v61c5.33301 -0.666992 11.5 -1.16699 18.5 -1.5s13.167 -0.5 18.5 -0.5
c14 0 27 4 39 12s23.333 25.333 34 52l34 85zM148 917c4.66699 -27.333 16.668 -47.665 36.001 -60.998s42.333 -20 69 -20s49.667 6.66699 69 20s31.666 33.666 36.999 60.999h37c-4 -42 -19.5 -73.5 -46.5 -94.5s-60.833 -31.5 -101.5 -31.5
c-40 0 -72.333 11.167 -97 33.5s-39 53.166 -43 92.499h40z" />
    <glyph glyph-name="afii10145" unicode="&#x40f;" horiz-adv-x="556" 
d="M68 0v750h65v-692h290v692h65v-750h-177v-108h-65v108h-178z" />
    <glyph glyph-name="afii10017" unicode="&#x410;" horiz-adv-x="500" 
d="M350 289l-99 379h-2l-99 -379h200zM288 750l201 -750h-66l-59 231h-228l-61 -231h-63l201 750h75z" />
    <glyph glyph-name="afii10018" unicode="&#x411;" horiz-adv-x="500" 
d="M134 58l56.998 -0.000976562c30 0 57.5 1.66699 82.5 5s46.5 10.5 64.5 21.5s32.167 26.833 42.5 47.5s15.5 48.334 15.5 83.001c0 29.333 -3.66699 53.5 -11 72.5s-18.166 34.167 -32.499 45.5s-31.666 19.333 -51.999 24s-43.5 7 -69.5 7h-97v-306zM413.998 691.999
h-279.998v-270h69c42.667 0 80.167 -3.16699 112.5 -9.5s59.166 -17.166 80.499 -32.499s37.5 -35.833 48.5 -61.5s16.5 -58.167 16.5 -97.5c0 -37.333 -4.83301 -70 -14.5 -98s-25.834 -51.333 -48.501 -70c-12 -10.667 -25.833 -19.334 -41.5 -26.001
s-31.334 -12 -47.001 -16s-30.167 -6.83301 -43.5 -8.5s-23.666 -2.5 -30.999 -2.5h-166v750h345v-58z" />
    <glyph glyph-name="afii10019" unicode="&#x412;" horiz-adv-x="500" 
d="M127 364v-306.002h81c28.667 0 54.167 2.33301 76.5 7s41.333 12.834 57 24.501s27.5 27.834 35.5 48.501s12 47 12 79c0 34 -5 60.667 -15 80s-23.667 34 -41 44s-37.833 16.333 -61.5 19s-49.167 4 -76.5 4h-68zM194 421.998c26.667 0 50.668 1.83398 72.001 5.50098
s39.5 10.667 54.5 21s26.667 24.833 35 43.5s12.5 43 12.5 73c0 29.333 -4.83301 52.5 -14.5 69.5s-22.667 29.667 -39 38s-35.333 13.666 -57 15.999s-44.834 3.5 -69.501 3.5h-61v-270h67zM62.001 -0.000976562l0.000976562 749.999h164
c25.333 0 51.666 -2.33301 78.999 -7s51 -16 71 -34c20.667 -18 35.334 -39.167 44.001 -63.5s13 -50.5 13 -78.5c0 -37.333 -7.83301 -71.666 -23.5 -102.999s-41.834 -54 -78.501 -68c44 -12 75.5 -34 94.5 -66s28.5 -70 28.5 -114c0 -47.333 -7.5 -85.333 -22.5 -114
s-35.5 -50.5 -61.5 -65.5s-56.5 -24.833 -91.5 -29.5s-72.833 -7 -113.5 -7h-103z" />
    <glyph glyph-name="afii10020" unicode="&#x413;" 
d="M69 0v750h345v-58h-280v-692h-65z" />
    <glyph glyph-name="afii10021" unicode="&#x414;" horiz-adv-x="556" 
d="M62 58c19.333 13.333 32.333 37.832 39 73.499s10 81.834 10 138.501v480h377v-692h47v-166h-65v108h-388v-108h-65v166h45zM423 691.999h-247v-432c0 -18.667 -0.5 -37.5 -1.5 -56.5s-3 -37.333 -6 -55s-6.83301 -34.167 -11.5 -49.5s-11 -29 -19 -41h285v634z" />
    <glyph glyph-name="afii10022" unicode="&#x415;" 
d="M67 0v750h340v-58h-275v-270h250v-58h-250v-306h280v-58h-345z" />
    <glyph glyph-name="afii10024" unicode="&#x416;" horiz-adv-x="795" 
d="M430 375l273 375h75l-222 -303l233 -447h-70l-205 394l-84 -110v-284h-65v284l-84 110l-205 -394h-70l233 447l-222 303h75l273 -375v375h65v-375z" />
    <glyph glyph-name="afii10025" unicode="&#x417;" horiz-adv-x="500" 
d="M178 364l0.00878906 54.9951h21c53.333 0 95.5 13 126.5 39s46.5 64.667 46.5 116c0 17.333 -2.66699 34.333 -8 51s-13.333 31.5 -24 44.5s-23.834 23.5 -39.501 31.5s-33.834 12 -54.501 12c-22 0 -40.833 -4.66699 -56.5 -14s-28.667 -21.333 -39 -36
s-18.166 -31 -23.499 -49s-8.66602 -35.667 -9.99902 -53h-62c0 26 4 51.5 12 76.5s19.833 47.167 35.5 66.5s35 34.833 58 46.5s49.5 17.5 79.5 17.5c30.667 0 58.5 -5 83.5 -15s46 -24 63 -42s30.167 -39.167 39.5 -63.5s14 -50.5 14 -78.5c0 -7.33301 -1 -18.5 -3 -33.5
s-6.83301 -31 -14.5 -48s-19.167 -33.667 -34.5 -50s-36.333 -29.833 -63 -40.5c26 -9.33301 47.667 -21.166 65 -35.499s31.166 -30.166 41.499 -47.499s17.666 -35.666 21.999 -54.999s6.5 -38.666 6.5 -57.999c0 -34.667 -4.5 -64.167 -13.5 -88.5
s-20.333 -44.666 -34 -60.999s-28.834 -29 -45.501 -38s-32.834 -15.667 -48.501 -20s-30 -7 -43 -8s-22.167 -1.5 -27.5 -1.5h-21c-11.333 0 -24.833 1.83301 -40.5 5.5s-32.334 9.5 -50.001 17.5s-33.834 20 -48.501 36s-26.834 36.5 -36.501 61.5
s-14.167 56.5 -13.5 94.5h65c0.666992 -21.333 3.83398 -41.5 9.50098 -60.5s14.167 -36 25.5 -51s26 -26.833 44 -35.5s39.333 -13 64 -13c24 0 45.167 4.66699 63.5 14s33.666 21.666 45.999 36.999s21.5 32.833 27.5 52.5s9 39.834 9 60.501c0 14.667 -2.5 31 -7.5 49
s-13.833 35 -26.5 51s-29.834 29.833 -51.501 41.5s-48.834 18.167 -81.501 19.5h-47z" />
    <glyph glyph-name="afii10026" unicode="&#x418;" horiz-adv-x="556" 
d="M490 750v-750h-65v642h-2l-278 -642h-79v750h65v-644h2l276 644h81z" />
    <glyph glyph-name="afii10027" unicode="&#x419;" horiz-adv-x="556" 
d="M490 750v-750h-65v642h-2l-278 -642h-79v750h65v-644h2l276 644h81zM176 917c4.66699 -27.333 16.668 -47.665 36.001 -60.998s42.333 -20 69 -20s49.667 6.66699 69 20s31.666 33.666 36.999 60.999h37c-4 -42 -19.5 -73.5 -46.5 -94.5s-60.833 -31.5 -101.5 -31.5
c-40 0 -72.333 11.167 -97 33.5s-39 53.166 -43 92.499h40z" />
    <glyph glyph-name="afii10028" unicode="&#x41a;" horiz-adv-x="500" 
d="M67 0v750h65v-375l273 375h75l-222 -303l233 -447h-70l-205 394l-84 -110v-284h-65z" />
    <glyph glyph-name="afii10029" unicode="&#x41b;" horiz-adv-x="556" 
d="M176 260c0 -35.333 -0.833008 -69.667 -2.5 -103s-7 -63 -16 -89s-23.667 -46.833 -44 -62.5s-48.833 -23.5 -85.5 -23.5v64c20.667 0 36.667 4.83301 48 14.5s19.5 24 24.5 43s8 42.5 9 70.5s1.5 60 1.5 96v480h377v-750h-65v692h-247v-432z" />
    <glyph glyph-name="afii10030" unicode="&#x41c;" horiz-adv-x="722" 
d="M138 0h-65v750h109l178 -654h2l182 654h106v-750h-65v685h-2l-186 -685h-69l-188 685h-2v-685z" />
    <glyph glyph-name="afii10031" unicode="&#x41d;" horiz-adv-x="556" 
d="M68 0v750h65v-319h290v319h65v-750h-65v373h-290v-373h-65z" />
    <glyph glyph-name="afii10032" unicode="&#x41e;" horiz-adv-x="556" 
d="M276 -18c-36 0 -66.499 6.49805 -91.499 19.498s-45.5 30.5 -61.5 52.5s-28.5 47.167 -37.5 75.5s-15.5 57.833 -19.5 88.5s-6.33301 61.334 -7 92.001s-1 59.334 -1 86.001c0 38.667 2.16699 79.667 6.5 123s14 83.5 29 120.5s37 67.667 66 92s68.5 36.5 118.5 36.5
c36.667 0 67.667 -6.33301 93 -19s46.166 -29.667 62.499 -51s28.833 -45.833 37.5 -73.5s15.167 -56.667 19.5 -87s6.83301 -60.833 7.5 -91.5s1 -59.667 1 -87c0 -40.667 -1.66699 -83.167 -5 -127.5s-12.333 -85 -27 -122s-37 -67.5 -67 -91.5s-71.333 -36 -124 -36z
M282.001 39.998c26.667 0 48.835 5.82812 66.502 17.4951s32.167 26.834 43.5 45.501s19.833 40 25.5 64s9.66699 48.333 12 73s3.66602 48.667 3.99902 72s0.5 44 0.5 62s-0.166992 39 -0.5 63s-2 48.333 -5 73s-7.66699 49 -14 73s-15.333 45.5 -27 64.5
s-26.667 34.167 -45 45.5s-40.833 17 -67.5 17c-25.333 0 -46.666 -5.66699 -63.999 -17s-31.5 -26.166 -42.5 -44.499s-19.667 -39.166 -26 -62.499s-10.833 -47.166 -13.5 -71.499s-4.33398 -48.166 -5.00098 -71.499s-1 -44 -1 -62
c0 -19.333 0.166992 -41.166 0.5 -65.499s1.66602 -49 3.99902 -74s6.66602 -49.667 12.999 -74s15.333 -45.833 27 -64.5s26.834 -33.834 45.501 -45.501s41.667 -17.5 69 -17.5z" />
    <glyph glyph-name="afii10033" unicode="&#x41f;" horiz-adv-x="556" 
d="M68 0v750h420v-750h-65v692h-290v-692h-65z" />
    <glyph glyph-name="afii10034" unicode="&#x420;" horiz-adv-x="500" 
d="M76 0l-0.00292969 750h133c42 0 78.833 -3 110.5 -9s58 -16.5 79 -31.5s36.833 -35 47.5 -60s16 -56.833 16 -95.5c0 -36 -4.66699 -67.667 -14 -95s-25 -50 -47 -68c-12 -10 -25.667 -18.333 -41 -25s-30.666 -12 -45.999 -16s-29.666 -6.83301 -42.999 -8.5
s-23.666 -2.5 -30.999 -2.5h-99v-339h-65zM140.997 397h55.998c28.667 0 55.334 1.5 80.001 4.5s45.834 9.83301 63.501 20.5s31.5 26 41.5 46s15 46.667 15 80c0 28.667 -3.5 52.167 -10.5 70.5s-17.333 32.833 -31 43.5s-30.5 18.167 -50.5 22.5s-43 6.83301 -69 7.5h-95
v-295z" />
    <glyph glyph-name="afii10035" unicode="&#x421;" horiz-adv-x="556" 
d="M492 254c0.666992 -32 -3 -64.167 -11 -96.5s-20.667 -61.5 -38 -87.5s-39.5 -47.167 -66.5 -63.5s-59.167 -24.5 -96.5 -24.5c-36 0 -66.5 6.5 -91.5 19.5s-45.5 30.5 -61.5 52.5s-28.333 47.167 -37 75.5s-15 57.833 -19 88.5s-6.33301 61.334 -7 92.001
s-1 59.334 -1 86.001c0 26 0.833008 53.167 2.5 81.5s5 56.166 10 83.499s12.333 53.5 22 78.5s22.667 47 39 66s36.333 34.167 60 45.5s52.167 17 85.5 17c34 0 63.667 -6.16699 89 -18.5s46.5 -29.166 63.5 -50.499s29.833 -46.166 38.5 -74.499s13 -58.5 13 -90.5h-65
c-1.33301 22 -4.66602 43.667 -9.99902 65s-13.5 40.166 -24.5 56.499s-25.167 29.5 -42.5 39.5s-38.666 15 -63.999 15c-26.667 0 -48.834 -5.83301 -66.501 -17.5s-32.167 -26.834 -43.5 -45.501s-19.833 -39.834 -25.5 -63.501s-9.66699 -47.667 -12 -72
s-3.66602 -48 -3.99902 -71s-0.5 -42.833 -0.5 -59.5c0 -19.333 0.166992 -41.166 0.5 -65.499s1.66602 -49 3.99902 -74s6.66602 -49.667 12.999 -74s15.333 -45.833 27 -64.5s26.834 -33.834 45.501 -45.501s41.667 -17.5 69 -17.5c28 0 50.833 6.83301 68.5 20.5
s31.667 31 42 52s17.666 44 21.999 69s6.83301 49.167 7.5 72.5h65z" />
    <glyph glyph-name="afii10036" unicode="&#x422;" 
d="M20 692v58h405v-58h-170v-692h-65v692h-170z" />
    <glyph glyph-name="afii10037" unicode="&#x423;" horiz-adv-x="500" 
d="M9 750h72l190 -473l153 473h68l-213 -629c-6 -18 -12.667 -35.333 -20 -52s-16 -31.5 -26 -44.5s-22 -23.333 -36 -31s-30.667 -11.5 -50 -11.5c-9.33301 0 -18 0.333008 -26 1l-23 2v61c5.33301 -0.666992 11.5 -1.16699 18.5 -1.5s13.167 -0.5 18.5 -0.5
c14 0 27 4 39 12s23.333 25.333 34 52l34 85z" />
    <glyph glyph-name="afii10038" unicode="&#x424;" horiz-adv-x="722" 
d="M267 573c-52 -1.33301 -92.333 -19.6689 -121 -55.002s-43 -81.666 -43 -138.999c0 -33.333 5.16699 -62.666 15.5 -87.999s24.5 -46.333 42.5 -63s39.333 -29.167 64 -37.5s51.667 -12.5 81 -12.5h23v395h-62zM394 177.997l23 0.00292969
c28.667 0 55.5 4.16699 80.5 12.5s46.5 20.833 64.5 37.5s32.167 37.667 42.5 63s15.5 54.666 15.5 87.999c0 57.333 -14.333 103.666 -43 138.999s-69 53.666 -121 54.999h-62v-395zM394 630h35c85.333 0 149.333 -21.667 192 -65s64 -103.666 64 -180.999
c0 -41.333 -6.5 -78.333 -19.5 -111s-30.5 -60.334 -52.5 -83.001s-47.5 -40.167 -76.5 -52.5s-59.5 -18.5 -91.5 -18.5h-51v-119h-65v119h-51c-32 0 -62.5 6.16699 -91.5 18.5s-54.5 29.833 -76.5 52.5s-39.5 50.334 -52.5 83.001s-19.5 69.667 -19.5 111
c0 77.333 21.333 137.666 64 180.999s106.667 65 192 65h35v120h65v-120z" />
    <glyph glyph-name="afii10039" unicode="&#x425;" horiz-adv-x="500" 
d="M27 750h73l149 -301l153 301h72l-186 -363l194 -387h-71l-162 326l-161 -326h-70l193 387z" />
    <glyph glyph-name="afii10040" unicode="&#x426;" horiz-adv-x="556" 
d="M68 0v750h65v-692h290v692h65v-692h47v-166h-65v108h-402z" />
    <glyph glyph-name="afii10041" unicode="&#x427;" horiz-adv-x="518" 
d="M387 0l-0.00195312 373c-25.333 -15.333 -53.166 -29.166 -83.499 -41.499s-65.5 -18.5 -105.5 -18.5c-20.667 0 -39.834 3.83301 -57.501 11.5s-33 18.5 -46 32.5s-23.333 30.667 -31 50s-11.5 40.666 -11.5 63.999v279h65v-263c0 -37.333 8.83301 -65 26.5 -83
s42.834 -27 75.501 -27c32 0 62.333 5 91 15s54.334 23 77.001 39v319h65v-750h-65z" />
    <glyph glyph-name="afii10042" unicode="&#x428;" horiz-adv-x="722" 
d="M68 750h65v-692h195v692h65v-692h195v692h65l-1 -750h-584v750z" />
    <glyph glyph-name="afii10043" unicode="&#x429;" horiz-adv-x="722" 
d="M68 0v750h65v-692h195v692h65v-692h195v692h65v-692h47v-166h-65v108h-567z" />
    <glyph glyph-name="afii10044" unicode="&#x42a;" horiz-adv-x="556" 
d="M190 58l56.998 -0.000976562c30 0 57.5 1.66699 82.5 5s46.5 10.5 64.5 21.5s32.167 26.833 42.5 47.5s15.5 48.334 15.5 83.001c0 29.333 -3.66699 53.5 -11 72.5s-18.166 34.167 -32.499 45.5s-31.666 19.333 -51.999 24s-43.5 7 -69.5 7h-97v-306zM19.998 691.999
l0.00195312 58h170v-328h69c42.667 0 80.167 -3.16699 112.5 -9.5s59.166 -17.166 80.499 -32.499s37.5 -35.833 48.5 -61.5s16.5 -58.167 16.5 -97.5c0 -37.333 -4.83301 -70 -14.5 -98s-25.834 -51.333 -48.501 -70c-12 -10.667 -25.833 -19.334 -41.5 -26.001
s-31.334 -12 -47.001 -16s-30.167 -6.83301 -43.5 -8.5s-23.666 -2.5 -30.999 -2.5h-166v692h-105z" />
    <glyph glyph-name="afii10045" unicode="&#x42b;" horiz-adv-x="685" 
d="M69 750h65.002v-328h69c42.667 0 80.167 -3.16699 112.5 -9.5s59.166 -17.166 80.499 -32.499s37.5 -35.833 48.5 -61.5s16.5 -58.167 16.5 -97.5c0 -37.333 -4.83301 -70 -14.5 -98s-25.834 -51.333 -48.501 -70c-12 -10.667 -25.833 -19.334 -41.5 -26.001
s-31.334 -12 -47.001 -16s-30.167 -6.83301 -43.5 -8.5s-23.666 -2.5 -30.999 -2.5h-166v750zM134.002 58l56.998 -0.000976562c30 0 57.5 1.66699 82.5 5s46.5 10.5 64.5 21.5s32.167 26.833 42.5 47.5s15.5 48.334 15.5 83.001c0 29.333 -3.66699 53.5 -11 72.5
s-18.166 34.167 -32.499 45.5s-31.666 19.333 -51.999 24s-43.5 7 -69.5 7h-97v-306zM552 -0.000976562v750h65v-750h-65z" />
    <glyph glyph-name="afii10046" unicode="&#x42c;" horiz-adv-x="500" 
d="M69 750h65.002v-328h69c42.667 0 80.167 -3.16699 112.5 -9.5s59.166 -17.166 80.499 -32.499s37.5 -35.833 48.5 -61.5s16.5 -58.167 16.5 -97.5c0 -37.333 -4.83301 -70 -14.5 -98s-25.834 -51.333 -48.501 -70c-12 -10.667 -25.833 -19.334 -41.5 -26.001
s-31.334 -12 -47.001 -16s-30.167 -6.83301 -43.5 -8.5s-23.666 -2.5 -30.999 -2.5h-166v750zM134.002 58l56.998 -0.000976562c30 0 57.5 1.66699 82.5 5s46.5 10.5 64.5 21.5s32.167 26.833 42.5 47.5s15.5 48.334 15.5 83.001c0 29.333 -3.66699 53.5 -11 72.5
s-18.166 34.167 -32.499 45.5s-31.666 19.333 -51.999 24s-43.5 7 -69.5 7h-97v-306z" />
    <glyph glyph-name="afii10047" unicode="&#x42d;" horiz-adv-x="556" 
d="M428 422c0 28 -1.50098 58.6699 -4.50098 92.0029s-9.66699 64.5 -20 93.5s-25.5 53.333 -45.5 73s-47.333 29.5 -82 29.5c-25.333 0 -46.666 -5 -63.999 -15s-31.5 -23.167 -42.5 -39.5s-19.167 -35.166 -24.5 -56.499s-8.66602 -43 -9.99902 -65h-65
c0 32 4.33301 62.167 13 90.5s21.5 53.166 38.5 74.499s38.167 38.166 63.5 50.499s55 18.5 89 18.5c33.333 0 61.833 -5.66699 85.5 -17s43.667 -26.5 60 -45.5s29.333 -41 39 -66s17 -51.167 22 -78.5s8.33301 -55.333 10 -84s2.5 -55.667 2.5 -81
c0 -26.667 -0.333008 -55.334 -1 -86.001s-3 -61.334 -7 -92.001s-10.333 -60.167 -19 -88.5s-21 -53.5 -37 -75.5s-36.5 -39.5 -61.5 -52.5s-55.5 -19.5 -91.5 -19.5c-37.333 0 -69.5 8.16699 -96.5 24.5s-49.167 37.5 -66.5 63.5s-30 55.167 -38 87.5
s-11.667 64.5 -11 96.5h65c0.666992 -23.333 3.16699 -47.5 7.5 -72.5s11.666 -48 21.999 -69s24.333 -38.333 42 -52s40.5 -20.5 68.5 -20.5c26 0 48 5.16699 66 15.5s33 24.333 45 42s21.167 37.667 27.5 60s11 45.5 14 69.5s4.83301 47.833 5.5 71.5s1 45.5 1 65.5h-236
v58h236v0z" />
    <glyph glyph-name="afii10048" unicode="&#x42e;" horiz-adv-x="722" 
d="M449 40c26 0 48.002 5.82812 66.002 17.4951s32.667 26.834 44 45.501s19.833 40 25.5 64s9.66699 48.333 12 73s3.66602 48.667 3.99902 72s0.5 44 0.5 62s-0.166992 39 -0.5 63s-2 48.333 -5 73s-7.66699 49 -14 73s-15.333 45.5 -27 64.5s-26.667 34.167 -45 45.5
s-40.833 17 -67.5 17c-25.333 0 -46.666 -5.66699 -63.999 -17s-31.5 -26.166 -42.5 -44.499s-19.667 -39.166 -26 -62.499s-10.833 -47.166 -13.5 -71.499s-4.33398 -48.166 -5.00098 -71.499s-1 -44 -1 -62c0 -19.333 0.166992 -41.166 0.5 -65.499
s1.66602 -49 3.99902 -74s6.66602 -49.667 12.999 -74s15.333 -45.833 27 -64.5s26.834 -33.834 45.501 -45.501s41.667 -17.5 69 -17.5zM133.002 372.995l0.000976562 -373.001h-65v750h65v-319h92c0.666992 37.333 4 76 10 116s16.833 76.333 32.5 109
s37.667 59.5 66 80.5s65.5 31.5 111.5 31.5c36.667 0 67.667 -6.33301 93 -19s46.166 -29.667 62.499 -51s28.833 -45.833 37.5 -73.5s15.167 -56.667 19.5 -87s6.83301 -60.833 7.5 -91.5s1 -59.667 1 -87c0 -40.667 -1.66699 -83.167 -5 -127.5s-12.333 -85 -27 -122
s-37 -67.5 -67 -91.5s-71.333 -36 -124 -36c-34.667 0 -64 6 -88 18s-44 28 -60 48s-28.667 43.167 -38 69.5s-16.333 54 -21 83s-7.66699 58.333 -9 88s-2 57.834 -2 84.501h-92z" />
    <glyph glyph-name="afii10049" unicode="&#x42f;" horiz-adv-x="500" 
d="M305 353c-21.333 0 -41.6641 -0.837891 -60.9971 -2.50488s-36.5 -6.16699 -51.5 -13.5s-27.333 -18.166 -37 -32.499s-15.5 -33.833 -17.5 -58.5c-1.33301 -14 -2.16602 -31.667 -2.49902 -53s-1.5 -43.666 -3.5 -66.999s-4.83301 -46.166 -8.5 -68.499
s-8.83398 -41.5 -15.501 -57.5h-71v9c9.33301 4.66699 16.166 15.5 20.499 32.5s7.5 35.5 9.5 55.5s3 39.333 3 58s0.333008 32.667 1 42c0 23.333 1.16699 45 3.5 65s7 37.833 14 53.5s17 29 30 40s30.5 19.167 52.5 24.5v2c-20 4 -36.833 12 -50.5 24s-25 26.333 -34 43
s-15.5 34.5 -19.5 53.5s-6 37.5 -6 55.5c0 38 5.66699 69.333 17 94s27.166 44.334 47.499 59.001s44.666 24.834 72.999 30.501s59.5 8.5 93.5 8.5h145v-750h-65v353h-67zM278.002 691.995c-25.333 0 -47.5 -2.16895 -66.5 -6.50195s-34.833 -11.666 -47.5 -21.999
s-22.167 -24.5 -28.5 -42.5s-9.5 -40.667 -9.5 -68c0 -33.333 5.83301 -59.5 17.5 -78.5s25 -33.167 40 -42.5s29.833 -15.166 44.5 -17.499s24.667 -3.5 30 -3.5h114v281h-94z" />
    <glyph glyph-name="afii10065" unicode="&#x430;" horiz-adv-x="389" 
d="M271 298c-19.333 -10.667 -38.5 -19.833 -57.5 -27.5l-57.5 -23.5c-14.667 -6.66699 -26.667 -13.334 -36 -20.001s-16.666 -14.167 -21.999 -22.5s-9 -18.333 -11 -30s-3 -25.5 -3 -41.5c0 -27.333 5.33301 -50.166 16 -68.499s31 -27.5 61 -27.5
c19.333 0 35.666 3.66699 48.999 11s24.333 17.333 33 30c12 17.333 19.667 37 23 59s5 43.333 5 64v97zM41 413.001c-1.33301 48.667 10.8301 86.335 36.4971 113.002s62.5 40 110.5 40c23.333 0 44.833 -3 64.5 -9s36.167 -17 49.5 -33
c12.667 -16 20.334 -33.167 23.001 -51.5s4 -37.166 4 -56.499v-339c0 -16.667 2.33301 -27.167 7 -31.5s15.667 -6.16602 33 -5.49902v-42c-10 -4 -20.5 -6 -31.5 -6s-21.833 1 -32.5 3c-13.333 5.33301 -21 11.666 -23 18.999s-4.66699 17.666 -8 30.999h-1
c-14.667 -20 -32.667 -34.833 -54 -44.5s-44 -14.5 -68 -14.5c-25.333 0 -46 4 -62 12s-28.667 19 -38 33s-15.833 30.5 -19.5 49.5s-5.5 39.5 -5.5 61.5c0 32 5.33301 59.833 16 83.5s30.667 43.167 60 58.5c24.667 11.333 49.834 21.666 75.501 30.999
s50.834 19.666 75.501 30.999c4.66699 2 8.16699 5.33301 10.5 10s3.83301 8.66699 4.5 12c0.666992 6 1.16699 13 1.5 21s0.5 16.333 0.5 25s-0.5 17 -1.5 25s-1.83301 15 -2.5 21c-4 16.667 -11.833 30 -23.5 40s-30.167 15 -55.5 15c-20.667 0 -36.5 -3 -47.5 -9
s-19.333 -13.833 -25 -23.5s-9.5 -20.667 -11.5 -33l-6 -36.5h-56z" />
    <glyph glyph-name="afii10066" unicode="&#x431;" 
d="M220 37c29.333 0 52 8.66406 68 25.9971s27.667 38.333 35 63s11.666 50.834 12.999 78.501s2 51.834 2 72.501c0 21.333 -0.666992 45.833 -2 73.5s-5.83301 53.667 -13.5 78s-19.667 44.833 -36 61.5s-39.5 25 -69.5 25c-26 0 -46.333 -8.33301 -61 -25
s-25.667 -36.667 -33 -60s-11.833 -48.166 -13.5 -74.499s-2.5 -48.833 -2.5 -67.5c0 -20.667 0.333008 -45.334 1 -74.001s4.33398 -56.167 11.001 -82.5s17.667 -48.666 33 -66.999s38 -27.5 68 -27.5zM219 716.997c39.333 8.66699 66.999 16.6719 82.999 24.0049
s24 18.666 24 33.999h47c0 -16.667 -2.5 -30.834 -7.5 -42.501s-12.833 -21.834 -23.5 -30.501s-24.5 -16.167 -41.5 -22.5s-37.5 -12.5 -61.5 -18.5c-26 -6 -47 -14.833 -63 -26.5s-28.833 -24.834 -38.5 -39.501s-16.667 -30.167 -21 -46.5
s-7.83301 -32.166 -10.5 -47.499h2c10.667 18 26 33.333 46 46s43.333 19 70 19c38.667 0 69.334 -9.33301 92.001 -28s40 -42.167 52 -70.5s19.667 -59.5 23 -93.5s5 -66 5 -96c0 -31.333 -1.66699 -64.166 -5 -98.499s-11 -65.833 -23 -94.5s-29.5 -52.334 -52.5 -71.001
s-54.5 -28 -94.5 -28c-42 0 -74.667 9.66699 -98 29s-40.5 44.666 -51.5 75.999s-17.5 66.833 -19.5 106.5s-3 80.167 -3 121.5c0 46 1.66699 91.167 5 135.5s11 84.666 23 120.999s29.167 67 51.5 92s52.5 41.5 90.5 49.5z" />
    <glyph glyph-name="afii10067" unicode="&#x432;" horiz-adv-x="402" 
d="M118 263l-0.000976562 -210.999h43c21.333 0 40.333 1.33301 57 4s30.834 8 42.501 16s20.5 19.167 26.5 33.5s9 33.166 9 56.499c0 24.667 -3.83301 43.834 -11.5 57.501s-18 23.667 -31 30s-28.333 10.166 -46 11.499s-36.5 2 -56.5 2h-33zM149.999 314.001
c20 0 37.999 1 53.999 3s29.667 6.33301 41 13s20 16.667 26 30s9 31 9 53s-3.5 38.833 -10.5 50.5s-16.667 20.167 -29 25.5s-26.666 8.5 -42.999 9.5s-33.5 1.5 -51.5 1.5h-28v-186h32zM59.998 0.000976562l-0.00195312 551.999h123c19.333 0 39 -1.66699 59 -5
s37.667 -11.666 53 -24.999s26.333 -29 33 -47s10 -37.333 10 -58c0 -28 -5.66699 -53.333 -17 -76s-31 -39.334 -59 -50.001c32.667 -8.66699 56.167 -24.667 70.5 -48s21.5 -51.333 21.5 -84c0 -35.333 -5.66699 -63.333 -17 -84s-26.666 -36.667 -45.999 -48
s-42.166 -18.666 -68.499 -21.999s-54.833 -5 -85.5 -5h-77z" />
    <glyph glyph-name="afii10068" unicode="&#x433;" horiz-adv-x="360" 
d="M66 0v552h258v-52h-201v-500h-57z" />
    <glyph glyph-name="afii10069" unicode="&#x434;" 
d="M60 52c15.333 10 25.333 26.5 30 49.5s7 55.5 7 97.5v353h282v-500h35v-160h-57v108h-273v-108h-57v160h33zM321 500h-166v-309c0 -28 -2 -53.833 -6 -77.5s-11.667 -44.167 -23 -61.5h195v448z" />
    <glyph glyph-name="afii10070" unicode="&#x435;" horiz-adv-x="389" 
d="M352 279l-259 -0.00488281v-42.5c0 -16.333 0.666992 -33.5 2 -51.5s3.83301 -35.833 7.5 -53.5s9.33398 -33.5 17.001 -47.5s17.667 -25.333 30 -34s28.166 -13 47.499 -13c20.667 0 37 4.33301 49 13s21.333 19.834 28 33.501s11.334 29 14.001 46
s4.66699 33.833 6 50.5h56c0 -25.333 -2.66699 -49.666 -8 -72.999s-14.166 -44 -26.499 -62s-28.333 -32.333 -48 -43s-43.5 -16 -71.5 -16c-38.667 0 -68.834 9.66699 -90.501 29s-37.667 43.5 -48 72.5s-16.666 60.167 -18.999 93.5s-3.5 64.333 -3.5 93
c0 28 1.16699 58.833 3.5 92.5s8.66602 65.334 18.999 95.001s26.166 54.5 47.499 74.5s51 30 89 30c32 0 58.167 -7.16699 78.5 -21.5s36.5 -32.666 48.5 -54.999s20.167 -47.166 24.5 -74.499s6.5 -54 6.5 -80v-56zM294 329.995
c0 17.333 -0.831055 36.8311 -2.49805 58.498s-5.83398 41.834 -12.501 60.501s-16.834 34.334 -30.501 47.001s-32.167 19 -55.5 19c-22.667 0 -40.5 -6.66699 -53.5 -20s-23 -29.5 -30 -48.5s-11.5 -39.167 -13.5 -60.5s-3 -40 -3 -56h201z" />
    <glyph glyph-name="afii10072" unicode="&#x436;" horiz-adv-x="593" 
d="M326 292l179 260h73l-150 -206l153 -346h-61l-133 287l-61 -85v-202h-58v202l-61 85l-133 -287h-61l153 346l-150 206h73l179 -260v260h58v-260z" />
    <glyph glyph-name="afii10073" unicode="&#x437;" horiz-adv-x="389" 
d="M139 263l-0.00488281 49.0039h16c40 0 70 9.16699 90 27.5s30 44.833 30 79.5c0 12 -1.83301 23.667 -5.5 35s-9 21.666 -16 30.999s-15.833 16.833 -26.5 22.5s-23 8.5 -37 8.5c-15.333 0 -28.333 -3 -39 -9s-19.667 -13.833 -27 -23.5s-12.666 -20.667 -15.999 -33
s-5 -24.833 -5 -37.5h-56c0 19.333 3 38.166 9 56.499s14.833 34.5 26.5 48.5s26.167 25.333 43.5 34s37.333 13 60 13s43.334 -3.83301 62.001 -11.5s34.334 -18.334 47.001 -32.001s22.5 -29.5 29.5 -47.5s10.5 -37.333 10.5 -58c0 -5.33301 -0.666992 -13.333 -2 -24
s-5 -22 -11 -34s-14.667 -24 -26 -36s-27 -22 -47 -30c38.667 -13.333 65.167 -33.166 79.5 -59.499s21.5 -53.833 21.5 -82.5c0 -38.667 -7 -68.834 -21 -90.501s-30.167 -37.834 -48.5 -48.501s-36.166 -17.167 -53.499 -19.5s-29 -3.5 -35 -3.5h-16
c-8.66699 0 -18.834 1.33301 -30.501 4s-24.167 7 -37.5 13s-25.5 14.833 -36.5 26.5s-20.167 26.667 -27.5 45s-10.666 41.5 -9.99902 69.5h58c0 -30.667 7.83301 -56.334 23.5 -77.001s40.5 -31 74.5 -31c16.667 0 31.334 3 44.001 9s23.167 14.167 31.5 24.5
s14.5 22.333 18.5 36s6 28.167 6 43.5c0 10.667 -1.5 22.334 -4.5 35.001s-8.66699 24.5 -17 35.5s-20 20.333 -35 28s-34.833 12.167 -59.5 13.5h-35z" />
    <glyph glyph-name="afii10074" unicode="&#x438;" 
d="M381 552v-552h-58v454h-2l-186 -454h-72v552h58v-455h2l184 455h74z" />
    <glyph glyph-name="afii10075" unicode="&#x439;" 
d="M119 738c4.66699 -27.333 16.668 -47.665 36.001 -60.998s42.333 -20 69 -20s49.667 6.66699 69 20s31.666 33.666 36.999 60.999h37c-4 -42 -19.5 -73.5 -46.5 -94.5s-60.833 -31.5 -101.5 -31.5c-40 0 -72.333 11.167 -97 33.5s-39 53.166 -43 92.499h40z
M381.001 552.001v-552h-58v454h-2l-186 -454h-72v552h58v-455h2l184 455h74z" />
    <glyph glyph-name="afii10076" unicode="&#x43a;" horiz-adv-x="389" 
d="M62 0v552h58v-260l179 260h73l-150 -206l153 -346h-61l-133 287l-61 -85v-202h-58z" />
    <glyph glyph-name="afii10077" unicode="&#x43b;" 
d="M155 191c0 -26 -1 -51.167 -3 -75.5s-7 -46.166 -15 -65.499s-20 -34.833 -36 -46.5s-38 -17.5 -66 -17.5v60c14 0 25.167 3 33.5 9s14.5 15.167 18.5 27.5s6.66699 28.166 8 47.499s2 42.333 2 69v353h282v-552h-58v500h-166v-309z" />
    <glyph glyph-name="afii10078" unicode="&#x43c;" horiz-adv-x="593" 
d="M122 0h-57v552h96l135 -464h2l139 464h92v-552h-57v490h-2l-146 -490h-54l-146 490h-2v-490z" />
    <glyph glyph-name="afii10079" unicode="&#x43d;" 
d="M65 0v552h58v-231h198v231h58v-552h-58v270h-198v-270h-58z" />
    <glyph glyph-name="afii10080" unicode="&#x43e;" 
d="M221 -14c-28 0 -51.6689 4.50391 -71.002 13.5039s-35.333 21.167 -48 36.5s-22.667 33.166 -30 53.499s-12.666 41.666 -15.999 63.999s-5.33301 45.166 -6 68.499s-1 45.666 -1 66.999c0 30.667 2 62.5 6 95.5s12.167 62.833 24.5 89.5s30 48.667 53 66
s53.5 26 91.5 26c38.667 0 69.334 -9.33301 92.001 -28s40 -42.167 52 -70.5s19.667 -59.5 23 -93.5s5 -66 5 -96c0 -31.333 -1.66699 -64.166 -5 -98.499s-11 -65.833 -23 -94.5s-29.5 -52.334 -52.5 -71.001s-54.5 -28 -94.5 -28zM219.998 37.0039
c29.333 0 52 8.66406 68 25.9971s27.667 38.333 35 63s11.666 50.834 12.999 78.501s2 51.834 2 72.501c0 21.333 -0.666992 45.833 -2 73.5s-5.83301 53.667 -13.5 78s-19.667 44.833 -36 61.5s-39.5 25 -69.5 25c-26 0 -46.333 -8.33301 -61 -25s-25.667 -36.667 -33 -60
s-11.833 -48.166 -13.5 -74.499s-2.5 -48.833 -2.5 -67.5c0 -20.667 0.333008 -45.334 1 -74.001s4.33398 -56.167 11.001 -82.5s17.667 -48.666 33 -66.999s38 -27.5 68 -27.5z" />
    <glyph glyph-name="afii10081" unicode="&#x43f;" 
d="M65 0v552h314v-552h-58v501h-198v-501h-58z" />
    <glyph glyph-name="afii10082" unicode="&#x440;" 
d="M116 279c0 -21.333 0.333984 -45.8369 1.00098 -73.5039s4.33398 -54 11.001 -79s17.667 -46.167 33 -63.5s37.666 -26 66.999 -26c27.333 0 48.333 8.83301 63 26.5s25.334 38.834 32.001 63.501s10.5 50.334 11.5 77.001s1.5 49 1.5 67
c0 18.667 -0.5 41.834 -1.5 69.501s-4.83301 54.5 -11.5 80.5s-17.167 48.167 -31.5 66.5s-34.833 27.5 -61.5 27.5c-30 0 -52.833 -8.33301 -68.5 -25s-26.834 -37.167 -33.501 -61.5s-10.334 -50.166 -11.001 -77.499s-1 -51.333 -1 -72zM118.001 -190.004h-59.998v742h58
v-50c13.333 19.333 29.5 34.833 48.5 46.5s40.167 17.5 63.5 17.5c38 0 68 -8.83301 90 -26.5s38.667 -40 50 -67s18.5 -56.833 21.5 -89.5s4.5 -63.667 4.5 -93c0 -30 -0.833008 -62.667 -2.5 -98s-7.5 -68.333 -17.5 -99s-26 -56.167 -48 -76.5s-53 -30.5 -93 -30.5
c-24.667 0 -46.334 4.66699 -65.001 14s-35.334 24.333 -50.001 45v-235z" />
    <glyph glyph-name="afii10083" unicode="&#x441;" horiz-adv-x="389" 
d="M358 183c0 -25.333 -2.49707 -49.8301 -7.49707 -73.4971s-13.5 -44.667 -25.5 -63s-27.833 -33 -47.5 -44s-43.834 -16.5 -72.501 -16.5c-40.667 0 -72.167 9.5 -94.5 28.5s-39 42.833 -50 71.5s-17.667 60.167 -20 94.5s-3.5 67.166 -3.5 98.499
c0 30 1.5 61.667 4.5 95s10 64.333 21 93s27.667 52.334 50 71.001s52.5 28 90.5 28c24.667 0 46.5 -4.83301 65.5 -14.5s34.667 -22.834 47 -39.501s21.666 -35.667 27.999 -57s9.5 -43.333 9.5 -66h-57c-0.666992 16.667 -3.16699 32.667 -7.5 48s-10.5 28.833 -18.5 40.5
s-17.833 21 -29.5 28s-25.5 10.167 -41.5 9.5c-27.333 -0.666992 -48.166 -9.83398 -62.499 -27.501s-24.5 -39.167 -30.5 -64.5s-9.33301 -52 -10 -80s-1 -52.667 -1 -74c0 -19.333 0.5 -42.333 1.5 -69s4.83301 -52 11.5 -76s17.667 -44.5 33 -61.5s37 -25.5 65 -25.5
c20 0 36 4.66699 48 14s21.167 21.166 27.5 35.499s10.666 30 12.999 47s4.16602 33.5 5.49902 49.5h58z" />
    <glyph glyph-name="afii10084" unicode="&#x442;" horiz-adv-x="351" 
d="M20 500v52h312v-52h-127v-500h-58v500h-127z" />
    <glyph glyph-name="afii10085" unicode="&#x443;" horiz-adv-x="389" 
d="M28 -137c8.66699 -0.666992 17.9971 -1.16504 27.9971 -1.49805s19.5 0.5 28.5 2.5s17.333 5.5 25 10.5s13.834 12.5 18.501 22.5c7.33301 16 13.5 32.5 18.5 49.5s9.5 34.167 13.5 51.5l-143 554h61l114 -447h2l120 447h59l-150 -545
c-4 -14.667 -8.16699 -30.834 -12.5 -48.501s-9.83301 -35.167 -16.5 -52.5s-14.667 -33.333 -24 -48s-20.666 -26.334 -33.999 -35.001c-10 -6 -20.167 -9.83301 -30.5 -11.5s-20.166 -2.5 -29.499 -2.5s-18 0.5 -26 1.5s-15.333 1.5 -22 1.5v51z" />
    <glyph glyph-name="afii10086" unicode="&#x444;" horiz-adv-x="704" 
d="M658 290c0 -30 -0.829102 -62.667 -2.49609 -98s-7.5 -68.333 -17.5 -99s-26 -56.167 -48 -76.5s-53 -30.5 -93 -30.5c-24.667 0 -46.334 4.66699 -65.001 14s-35.334 24.333 -50.001 45v-235h-60v235c-14.667 -20.667 -31.334 -35.667 -50.001 -45
s-40.334 -14 -65.001 -14c-40 0 -71 10.167 -93 30.5s-38 45.833 -48 76.5s-15.833 63.667 -17.5 99s-2.5 68 -2.5 98c0 29.333 1.5 60.333 4.5 93s10.167 62.5 21.5 89.5s28 49.333 50 67s52 26.5 90 26.5c23.333 0 44.5 -5.83301 63.5 -17.5s35.167 -27.167 48.5 -46.5
v248h56v-248c13.333 19.333 29.5 34.833 48.5 46.5s40.167 17.5 63.5 17.5c38 0 68 -8.83301 90 -26.5s38.667 -40 50 -67s18.5 -56.833 21.5 -89.5s4.5 -63.667 4.5 -93zM600.004 271c0 18.667 -0.499023 41.8301 -1.49902 69.4971s-4.83301 54.5 -11.5 80.5
s-17.167 48.167 -31.5 66.5s-34.833 27.5 -61.5 27.5c-30 0 -52.833 -8.33301 -68.5 -25s-26.834 -37.167 -33.501 -61.5s-10.334 -50.166 -11.001 -77.499s-1 -51.333 -1 -72c0 -21.333 0.333008 -45.833 1 -73.5s4.33398 -54 11.001 -79s17.667 -46.167 33 -63.5
s37.666 -26 66.999 -26c27.333 0 48.333 8.83301 63 26.5s25.334 38.834 32.001 63.501s10.5 50.334 11.5 77.001s1.5 49 1.5 67zM324.005 278.996c0 20.667 -0.332031 44.6709 -0.999023 72.0039s-4.33398 53.166 -11.001 77.499s-17.834 44.833 -33.501 61.5
s-38.5 25 -68.5 25c-26.667 0 -47.167 -9.16699 -61.5 -27.5s-24.833 -40.5 -31.5 -66.5s-10.5 -52.833 -11.5 -80.5s-1.5 -50.834 -1.5 -69.501c0 -18 0.5 -40.333 1.5 -67s4.83301 -52.334 11.5 -77.001s17.334 -45.834 32.001 -63.501s35.667 -26.5 63 -26.5
c29.333 0 51.666 8.66699 66.999 26s26.333 38.5 33 63.5s10.334 51.333 11.001 79s1 52.167 1 73.5z" />
    <glyph glyph-name="afii10087" unicode="&#x445;" horiz-adv-x="389" 
d="M193 234l-117 -234h-63l145 289l-135 263h65l105 -213l107 213h67l-138 -263l147 -289h-65z" />
    <glyph glyph-name="afii10088" unicode="&#x446;" 
d="M65 0v552h58v-500h198v500h58v-500h35v-160h-57v108h-292z" />
    <glyph glyph-name="afii10089" unicode="&#x447;" horiz-adv-x="426" 
d="M303 0l0.000976562 268c-19.333 -11.333 -39.333 -21 -60 -29s-45 -12 -73 -12c-15.333 0 -29.833 3 -43.5 9s-25.667 14.167 -36 24.5s-18.5 22.833 -24.5 37.5s-9 30.667 -9 48v206h58v-195c0 -23.333 6 -41.833 18 -55.5s29.333 -20.5 52 -20.5
c21.333 0 42.166 3.5 62.499 10.5s38.833 16.167 55.5 27.5v233h58v-552h-58z" />
    <glyph glyph-name="afii10090" unicode="&#x448;" horiz-adv-x="574" 
d="M65 552h58v-500h135v500h58v-500h135v500h58v-552h-444v552z" />
    <glyph glyph-name="afii10091" unicode="&#x449;" horiz-adv-x="574" 
d="M65 0v552h58v-500h135v500h58v-500h135v500h58v-500h35v-160h-57v108h-422z" />
    <glyph glyph-name="afii10092" unicode="&#x44a;" 
d="M178 52l23.998 0.00195312c22 0 42.5 0.833008 61.5 2.5s35.167 6.16699 48.5 13.5s23.833 18.333 31.5 33s11.5 34.667 11.5 60c0 21.333 -2.83301 38.666 -8.5 51.999s-13.667 23.666 -24 30.999s-23.166 12.333 -38.499 15s-32.666 4 -51.999 4h-54v-211z
M19.998 500.002l0.000976562 51.998h158v-237h42c32 0 60 -2.5 84 -7.5s44.167 -13.167 60.5 -24.5s28.5 -26.666 36.5 -45.999s12 -43.333 12 -72c0 -28 -3.66699 -52.667 -11 -74s-19.333 -38.666 -36 -51.999c-9.33301 -8 -19.833 -14.5 -31.5 -19.5
s-23.334 -9 -35.001 -12s-22.5 -5 -32.5 -6s-17.667 -1.5 -23 -1.5h-124v500h-100z" />
    <glyph glyph-name="afii10093" unicode="&#x44b;" horiz-adv-x="574" 
d="M65 552l58.001 -0.00195312v-237h42c32 0 60 -2.5 84 -7.5s44.167 -13.167 60.5 -24.5s28.5 -26.666 36.5 -45.999s12 -43.333 12 -72c0 -28 -3.66699 -52.667 -11 -74s-19.333 -38.666 -36 -51.999c-9.33301 -8 -19.833 -14.5 -31.5 -19.5s-23.334 -9 -35.001 -12
s-22.5 -5 -32.5 -6s-17.667 -1.5 -23 -1.5h-124v552zM123.001 51.998l23.998 0.00195312c22 0 42.5 0.833008 61.5 2.5s35.167 6.16699 48.5 13.5s23.833 18.333 31.5 33s11.5 34.667 11.5 60c0 21.333 -2.83301 38.666 -8.5 51.999s-13.667 23.666 -24 30.999
s-23.166 12.333 -38.499 15s-32.666 4 -51.999 4h-54v-211zM450.999 0v552h58v-552h-58z" />
    <glyph glyph-name="afii10094" unicode="&#x44c;" horiz-adv-x="389" 
d="M65 552l58.001 -0.00195312v-237h42c32 0 60 -2.5 84 -7.5s44.167 -13.167 60.5 -24.5s28.5 -26.666 36.5 -45.999s12 -43.333 12 -72c0 -28 -3.66699 -52.667 -11 -74s-19.333 -38.666 -36 -51.999c-9.33301 -8 -19.833 -14.5 -31.5 -19.5s-23.334 -9 -35.001 -12
s-22.5 -5 -32.5 -6s-17.667 -1.5 -23 -1.5h-124v552zM123.001 51.998l23.998 0.00195312c22 0 42.5 0.833008 61.5 2.5s35.167 6.16699 48.5 13.5s23.833 18.333 31.5 33s11.5 34.667 11.5 60c0 21.333 -2.83301 38.666 -8.5 51.999s-13.667 23.666 -24 30.999
s-23.166 12.333 -38.499 15s-32.666 4 -51.999 4h-54v-211z" />
    <glyph glyph-name="afii10095" unicode="&#x44d;" horiz-adv-x="389" 
d="M294 314c0 22 -1.16504 44.667 -3.49805 68s-7.16602 44.666 -14.499 63.999s-17.833 35.5 -31.5 48.5s-31.834 19.833 -54.501 20.5c-16 0.666992 -29.833 -2.5 -41.5 -9.5s-21.5 -16.333 -29.5 -28s-14.167 -25.167 -18.5 -40.5s-6.83301 -31.333 -7.5 -48h-57
c0 22.667 3.16699 44.667 9.5 66s15.666 40.333 27.999 57s28 29.834 47 39.501s40.833 14.5 65.5 14.5c38 0 68.167 -9.33301 90.5 -28s39 -42.334 50 -71.001s18 -59.667 21 -93s4.5 -65 4.5 -95c0 -31.333 -1.16699 -64.166 -3.5 -98.499s-9 -65.833 -20 -94.5
s-27.667 -52.5 -50 -71.5s-53.833 -28.5 -94.5 -28.5c-29.333 0 -53.666 5.5 -72.999 16.5s-35 25.667 -47 44s-20.5 39.333 -25.5 63s-7.5 48.167 -7.5 73.5h58c1.33301 -16 3.16602 -32.5 5.49902 -49.5s6.66602 -32.667 12.999 -47s15.5 -26.166 27.5 -35.499
s28 -14 48 -14c27.333 0 48.5 8.16699 63.5 24.5s26 36.166 33 59.499s11.167 48 12.5 74s2 48.667 2 68h-171v51h171v0z" />
    <glyph glyph-name="afii10096" unicode="&#x44e;" horiz-adv-x="593" 
d="M369 37c29.333 0 52 8.66406 68 25.9971s27.667 38.333 35 63s11.666 50.834 12.999 78.501s2 51.834 2 72.501c0 21.333 -0.666992 45.833 -2 73.5s-5.83301 53.667 -13.5 78s-19.667 44.833 -36 61.5s-39.5 25 -69.5 25c-26 0 -46.333 -8.33301 -61 -25
s-25.667 -36.667 -33 -60s-11.833 -48.166 -13.5 -74.499s-2.5 -48.833 -2.5 -67.5c0 -20.667 0.333008 -45.334 1 -74.001s4.33398 -56.167 11.001 -82.5s17.667 -48.666 33 -66.999s38 -27.5 68 -27.5zM123 269.997v-270.002h-58v552h58v-231h76
c0.666992 29.333 3.66699 58.5 9 87.5s14.5 55.167 27.5 78.5s30.5 42.333 52.5 57s50.333 22 85 22c38.667 0 69.334 -9.33301 92.001 -28s40 -42.167 52 -70.5s19.667 -59.5 23 -93.5s5 -66 5 -96c0 -31.333 -1.66699 -64.166 -5 -98.499s-11 -65.833 -23 -94.5
s-29.5 -52.334 -52.5 -71.001s-54.5 -28 -94.5 -28s-71.333 8.83301 -94 26.5s-39.834 40.334 -51.501 68.001s-19 58.334 -22 92.001s-4.5 66.167 -4.5 97.5h-75z" />
    <glyph glyph-name="afii10097" unicode="&#x44f;" horiz-adv-x="402" 
d="M242 255c-16 0 -30.668 -0.665039 -44.001 -1.99805s-25.166 -4.66602 -35.499 -9.99902s-18.666 -13.166 -24.999 -23.499s-10.166 -24.833 -11.499 -43.5c-0.666992 -10 -1.16699 -22.667 -1.5 -38s-1.16602 -31.333 -2.49902 -48s-3.33301 -33 -6 -49
s-6.66699 -29.667 -12 -41h-62v7c6.66699 3.33301 11.667 11.166 15 23.499s5.66602 25.833 6.99902 40.5s2.16602 29 2.49902 43s0.5 24.333 0.5 31c0 17.333 1 33.333 3 48s5.5 27.667 10.5 39s12.5 21.166 22.5 29.499s23 14.5 39 18.5v1
c-14.667 3.33301 -27.167 9.5 -37.5 18.5s-18.833 19.5 -25.5 31.5s-11.5 25 -14.5 39s-4.5 27.667 -4.5 41c0 28 4.16699 51.167 12.5 69.5s20 32.666 35 42.999s33.167 17.666 54.5 21.999s44.666 6.5 69.999 6.5h109v-552h-58v255h-41zM230.999 500.002
c-19.333 0 -36.001 -1.16699 -50.001 -3.5s-25.833 -7 -35.5 -14s-16.834 -16.833 -21.501 -29.5s-7 -29 -7 -49c0 -24.667 4.33301 -43.667 13 -57s18.834 -23 30.501 -29s22.834 -9.5 33.501 -10.5s18 -1.5 22 -1.5h67v194h-52z" />
    <glyph glyph-name="afii10071" unicode="&#x451;" horiz-adv-x="389" 
d="M352 279l-259 -0.00488281v-42.5c0 -16.333 0.666992 -33.5 2 -51.5s3.83301 -35.833 7.5 -53.5s9.33398 -33.5 17.001 -47.5s17.667 -25.333 30 -34s28.166 -13 47.499 -13c20.667 0 37 4.33301 49 13s21.333 19.834 28 33.501s11.334 29 14.001 46
s4.66699 33.833 6 50.5h56c0 -25.333 -2.66699 -49.666 -8 -72.999s-14.166 -44 -26.499 -62s-28.333 -32.333 -48 -43s-43.5 -16 -71.5 -16c-38.667 0 -68.834 9.66699 -90.501 29s-37.667 43.5 -48 72.5s-16.666 60.167 -18.999 93.5s-3.5 64.333 -3.5 93
c0 28 1.16699 58.833 3.5 92.5s8.66602 65.334 18.999 95.001s26.166 54.5 47.499 74.5s51 30 89 30c32 0 58.167 -7.16699 78.5 -21.5s36.5 -32.666 48.5 -54.999s20.167 -47.166 24.5 -74.499s6.5 -54 6.5 -80v-56zM294 329.995
c0 17.333 -0.831055 36.8311 -2.49805 58.498s-5.83398 41.834 -12.501 60.501s-16.834 34.334 -30.501 47.001s-32.167 19 -55.5 19c-22.667 0 -40.5 -6.66699 -53.5 -20s-23 -29.5 -30 -48.5s-11.5 -39.167 -13.5 -60.5s-3 -40 -3 -56h201zM84.002 718.993h64v-102h-64
v102zM242.002 718.993h64v-102h-64v102z" />
    <glyph glyph-name="afii10099" unicode="&#x452;" 
d="M381 -56c0 -20 -1.16895 -39.668 -3.50195 -59.001s-11.166 -36.666 -26.499 -51.999c-14 -9.33301 -29.167 -15.333 -45.5 -18s-32.833 -4 -49.5 -4v54c6.66699 -0.666992 13 -0.5 19 0.5s12 2.16699 18 3.5c8 2.66699 14 7 18 13s7 12.5 9 19.5s3 14.5 3 22.5v22v335
c0 16 -0.666992 31.5 -2 46.5s-4.83301 28.5 -10.5 40.5s-14.167 21.5 -25.5 28.5s-27 10.5 -47 10.5c-27.333 0 -50.833 -7.83301 -70.5 -23.5s-35.167 -35.167 -46.5 -58.5v-325h-58v501h-50v51h50v198h58v-198h154v-51h-154v-106c13.333 20.667 30.833 36 52.5 46
s44.167 15.667 67.5 17c21.333 1.33301 42.833 -1.5 64.5 -8.5s38.834 -20.167 51.501 -39.5c12 -16 19 -34.833 21 -56.5s3 -42.167 3 -61.5v-348v0z" />
    <glyph glyph-name="afii10100" unicode="&#x453;" horiz-adv-x="360" 
d="M66 0v552h258v-52h-201v-500h-57zM118 606l111 139h78l-138 -139h-51z" />
    <glyph glyph-name="afii10101" unicode="&#x454;" horiz-adv-x="389" 
d="M359 183c0 -25.333 -2.49902 -49.833 -7.49902 -73.5s-13.5 -44.667 -25.5 -63s-27.833 -33 -47.5 -44s-43.834 -16.5 -72.501 -16.5c-40.667 0 -72.167 9.5 -94.5 28.5s-39 42.833 -50 71.5s-17.667 60.167 -20 94.5s-3.5 67.166 -3.5 98.499c0 30 1.5 61.667 4.5 95
s10 64.333 21 93s27.667 52.334 50 71.001s52.5 28 90.5 28c24.667 0 46.5 -4.83301 65.5 -14.5s34.667 -22.834 47 -39.501s21.666 -35.667 27.999 -57s9.5 -43.333 9.5 -66h-57c-0.666992 16.667 -3.16699 32.667 -7.5 48s-10.5 28.833 -18.5 40.5s-17.833 21 -29.5 28
s-25.5 10.167 -41.5 9.5c-23.333 -0.666992 -41.666 -7.5 -54.999 -20.5s-23.666 -29.167 -30.999 -48.5s-12.166 -40.666 -14.499 -63.999s-3.5 -46 -3.5 -68h171v-51h-171c0 -19.333 0.666992 -42 2 -68s5.5 -50.667 12.5 -74s18 -43.166 33 -59.499
s36.167 -24.5 63.5 -24.5c20 0 36 4.66699 48 14s21.167 21.166 27.5 35.499s10.666 30 12.999 47s4.16602 33.5 5.49902 49.5h58v0z" />
    <glyph glyph-name="afii10102" unicode="&#x455;" horiz-adv-x="389" 
d="M44 407c-4.66699 50 5.16406 89 29.4971 117s61.833 42 112.5 42c48 0 85 -13.833 111 -41.5s39 -65.5 39 -113.5h-57c-1.33301 29.333 -9.83301 54 -25.5 74s-38.834 30 -69.501 30c-28 0 -48.667 -7.83301 -62 -23.5s-20 -37.167 -20 -64.5
c0 -22 6.33301 -39.667 19 -53s28.667 -23.666 48 -30.999c24.667 -11.333 47.834 -22.833 69.501 -34.5s40.834 -25.167 57.501 -40.5s29.834 -33.5 39.501 -54.5s14.5 -46.167 14.5 -75.5c0 -49.333 -14.167 -87 -42.5 -113s-66.5 -39 -114.5 -39
c-54 0 -94.333 14.167 -121 42.5s-40 68.833 -40 121.5h59c2.66699 -34 12 -61.333 28 -82s42 -31 78 -31c30.667 0 54.167 10 70.5 30s24.5 44.667 24.5 74c0 24 -6 44 -18 60s-26.833 29.667 -44.5 41s-37.167 21.666 -58.5 30.999s-41.166 19.833 -59.499 31.5
s-33.833 25.5 -46.5 41.5s-19.667 36.333 -21 61z" />
    <glyph glyph-name="afii10103" unicode="&#x456;" horiz-adv-x="222" 
d="M82 0v552h58v-552h-58zM78 655v95h67v-95h-67z" />
    <glyph glyph-name="afii10104" unicode="&#x457;" horiz-adv-x="200" 
d="M71 0v552h58v-552h-58zM-10 719h64v-102h-64v102zM148 719h64v-102h-64v102z" />
    <glyph glyph-name="afii10105" unicode="&#x458;" horiz-adv-x="222" 
d="M21 -135c6.66699 -0.666992 12.999 -0.500977 18.999 0.499023s12 2.16699 18 3.5c8 2.66699 14 7 18 13s7 12.5 9 19.5s3 14.5 3 22.5v22v606h58v-608c0 -20 -1.16699 -39.667 -3.5 -59s-11.166 -36.666 -26.499 -51.999c-14 -9.33301 -29.167 -15.333 -45.5 -18
s-32.833 -4 -49.5 -4v54zM149.999 749.999v-92h-67v92h67z" />
    <glyph glyph-name="afii10106" unicode="&#x459;" horiz-adv-x="648" 
d="M379 52l23.998 0.00195312c22 0 42.5 0.833008 61.5 2.5s35.167 6.16699 48.5 13.5s23.833 18.333 31.5 33s11.5 34.667 11.5 60c0 21.333 -2.83301 38.666 -8.5 51.999s-13.667 23.666 -24 30.999s-23.166 12.333 -38.499 15s-32.666 4 -51.999 4h-54v-211z
M378.998 315.002l42.001 -0.00195312c32 0 60 -2.5 84 -7.5s44.167 -13.167 60.5 -24.5s28.5 -26.666 36.5 -45.999s12 -43.333 12 -72c0 -28 -3.66699 -52.667 -11 -74s-19.333 -38.666 -36 -51.999c-9.33301 -8 -19.833 -14.5 -31.5 -19.5s-23.334 -9 -35.001 -12
s-22.5 -5 -32.5 -6s-17.667 -1.5 -23 -1.5h-124v500h-166v-309c0 -26 -1 -51.167 -3 -75.5s-7 -46.166 -15 -65.499s-20 -34.833 -36 -46.5s-38 -17.5 -66 -17.5v60c14 0 25.167 3 33.5 9s14.5 15.167 18.5 27.5s6.66699 28.166 8 47.499s2 42.333 2 69v353h282v-237z" />
    <glyph glyph-name="afii10107" unicode="&#x45a;" horiz-adv-x="648" 
d="M379 52l23.998 0.00195312c22 0 42.5 0.833008 61.5 2.5s35.167 6.16699 48.5 13.5s23.833 18.333 31.5 33s11.5 34.667 11.5 60c0 21.333 -2.83301 38.666 -8.5 51.999s-13.667 23.666 -24 30.999s-23.166 12.333 -38.499 15s-32.666 4 -51.999 4h-54v-211z
M122.998 270.002l0.000976562 -270.002h-58v552h58v-231h198v231h58v-237h42c32 0 60 -2.5 84 -7.5s44.167 -13.167 60.5 -24.5s28.5 -26.666 36.5 -45.999s12 -43.333 12 -72c0 -28 -3.66699 -52.667 -11 -74s-19.333 -38.666 -36 -51.999
c-9.33301 -8 -19.833 -14.5 -31.5 -19.5s-23.334 -9 -35.001 -12s-22.5 -5 -32.5 -6s-17.667 -1.5 -23 -1.5h-124v270h-198z" />
    <glyph glyph-name="afii10108" unicode="&#x45b;" 
d="M121 395c13.333 20.667 30.832 36 52.499 46s44.167 15.667 67.5 17c21.333 1.33301 42.833 -1.5 64.5 -8.5s38.834 -20.167 51.501 -39.5c12 -16 19 -34.833 21 -56.5s3 -42.167 3 -61.5v-292h-58v281c0 16 -0.666992 31.5 -2 46.5s-4.83301 28.5 -10.5 40.5
s-14.167 21.5 -25.5 28.5s-27 10.5 -47 10.5c-27.333 0 -50.833 -7.83301 -70.5 -23.5s-35.167 -35.167 -46.5 -58.5v-325h-58v501h-50v51h50v198h58v-198h154v-51h-154v-106z" />
    <glyph glyph-name="afii10109" unicode="&#x45c;" horiz-adv-x="389" 
d="M62 0v552h58v-260l179 260h73l-150 -206l153 -346h-61l-133 287l-61 -85v-202h-58zM132 606l111 139h78l-138 -139h-51z" />
    <glyph glyph-name="afii10110" unicode="&#x45e;" horiz-adv-x="389" 
d="M28 -137c8.66699 -0.666992 17.9971 -1.16504 27.9971 -1.49805s19.5 0.5 28.5 2.5s17.333 5.5 25 10.5s13.834 12.5 18.501 22.5c7.33301 16 13.5 32.5 18.5 49.5s9.5 34.167 13.5 51.5l-143 554h61l114 -447h2l120 447h59l-150 -545
c-4 -14.667 -8.16699 -30.834 -12.5 -48.501s-9.83301 -35.167 -16.5 -52.5s-14.667 -33.333 -24 -48s-20.666 -26.334 -33.999 -35.001c-10 -6 -20.167 -9.83301 -30.5 -11.5s-20.166 -2.5 -29.499 -2.5s-18 0.5 -26 1.5s-15.333 1.5 -22 1.5v51zM92.9971 738.002
c4.66699 -27.333 16.668 -47.665 36.001 -60.998s42.333 -20 69 -20s49.667 6.66699 69 20s31.666 33.666 36.999 60.999h37c-4 -42 -19.5 -73.5 -46.5 -94.5s-60.833 -31.5 -101.5 -31.5c-40 0 -72.333 11.167 -97 33.5s-39 53.166 -43 92.499h40z" />
    <glyph glyph-name="afii10193" unicode="&#x45f;" 
d="M248 -108h-57v108h-126v552h58l-4 -500h198l4 500h58v-552h-131v-108z" />
    <glyph glyph-name="afii10050" unicode="&#x490;" 
d="M349 858h65v-166h-280v-692h-65v750h280v108z" />
    <glyph glyph-name="afii10098" unicode="&#x491;" horiz-adv-x="360" 
d="M123 500v-500h-57v552h201v108h57v-160h-201z" />
    <glyph glyph-name="endash" unicode="&#x2013;" horiz-adv-x="500" 
d="M0 273v51h500v-51h-500z" />
    <glyph glyph-name="emdash" unicode="&#x2014;" horiz-adv-x="1000" 
d="M0 273v51h1000v-51h-1000z" />
    <glyph glyph-name="quoteleft" unicode="&#x2018;" horiz-adv-x="160" 
d="M111 713c-8 -3.33301 -14.1689 -8.33301 -18.502 -15s-7.33301 -14 -9 -22s-2.5 -16.333 -2.5 -25v-24v-13h30v-88h-69v56v35c0 12 0.666992 24 2 36c2.66699 30 8.83398 52.167 18.501 66.5s25.834 24.5 48.501 30.5v-37z" />
    <glyph glyph-name="quoteright" unicode="&#x2019;" horiz-adv-x="160" 
d="M49 563c8 3.33301 14.1689 8.33301 18.502 15s7.33301 14 9 22s2.5 16.333 2.5 25v24v13h-30v88h69v-56v-35c0 -12 -0.666992 -24 -2 -36c-2.66699 -30 -8.83398 -52.167 -18.501 -66.5s-25.834 -24.5 -48.501 -30.5v37z" />
    <glyph glyph-name="quotesinglbase" unicode="&#x201a;" horiz-adv-x="222" 
d="M77 -99c8 3.33301 14.1689 8.33301 18.502 15s7.33301 14 9 22s2.5 16.333 2.5 25v24v13h-30v88h69v-56v-35c0 -12 -0.666992 -24 -2 -36c-2.66699 -30 -8.83398 -52.167 -18.501 -66.5s-25.834 -24.5 -48.501 -30.5v37z" />
    <glyph glyph-name="quotedblleft" unicode="&#x201c;" horiz-adv-x="333" 
d="M154 713c-8 -3.33301 -14.1689 -8.33301 -18.502 -15s-7.33301 -14 -9 -22s-2.5 -16.333 -2.5 -25v-24v-13h30v-88h-69v56v35c0 12 0.666992 24 2 36c2.66699 30 8.83398 52.167 18.501 66.5s25.834 24.5 48.501 30.5v-37zM283.998 713
c-8 -3.33301 -14.1689 -8.33301 -18.502 -15s-7.33301 -14 -9 -22s-2.5 -16.333 -2.5 -25v-24v-13h30v-88h-69v56v35c0 12 0.666992 24 2 36c2.66699 30 8.83398 52.167 18.501 66.5s25.834 24.5 48.501 30.5v-37z" />
    <glyph glyph-name="quotedblright" unicode="&#x201d;" horiz-adv-x="333" 
d="M179 563c8 3.33301 14.1689 8.33301 18.502 15s7.33301 14 9 22s2.5 16.333 2.5 25v24v13h-30v88h69v-56v-35c0 -12 -0.666992 -24 -2 -36c-2.66699 -30 -8.83398 -52.167 -18.501 -66.5s-25.834 -24.5 -48.501 -30.5v37zM49.002 563
c8 3.33301 14.1689 8.33301 18.502 15s7.33301 14 9 22s2.5 16.333 2.5 25v24v13h-30v88h69v-56v-35c0 -12 -0.666992 -24 -2 -36c-2.66699 -30 -8.83398 -52.167 -18.501 -66.5s-25.834 -24.5 -48.501 -30.5v37z" />
    <glyph glyph-name="quotedblbase" unicode="&#x201e;" horiz-adv-x="330" 
d="M196 -99c8 3.33301 14.1689 8.33301 18.502 15s7.33301 14 9 22s2.5 16.333 2.5 25v24v13h-30v88h69v-56v-35c0 -12 -0.666992 -24 -2 -36c-2.66699 -30 -8.83398 -52.167 -18.501 -66.5s-25.834 -24.5 -48.501 -30.5v37zM66.002 -99
c8 3.33301 14.1689 8.33301 18.502 15s7.33301 14 9 22s2.5 16.333 2.5 25v24v13h-30v88h69v-56v-35c0 -12 -0.666992 -24 -2 -36c-2.66699 -30 -8.83398 -52.167 -18.501 -66.5s-25.834 -24.5 -48.501 -30.5v37z" />
    <glyph glyph-name="daggerdbl" unicode="&#x2021;" 
d="M413 157v-51h-162v-223h-58v223h-162v51h162v338h-160v51h160v222h58v-222h162v-51h-162v-338h162z" />
    <glyph glyph-name="bullet" unicode="&#x2022;" horiz-adv-x="606" 
d="M490 375c0 -25.333 -5 -49.166 -15 -71.499s-23.5 -42 -40.5 -59s-36.833 -30.5 -59.5 -40.5s-47 -15 -73 -15c-25.333 0 -49.166 5 -71.499 15s-42 23.5 -59 40.5s-30.5 36.667 -40.5 59s-15 46.166 -15 71.499c0 26 5 50.333 15 73s23.5 42.5 40.5 59.5
s36.667 30.5 59 40.5s46.166 15 71.499 15c26 0 50.333 -5 73 -15s42.5 -23.5 59.5 -40.5s30.5 -36.833 40.5 -59.5s15 -47 15 -73z" />
    <glyph glyph-name="ellipsis" unicode="&#x2026;" horiz-adv-x="1000" 
d="M133 0v88h69v-88h-69zM466 0v88h69v-88h-69zM799 0v88h69v-88h-69z" />
    <glyph glyph-name="perthousand" unicode="&#x2030;" horiz-adv-x="1000" 
d="M469 741h44l-305 -756h-43zM513 358c26.667 0 48.501 -5.33301 65.501 -16s30.333 -24.5 40 -41.5s16.334 -36.333 20.001 -58s5.5 -43.5 5.5 -65.5c0 -64 -11.833 -109.833 -35.5 -137.5s-55.834 -41.5 -96.501 -41.5c-28.667 0 -51.667 5.16699 -69 15.5
s-30.833 23.833 -40.5 40.5s-16 35.667 -19 57s-4.5 43.333 -4.5 66s1.83301 45 5.5 67s10.5 41.333 20.5 58s23.667 30.167 41 40.5s39.666 15.5 66.999 15.5zM513.001 314c-18 0 -32.333 -4.99707 -43 -14.9971s-18.5 -22.333 -23.5 -37s-8.16699 -29.667 -9.5 -45
s-2 -28.333 -2 -39c0 -50.667 6.83301 -86 20.5 -106s33.5 -30 59.5 -30c14 0 25.667 3.5 35 10.5s16.833 16.667 22.5 29s9.66699 26.666 12 42.999s3.5 34.166 3.5 53.499c0 14 -0.5 28.833 -1.5 44.5s-4 30.167 -9 43.5s-12.5 24.666 -22.5 33.999s-24 14 -42 14z
M835.001 358.003c26.667 0 48.501 -5.33301 65.501 -16s30.333 -24.5 40 -41.5s16.334 -36.333 20.001 -58s5.5 -43.5 5.5 -65.5c0 -64 -11.833 -109.833 -35.5 -137.5s-55.834 -41.5 -96.501 -41.5c-28.667 0 -51.667 5.16699 -69 15.5s-30.833 23.833 -40.5 40.5
s-16 35.667 -19 57s-4.5 43.333 -4.5 66s1.83301 45 5.5 67s10.5 41.333 20.5 58s23.667 30.167 41 40.5s39.666 15.5 66.999 15.5zM835.002 314.003c-18 0 -32.333 -4.99707 -43 -14.9971s-18.5 -22.333 -23.5 -37s-8.16699 -29.667 -9.5 -45s-2 -28.333 -2 -39
c0 -50.667 6.83301 -86 20.5 -106s33.5 -30 59.5 -30c14 0 25.667 3.5 35 10.5s16.833 16.667 22.5 29s9.66699 26.666 12 42.999s3.5 34.166 3.5 53.499c0 14 -0.5 28.833 -1.5 44.5s-4 30.167 -9 43.5s-12.5 24.666 -22.5 33.999s-24 14 -42 14zM168.002 728.006
c26.667 0 48.501 -5.33301 65.501 -16s30.333 -24.5 40 -41.5s16.334 -36.333 20.001 -58s5.5 -43.5 5.5 -65.5c0 -64 -11.833 -109.833 -35.5 -137.5s-55.834 -41.5 -96.501 -41.5c-28.667 0 -51.667 5.16699 -69 15.5s-30.833 23.833 -40.5 40.5s-16 35.667 -19 57
s-4.5 43.333 -4.5 66s1.83301 45 5.5 67s10.5 41.333 20.5 58s23.667 30.167 41 40.5s39.666 15.5 66.999 15.5zM168.003 684.006c-18 0 -32.333 -4.99707 -43 -14.9971s-18.5 -22.333 -23.5 -37s-8.16699 -29.667 -9.5 -45s-2 -28.333 -2 -39
c0 -50.667 6.83301 -86 20.5 -106s33.5 -30 59.5 -30c14 0 25.667 3.5 35 10.5s16.833 16.667 22.5 29s9.66699 26.666 12 42.999s3.5 34.166 3.5 53.499c0 14 -0.5 28.833 -1.5 44.5s-4 30.167 -9 43.5s-12.5 24.666 -22.5 33.999s-24 14 -42 14z" />
    <glyph glyph-name="guilsinglleft" unicode="&#x2039;" horiz-adv-x="333" 
d="M90 236v70l141 106v-60l-101 -81l101 -79v-62z" />
    <glyph glyph-name="guilsinglright" unicode="&#x203a;" horiz-adv-x="333" 
d="M102 412l141 -106v-70l-141 -106v62l102 79l-102 81v60z" />
    <glyph glyph-name="afii61352" unicode="&#x2116;" horiz-adv-x="833" 
d="M423 106h2v644h65v-750h-79l-278 642h-2v-642h-65v750h81zM690 768c24.667 0 44.333 -5.33594 59 -16.0029s26 -24.167 34 -40.5s13.167 -34.666 15.5 -54.999s3.5 -40.166 3.5 -59.499c0 -20 -1.33301 -40.333 -4 -61s-8 -39.167 -16 -55.5s-19.5 -29.666 -34.5 -39.999
s-34.833 -15.5 -59.5 -15.5c-26.667 0 -47.5 5.33301 -62.5 16s-26.333 24.5 -34 41.5s-12.334 36.167 -14.001 57.5s-2.5 42.666 -2.5 63.999c0 20 1.5 39.667 4.5 59s8.83301 36.833 17.5 52.5s20.334 28.334 35.001 38.001s34 14.5 58 14.5zM684.999 736.997
c-18.667 0 -32.999 -6.16699 -42.999 -18.5s-17.167 -27.166 -21.5 -44.499s-6.66602 -35.333 -6.99902 -54s0.166992 -34.334 1.5 -47.001c0.666992 -12 1.5 -24 2.5 -36s3.16699 -23.333 6.5 -34s8.66602 -20.167 15.999 -28.5s17.666 -14.5 30.999 -18.5
c22 -2.66699 39.167 0 51.5 8s21.333 19 27 33s9 29.833 10 47.5s1.5 35.167 1.5 52.5c0 14 -0.5 29.167 -1.5 45.5s-3.83301 31.5 -8.5 45.5s-12.167 25.667 -22.5 35s-24.833 14 -43.5 14zM780 363.997v-31h-192v31h192z" />
    <glyph glyph-name="trademark" unicode="&#x2122;" horiz-adv-x="722" 
d="M666 329h-51v368h-2l-94 -368h-36l-93 368h-2v-368h-51v421h88l75 -297h2l78 297h86v-421zM292 699h-92v-370h-51v370h-92v51h235v-51z" />
    <glyph glyph-name="partialdiff" unicode="&#x2202;" horiz-adv-x="564" 
d="M229 366c-25.333 0 -48.8301 5.00195 -70.4971 15.002s-40.334 23.667 -56.001 41s-27.834 37.5 -36.501 60.5s-13 47.5 -13 73.5c0 34.667 5 64.167 15 88.5s24.167 44.166 42.5 59.499s40.166 26.666 65.499 33.999s53.333 11.333 84 12h183v-866h-58v799h-98v-799h-58
v482z" />
    <glyph glyph-name=".null" horiz-adv-x="0" 
 />
    <glyph glyph-name="nonmarkingreturn" horiz-adv-x="222" 
 />
    <glyph glyph-name="percent" horiz-adv-x="778" 
d="M575 358c26.667 0 48.501 -5.33301 65.501 -16s30.333 -24.5 40 -41.5s16.334 -36.333 20.001 -58s5.5 -43.5 5.5 -65.5c0 -64 -11.833 -109.833 -35.5 -137.5s-55.834 -41.5 -96.501 -41.5c-28.667 0 -51.667 5.16699 -69 15.5s-30.833 23.833 -40.5 40.5
s-16 35.667 -19 57s-4.5 43.333 -4.5 66s1.83301 45 5.5 67s10.5 41.333 20.5 58s23.667 30.167 41 40.5s39.666 15.5 66.999 15.5zM577.001 42c14 0 25.667 3.50098 35 10.501s16.833 16.5 22.5 28.5s9.66699 26.167 12 42.5s3.5 34.166 3.5 53.499
c0 14 -0.5 28.833 -1.5 44.5s-4 30.334 -9 44.001s-12.5 25.167 -22.5 34.5s-24 14 -42 14s-32.333 -5.16699 -43 -15.5s-18.5 -22.666 -23.5 -36.999s-8.16699 -29.333 -9.5 -45s-2 -28.834 -2 -39.501c0 -50.667 6.83301 -85.834 20.5 -105.501s33.5 -29.5 59.5 -29.5z
M207.001 728.001c26.667 0 48.501 -5.33301 65.501 -16s30.333 -24.5 40 -41.5s16.334 -36.333 20.001 -58s5.5 -43.5 5.5 -65.5c0 -64 -11.833 -109.667 -35.5 -137s-55.834 -41 -96.501 -41c-28.667 0 -51.667 5 -69 15s-30.833 23.333 -40.5 40s-16 35.667 -19 57
s-4.5 43.333 -4.5 66s1.83301 45 5.5 67s10.5 41.333 20.5 58s23.667 30.167 41 40.5s39.666 15.5 66.999 15.5zM209.002 413.001c14 0 25.667 3.50293 35 10.5029s16.833 16.5 22.5 28.5s9.66699 26.167 12 42.5s3.5 34.166 3.5 53.499c0 14 -0.5 28.833 -1.5 44.5
s-4 30.167 -9 43.5s-12.5 24.666 -22.5 33.999s-24 14 -42 14s-32.333 -5 -43 -15s-18.5 -22.333 -23.5 -37s-8.16699 -29.667 -9.5 -45s-2 -28.333 -2 -39c0 -50.667 6.83301 -85.834 20.5 -105.501s33.5 -29.5 59.5 -29.5zM519.002 741.004h44l-304 -756h-44z" />
    <glyph glyph-name="hyphenminus" horiz-adv-x="333" 
d="M35 269v58h259v-58h-259z" />
    </font>
</defs>
</svg>
